Slayer - Live at Wacken Open Air [2014 г., Thrash Metal, HDTV] 720p

 
Автор Сообщение

sergej644 ®

Пол:

Стаж: 4 года 11 месяцев

Сообщений: 6038

Откуда: Soviet Union



Награды: Нет

Торрент-статистика

Создавать темы 10-Авг-2014 18:21

[Цитировать]

--Slayer - Live at Wacken Open Air
Год выпуска: 2014
Страна: USA
Жанр: Thrash Metal
Продолжительность: 00:18:53
Описание:
Bыступление Motorhead на Wacken Open Air 2014.Запись со спутникового канала 3sat HD-Солист: Том Арайа (солист с 1981 г.)
Участники: Том Арайа, Керри Кинг, Джефф Ханнеман, Дэйв Ломбардо, Пол Бостаф, Джон Детт, Тони Скаглен
-

треклист

01. War Ensemble
02. Black Magic
03. South Of Heaven
04. Angel Of Death
Качество: HDTV 720p
Формат: TS
Видео кодек: H.264
Аудио кодек: AC3
Видео: AVC, 11,6 Мбит/сек, 1280 x 720 (1.778), 50.000 fps, 0.252 bit/pic
Аудио: AC-3, 448 Кбит/сек, 2 канала, 48,0 КГц, 16 bit
-

MediaInfo

Общее
Идентификатор                            : 1010 (0x3F2)
Полное имя                               : E:\torrent files\Slayer-Wacken 2014.ts
Формат                                   : MPEG-TS
Размер файла                             : 1,68 Гбайт
Продолжительность                        : 18 м.
Режим общего битрейта                    : Переменный
Общий поток                              : 12,7 Мбит/сек
Видео
Идентификатор                            : 6510 (0x196E)
Идентификатор меню                       : 11150 (0x2B8E)
Формат                                   : AVC
Формат/Информация                        : Advanced Video Codec
Профиль формата                          : High@L4.0
Параметр CABAC формата                   : Да
Параметр ReFrames формата                : 6 кадров
Параметр GOP формата                     : M=4, N=29
Идентификатор кодека                     : 27
Продолжительность                        : 18 м.
Битрейт                                  : 11,6 Мбит/сек
Ширина                                   : 1280 пикселей
Высота                                   : 720 пикселей
Соотношение сторон                       : 16:9
Частота кадров                           : 50,000 кадров/сек
Цветовое пространство                    : YUV
Субдискретизация насыщенности            : 4:2:0
Битовая глубина                          : 8 бит
Тип развёртки                            : Прогрессивная
Бит/(Пиксели*Кадры)                      : 0.252
Размер потока                            : 1,53 Гбайт (91%)
Основные цвета                           : BT.709
Характеристики трансфера                 : BT.709
Коэффициенты матрицы                     : BT.709
Аудио
Идентификатор                            : 6522 (0x197A)
Идентификатор меню                       : 11150 (0x2B8E)
Формат                                   : AC-3
Формат/Информация                        : Audio Coding 3
Расширение режима                        : CM (complete main)
Параметр Endianness формата              : Big
Идентификатор кодека                     : 6
Продолжительность                        : 18 м.
Вид битрейта                             : Постоянный
Битрейт                                  : 448 Кбит/сек
Каналы                                   : 2 канала
Расположение каналов                     : Front: L R
Частота                                  : 48,0 КГц
Битовая глубина                          : 16 бит
Метод сжатия                             : С потерями
Задержка видео                           : 147 мс.
Размер потока                            : 60,5 Мбайт (4%)
Язык                                     : German
-

скриншоты

--
[Профиль] [ЛС]
Кто просматривает тему:

Показать сообщения:    

Текущее время: Сегодня 10:33

Часовой пояс: GMT



Вы не можете начинать темы
Вы не можете отвечать на сообщения
Вы не можете редактировать свои сообщения
Вы не можете удалять свои сообщения
Вы не можете голосовать в опросах
Вы не можете прикреплять файлы к сообщениям
Вы не можете скачивать файлы