(Heavy Metal) Sister Sin - Black Lotus - 2014, FLAC (image+.cue), lossless

 
Автор Сообщение

sergej644 ®

Пол:

Стаж: 4 года 11 месяцев

Сообщений: 6043

Откуда: Soviet Union



Награды: Нет

Торрент-статистика

Создавать темы 18-Дек-2014 22:35

[Цитировать]

Sister Sin - Black Lotus
Жанр: Heavy Metal
Носитель: CD
Год издания: 2014
Издатель (лейбл): Victory Records
Номер по каталогу: VR712
Страна исполнителя (группы): Sweden (Gothenburg)
Аудиокодек: FLAC (*.flac)
Тип рипа: image+.cue
Битрейт аудио: lossless
Продолжительность: 37:03
Источник (релизер): rd
Наличие сканов в содержимом раздачи: да
Треклист:
01. Food For Worms 04:58
02. Chaos Royale 03:39
03. Au Revoir 03:39
04. Desert Queen 05:24
05. Count Me Out 04:05
06. Stones Thrown 03:50
07. The Jinx 03:44
08. Ruled By None 03:49
09. Sail North 03:41

Лог создания рипа

Exact Audio Copy V1.0 beta 3 from 29. August 2011
EAC extraction logfile from 14. November 2014, 18:53
Sister Sin / Black Lotus
Used drive  : PLEXTOR BD-R   PX-B940SA
Adapter: 5
ID: 0
Read mode               : Secure
Utilize accurate stream : Yes
Defeat audio cache      : Yes
Make use of C2 pointers : No
Read offset correction                      : 667
Overread into Lead-In and Lead-Out          : No
Fill up missing offset samples with silence : Yes
Delete leading and trailing silent blocks   : No
Null samples used in CRC calculations       : Yes
Used interface                              : Installed external ASPI interface
Used output format              : User Defined Encoder
Selected bitrate                : 128 kBit/s
Quality                         : High
Add ID3 tag                     : Yes
Command line compressor         : G:\Program Files (x86)\Exact Audio Copy\Flac\flac.exe
Additional command line options : -V -8 -T "Date=%year%" -T "Genre=%genre%" %source%
TOC of the extracted CD
Track |   Start  |  Length  | Start sector | End sector    ---------------------------------------------------------        1  |  0:00.00 |  4:58.14 |         0    |    22363        2  |  4:58.14 |  3:39.04 |     22364    |    38792        3  |  8:37.18 |  3:39.58 |     38793    |    55275        4  | 12:17.01 |  5:24.30 |     55276    |    79605        5  | 17:41.31 |  4:05.00 |     79606    |    97980        6  | 21:46.31 |  3:50.16 |     97981    |   115246        7  | 25:36.47 |  3:44.41 |    115247    |   132087        8  | 29:21.13 |  3:49.30 |    132088    |   149292        9  | 33:10.43 |  3:51.70 |    149293    |   166687
Range status and errors
Selected range
Filename D:\MUSIC\Sister Sin - Black Lotus.wav
Peak level 100.0 %
Extraction speed 4.5 X
Range quality 100.0 %
Test CRC 06C22645
Copy CRC 06C22645
Copy OK
No errors occurred
AccurateRip summary
Track  1  not present in database
Track  2  not present in database
Track  3  not present in database
Track  4  not present in database
Track  5  not present in database
Track  6  not present in database
Track  7  not present in database
Track  8  not present in database
Track  9  not present in database
None of the tracks are present in the AccurateRip database
End of status report
==== Log checksum 2F0805C776713633AE18DAF302410C22C29BFD5799EDE954A52CC222022B6AD2 ====
[Профиль] [ЛС]
Показать сообщения:    

Текущее время: Сегодня 04:23

Часовой пояс: GMT



Вы не можете начинать темы
Вы не можете отвечать на сообщения
Вы не можете редактировать свои сообщения
Вы не можете удалять свои сообщения
Вы не можете голосовать в опросах
Вы не можете прикреплять файлы к сообщениям
Вы не можете скачивать файлы