Silicon Dream & Projects - The Maxi-Singles Collection Volume 1 (2007) [APE|Lossless]<Pop-Euro-House>

 
Автор Сообщение

sergej644 ®

Пол:

Стаж: 4 года 11 месяцев

Сообщений: 6040

Откуда: Soviet Union



Награды: Нет

Торрент-статистика

Создавать темы 24-Дек-2014 22:26

[Цитировать]

-Silicon Dream & Projects - The Maxi-Singles Collection Volume 1 (2007)- Год: 2007
Лейбл: ESonCD
Каталог #: 200706-2
Жанр: Pop-Euro-House
Продолжительность: 01:19:50
Кодек: APE
Битрейт: Lossless
Тип битрейта: image +.cue
Треклист:
01. Silicon Dream - Ludwig Fun (Classic-Acid-Mix) 8:06
02. Silicon Dream - Albert Einstein (Mars-Mix) 7:08
03. Silicon Dream - Jimmy Dean Loved Marilyn (Film AB)
(Hollywood Mix) 8:07
04. Silicon Dream - Andromeda (Space-Shuttle-Mix) 8:45
05. Silicon Dream - Marcello The Mastroianni (Metropolitan-Mix) 6:24
06. Departure - King Kong Dancing (Jungle-Mix) 7:18
07. Departure - Rendezvous And A Flirt With You (Fricci-Mix) 5:35
08. Manzerata - Baby Baby Hear My Heartbeat ... Mi Corazon
(Esmeralda-Mix) 5:41
09. Mega - You Got A Bausparvertrag ? (Rubel-Mix) 6:50
10. Silicon Dream - Ludwig Fun (Alptraum-Mix) 8:02
11. Silicon Dream - Silicon Dancer Mega Mix (The First Cut Is The Deepest) 7:50

Отчёт ЕАС&#58;

Exact Audio Copy V0.99 prebeta 5 from 4. May 2009
Отчёт EAC об извлечении, выполненном 6. сентября 2009, 11:13
Silicon Dream & Projects / The Maxi-Singles Collection Volume 1
Дисковод: Optiarc DVD RW AD-5200A Adapter: 0 ID: 0
Режим чтения : Достоверность
Использование точного потока : Да
Отключение кэша аудио : Да
Использование указателей C2 : Нет
Коррекция смещения при чтении : 48
Способность читать области Lead-in и Lead-out : Нет
Заполнение пропущенных сэмплов тишиной : Да
Удаление блоков с тишиной в начале и конце : Нет
При вычислениях CRC использовались нулевые сэмплы : Да
Интерфейс : Установленный внешний ASPI-интерфейс
Выходной формат : Внутренние WAV-операции
Формат сэмплов : 44.100 Гц; 16 бит; стерео
TOC извлечённого CD
Трек | Старт | Длительность | Начальный сектор | Конечный сектор
---------------------------------------------------------------------
1 | 0:00.00 | 8:06.32 | 0 | 36481
2 | 8:06.32 | 7:08.06 | 36482 | 68587
3 | 15:14.38 | 8:07.11 | 68588 | 105123
4 | 23:21.49 | 8:45.65 | 105124 | 144563
5 | 32:07.39 | 6:24.40 | 144564 | 173403
6 | 38:32.04 | 7:18.20 | 173404 | 206273
7 | 45:50.24 | 5:35.07 | 206274 | 231405
8 | 51:25.31 | 5:41.44 | 231406 | 257024
9 | 57:07.00 | 6:50.66 | 257025 | 287840
10 | 63:57.66 | 8:02.47 | 287841 | 324037
11 | 72:00.38 | 7:50.00 | 324038 | 359287
Характеристики диапазона извлечения и сообщения об ошибках
Выбранный диапазон
Имя файла E:\Silicon Dream & Projects - The Maxi-Singles Collection Volume 1\Silicon Dream & Projects - The Maxi-Singles Collection Volume 1.wav
Пиковый уровень 100.0 %
Качество диапазона 100.0 %
CRC теста 0901F457
CRC копии 0901F457
Копирование... OK
Ошибок не произошло
AccurateRip: сводка
Трек 1 нет в базе данных
Трек 2 нет в базе данных
Трек 3 нет в базе данных
Трек 4 нет в базе данных
Трек 5 нет в базе данных
Трек 6 нет в базе данных
Трек 7 нет в базе данных
Трек 8 точное извлечение (доверие 1) [BA3CDDFF]
Трек 9 нет в базе данных
Трек 10 нет в базе данных
Трек 11 нет в базе данных
1 трек(и) скопированы точно
10 трек(и) не содержатся в базе AccurateRip
Некоторые треки не прошли проверку на точность
Конец отчёта

Отчёт auCDtect Task manager&#58;

-----------------------
DON'T MODIFY THIS FILE
-----------------------
PERFORMER: auCDtect Task Manager, ver. 1.5.1RC4 build 1.5.1.5
Copyright (c) 2008-2010 y-soft. All rights reserved
http://y-soft.org
ANALYZER: auCDtect: CD records authenticity detector, version 0.8.2
Copyright (c) 2004 Oleg Berngardt. All rights reserved.
Copyright (c) 2004 Alexander Djourik. All rights reserved.
FILE: Silicon Dream & Projects - The Maxi-Singles Collection Volume 1.ape
  Size: 550834904 Hash: 1D63ACC890649529C84F640BFD289F9B Accuracy: -m0
  Conclusion: CDDA 100%
  Signature: 3ACCF42371495513B49248617D5408AC8F7AB946

Содержание индексной карты (.CUE&#41;&#58;

REM GENRE Euro-House
REM DATE 2007
REM DISCID A312B60B
REM COMMENT "ExactAudioCopy v0.99pb5"
PERFORMER "Silicon Dream & Projects"
TITLE "The Maxi-Singles Collection Volume 1"
FILE "Silicon Dream & Projects - The Maxi-Singles Collection Volume 1.ape" WAVE
  TRACK 01 AUDIO
    TITLE "Silicon Dream / Ludwig Fun (Classic-Acid-Mix)"
    PERFORMER "Silicon Dream & Projects"
    FLAGS DCP
    INDEX 01 00:00:00
  TRACK 02 AUDIO
    TITLE "Silicon Dream / Albert Einstein (Mars-Mix)"
    PERFORMER "Silicon Dream & Projects"
    FLAGS DCP
    INDEX 01 08:06:32
  TRACK 03 AUDIO
    TITLE "Silicon Dream / Jimmy Dean Loved Marilyn (Film AB) (Hollywood Mix)"
    PERFORMER "Silicon Dream & Projects"
    FLAGS DCP
    INDEX 01 15:14:38
  TRACK 04 AUDIO
    TITLE "Silicon Dream / Andromeda (Space-Shuttle-Mix)"
    PERFORMER "Silicon Dream & Projects"
    FLAGS DCP
    INDEX 01 23:21:49
  TRACK 05 AUDIO
    TITLE "Silicon Dream / Marcello The Mastroianni (Metropolitan-Mix)"
    PERFORMER "Silicon Dream & Projects"
    FLAGS DCP
    INDEX 01 32:07:39
  TRACK 06 AUDIO
    TITLE "Departure / King Kong Dancing (Jungle-Mix)"
    PERFORMER "Silicon Dream & Projects"
    FLAGS DCP
    INDEX 01 38:32:04
    INDEX 02 39:56:73
    INDEX 03 41:51:35
    INDEX 04 43:43:36
    INDEX 05 45:12:42
    INDEX 06 45:12:44
    INDEX 07 45:12:48
    INDEX 08 45:13:10
    INDEX 09 45:18:51
    INDEX 10 45:27:45
    INDEX 11 45:41:13
  TRACK 07 AUDIO
    TITLE "Departure / Rendezvous And A Flirt With You (Fricci-Mix)"
    PERFORMER "Silicon Dream & Projects"
    FLAGS DCP
    INDEX 01 45:50:24
    INDEX 02 47:12:16
    INDEX 03 48:09:16
    INDEX 04 48:37:17
    INDEX 05 48:51:30
    INDEX 06 50:20:02
    INDEX 07 50:23:68
    INDEX 08 50:51:51
    INDEX 09 50:53:40
  TRACK 08 AUDIO
    TITLE "Manzerata / Baby Baby Hear My Heartbeat...Mi Corazon (Esmeralda-Mix)"
    PERFORMER "Silicon Dream & Projects"
    FLAGS DCP
    INDEX 01 51:25:31
    INDEX 02 53:35:57
    INDEX 03 55:41:71
    INDEX 04 56:17:13
  TRACK 09 AUDIO
    TITLE "Mega / You Got A Bausparvertrag? (Rubel-Mix)"
    PERFORMER "Silicon Dream & Projects"
    FLAGS DCP
    INDEX 01 57:07:00
  TRACK 10 AUDIO
    TITLE "Silicon Dream / Ludwig Fun (Alptraum-Mix)"
    PERFORMER "Silicon Dream & Projects"
    FLAGS DCP
    INDEX 01 63:57:66
  TRACK 11 AUDIO
    TITLE "Silicon Dream / Silicon Dancer Mega Mix (The First Cut Is The Deepest)"
    PERFORMER "Silicon Dream & Projects"
    FLAGS DCP
    INDEX 01 72:00:38
[Профиль] [ЛС]

Создавать темы 13-Авг-2015 10:44 (спустя 7 месяцев 20 дней)

Топик был перенесен из форума Зарубежная в форум Technopop, Eurodance, Disco
sergej644
 
Кто просматривает тему:

Показать сообщения:    

Текущее время: Сегодня 02:43

Часовой пояс: GMT



Вы не можете начинать темы
Вы не можете отвечать на сообщения
Вы не можете редактировать свои сообщения
Вы не можете удалять свои сообщения
Вы не можете голосовать в опросах
Вы не можете прикреплять файлы к сообщениям
Вы не можете скачивать файлы