Silent Circle - The Original Maxi-Singles Collection (2014) [FLAC|Lossless]<Pop, Eurodisco>

 
Автор Сообщение

sergej644 ®

Пол:

Стаж: 4 года 11 месяцев

Сообщений: 6046

Откуда: Soviet Union



Награды: Нет

Торрент-статистика

Создавать темы 24-Дек-2014 23:06

[Цитировать]

-Silent Circle - The Original Maxi-Singles Collection (2014)- Лейбл: Pokorny Music Solutions
Каталог: PMS 01
Год: 2014
Жанр: Pop, Eurodisco
Продолжительность: 01:02:55
Кодек: FLAC (image+ .cue)
Битрейт: Lossless
Треклист:
01. Hide Away - Man Is Comin' (Special Mix)
02. Touch In The Night (Crash Version)
03. Stop The Rain (12" Version)
04. Love Is Just A Word (Reggae Version)
05. Moonlight Affair (12" Version)
06. Time For Love (Super Action Mix)
07. Danger Danger (Racing Mix)
08. Oh, Don't Lose Your Heart Tonight (12" Version)
09. I Am Your Believer (Club Version)
10. Forget The Stranger (Simple Mix)
11. What A Shame (Masterbeat Mix)

Отчёт ЕАС&#58;

Exact Audio Copy V1.0 beta 3 from 29. August 2011
Отчёт EAC об извлечении, выполненном 26. марта 2014, 20:05
Silent Circle / The Original Maxi-Singles Collection
Дисковод: TSSTcorpCDDVDW SH-S223B   Adapter: 0  ID: 0
Режим чтения                 : Достоверность
Использование точного потока : Да
Отключение кэша аудио        : Да
Использование указателей C2  : Нет
Коррекция смещения при чтении                     : 6
Способность читать области Lead-in и Lead-out     : Нет
Заполнение пропущенных сэмплов тишиной            : Да
Удаление блоков с тишиной в начале и конце        : Нет
При вычислениях CRC использовались нулевые сэмплы : Да
Интерфейс                                         : Встроенный Win32-интерфейс для Win NT/2000
Выходной формат          : Пользовательский кодировщик
Выбранный битрейт        : 128 kBit/s
Качество                 : Высокий
Добавление ID3-тега      : Нет
Утилита сжатия           : C:\Program Files (x86)\Exact Audio Copy\Flac\flac.exe
Дополнительные параметры : -V -8 -T "Date=%year%" -T "Genre=%genre%" %source%
TOC извлечённого CD
     Трек |   Старт  | Длительность | Начальный сектор | Конечный сектор
    ---------------------------------------------------------------------
       1  |  0:00.00 |    5:11.00   |           0      |      23324
       2  |  5:11.00 |    5:35.00   |       23325      |      48449
       3  | 10:46.00 |    5:39.00   |       48450      |      73874
       4  | 16:25.00 |    5:47.00   |       73875      |      99899
       5  | 22:12.00 |    6:02.00   |       99900      |     127049
       6  | 28:14.00 |    5:25.00   |      127050      |     151424
       7  | 33:39.00 |    6:02.00   |      151425      |     178574
       8  | 39:41.00 |    5:50.00   |      178575      |     204824
       9  | 45:31.00 |    5:47.00   |      204825      |     230849
      10  | 51:18.00 |    5:01.00   |      230850      |     253424
      11  | 56:19.00 |    6:36.00   |      253425      |     283124
Характеристики диапазона извлечения и сообщения об ошибках
Выбранный диапазон
     Имя файла M:\Silent Circle - The Original Maxi-Singles Collection.wav
     Пиковый уровень 96.7 %
     Скорость извлечения 8.0 X
     Качество диапазона 100.0 %
     CRC теста 629AED98
     CRC копии 629AED98
     Копирование... OK
Ошибок не произошло
AccurateRip: сводка
Трек  1  : извлечено точно (доверие 1)  [8D724526]  (AR v2)
Трек  2  : извлечено точно (доверие 1)  [60002ED3]  (AR v2)
Трек  3  : извлечено точно (доверие 1)  [5896C0AF]  (AR v2)
Трек  4  : извлечено точно (доверие 1)  [C3F4DF50]  (AR v2)
Трек  5  : извлечено точно (доверие 1)  [17B4EBBD]  (AR v2)
Трек  6  : извлечено точно (доверие 1)  [6EF1BD30]  (AR v2)
Трек  7  : извлечено точно (доверие 1)  [1468F3B4]  (AR v2)
Трек  8  : извлечено точно (доверие 1)  [44CB896A]  (AR v2)
Трек  9  : извлечено точно (доверие 1)  [E7C23C77]  (AR v2)
Трек 10  : извлечено точно (доверие 1)  [59B79624]  (AR v2)
Трек 11  : извлечено точно (доверие 1)  [9FBB638C]  (AR v2)
Все треки извлечены точно
Конец отчёта
==== Контрольная сумма отчёта 6DD161461B92532D57264AEF8DB66CAE94EBEA2F2B3C50169967E827381B16D0 ====

Отчёт auCDtect Task manager&#58;

-----------------------
DON'T MODIFY THIS FILE
-----------------------
PERFORMER: auCDtect Task Manager, ver. 1.5.1RC4 build 1.5.1.5
Copyright (c) 2008-2010 y-soft. All rights reserved
http://y-soft.org
ANALYZER: auCDtect: CD records authenticity detector, version 0.8.2
Copyright (c) 2004 Oleg Berngardt. All rights reserved.
Copyright (c) 2004 Alexander Djourik. All rights reserved.
FILE: Silent Circle - The Original Maxi-Singles Collection.flac
  Size: 472835974 Hash: 9D7FCA314F2F554B6B0B8813A01B317C Accuracy: -m0
  Conclusion: CDDA 100%
  Signature: BF1731740AFD7BF3B2C531680031799B1E610EDC

Содержимое индексной карты&#58;

REM DISCID 920EBF0B
REM COMMENT "ExactAudioCopy v1.0b3"
PERFORMER "Silent Circle"
TITLE "The Original Maxi-Singles Collection"
FILE "Silent Circle - The Original Maxi-Singles Collection.flac" WAVE
  TRACK 01 AUDIO
    TITLE "Hide Away - Man Is Comin! (Special Mix)"
    PERFORMER "Silent Circle"
    INDEX 01 00:00:00
  TRACK 02 AUDIO
    TITLE "Touch In The Night (Crash Version)"
    PERFORMER "Silent Circle"
    INDEX 01 05:11:00
  TRACK 03 AUDIO
    TITLE "Stop The Rain (12'' Version)"
    PERFORMER "Silent Circle"
    INDEX 01 10:46:00
  TRACK 04 AUDIO
    TITLE "Love Is Just A Word (Reggae Version)"
    PERFORMER "Silent Circle"
    INDEX 01 16:25:00
  TRACK 05 AUDIO
    TITLE "Moonlight Affair (12'' Version) "
    PERFORMER "Silent Circle"
    INDEX 01 22:12:00
  TRACK 06 AUDIO
    TITLE "Time For Love (Super Action Mix)"
    PERFORMER "Silent Circle"
    INDEX 01 28:14:00
  TRACK 07 AUDIO
    TITLE "Danger Danger (Racing Mix)"
    PERFORMER "Silent Circle"
    INDEX 01 33:39:00
  TRACK 08 AUDIO
    TITLE "Oh, Don't Lose Your Heart Tonight (12'' Version) "
    PERFORMER "Silent Circle"
    INDEX 01 39:41:00
  TRACK 09 AUDIO
    TITLE "I Am Your Believer (Club Mix)"
    PERFORMER "Silent Circle"
    INDEX 01 45:31:00
  TRACK 10 AUDIO
    TITLE "Forget The Stranger (Simple Mix)"
    PERFORMER "Silent Circle"
    INDEX 01 51:18:00
  TRACK 11 AUDIO
    TITLE "What A Shame (Masterbeat Mix)"
    PERFORMER "Silent Circle"
    INDEX 01 56:19:00
Спасибо Igor_O25
Время раздачи: С 14:00 до 08:00 Мск., до 5-ти сидирующих-
[Профиль] [ЛС]

Создавать темы 13-Авг-2015 10:41 (спустя 7 месяцев 19 дней)

Топик был перенесен из форума Зарубежная в форум Technopop, Eurodance, Disco
sergej644
 
Показать сообщения:    

Текущее время: Сегодня 11:08

Часовой пояс: GMT



Вы не можете начинать темы
Вы не можете отвечать на сообщения
Вы не можете редактировать свои сообщения
Вы не можете удалять свои сообщения
Вы не можете голосовать в опросах
Вы не можете прикреплять файлы к сообщениям
Вы не можете скачивать файлы