Silent Circle - The Maxi-Singles Collection (2006) [APE|Lossless]<Italo-Disco>

 
Автор Сообщение

sergej644 ®

Пол:

Стаж: 4 года 11 месяцев

Сообщений: 6038

Откуда: Soviet Union



Награды: Нет

Торрент-статистика

Создавать темы 24-Дек-2014 22:30

[Цитировать]

-Silent Circle - The Maxi-Singles Collection (2006)- Год: 2006
Лейбл: ESonCD
Каталог #: 200612-2
Жанр: Italo-Disco
Продолжительность: 01:19:17
Кодек: APE
Битрейт: Lossless
Тип битрейта: image +.cue
Треклист:
01. Touch In The Night (Crash Version) 5:33
02. Time For Love (Super-Action-Mix) 5:20
03. Danger, Danger (Raicing Mix) 6:00
04. Forget The Stranger (Simple Mix) 5:00
05. Give Me Time 3:42
06. Hide Away - Man Is Comin' ! (Special Mix) 5:10
07. I Am Your Believer (Club Mix) 5:45
08. Is It Love 4:26
09. Love Is Just A Word (Reggae Version) 5:45
10. Stop The Rain (Extended Version) 5:40
11. What A Shame (Masterbeat Mix) 6:35
12. Lost In Your Light ... (Instrumental) 2:58
13. Highway Driver (Instrumental) 4:24
14. D.J.Special Mix Vol.1 (Extract From Album #1) 6:22
15. D.J.Special Mix Vol.2 (Extract From Album #1) 6:05

Отчёт ЕАС&#58;

Exact Audio Copy V0.99 prebeta 5 from 4. May 2009
Отчёт EAC об извлечении, выполненном 4. сентября 2009, 23:23
Sillent Circle / The Maxi-Singles Collection
Дисковод: Optiarc DVD RW AD-5200A Adapter: 0 ID: 0
Режим чтения : Достоверность
Использование точного потока : Да
Отключение кэша аудио : Да
Использование указателей C2 : Нет
Коррекция смещения при чтении : 48
Способность читать области Lead-in и Lead-out : Нет
Заполнение пропущенных сэмплов тишиной : Да
Удаление блоков с тишиной в начале и конце : Нет
При вычислениях CRC использовались нулевые сэмплы : Да
Интерфейс : Установленный внешний ASPI-интерфейс
Выходной формат : Внутренние WAV-операции
Формат сэмплов : 44.100 Гц; 16 бит; стерео
TOC извлечённого CD
Трек | Старт | Длительность | Начальный сектор | Конечный сектор
---------------------------------------------------------------------
1 | 0:00.00 | 5:35.48 | 0 | 25172
2 | 5:35.48 | 5:22.48 | 25173 | 49370
3 | 10:58.21 | 6:01.12 | 49371 | 76457
4 | 16:59.33 | 5:00.64 | 76458 | 99021
5 | 22:00.22 | 3:44.73 | 99022 | 115894
6 | 25:45.20 | 5:12.28 | 115895 | 139322
7 | 30:57.48 | 5:47.68 | 139323 | 165415
8 | 36:45.41 | 4:28.45 | 165416 | 185560
9 | 41:14.11 | 5:47.64 | 185561 | 211649
10 | 47:02.00 | 5:42.12 | 211650 | 237311
11 | 52:44.12 | 6:37.05 | 237312 | 267091
12 | 59:21.17 | 3:00.54 | 267092 | 280645
13 | 62:21.71 | 4:26.12 | 280646 | 300607
14 | 66:48.08 | 6:24.04 | 300608 | 329411
15 | 73:12.12 | 6:05.39 | 329412 | 356825
Характеристики диапазона извлечения и сообщения об ошибках
Выбранный диапазон
Имя файла E:\Sillent Circle - The Maxi-Singles Collection\Sillent Circle - The Maxi-Singles Collection.wav
Пиковый уровень 100.0 %
Качество диапазона 100.0 %
CRC теста 09F44E80
CRC копии 09F44E80
Копирование... OK
Ошибок не произошло
AccurateRip: сводка
Трек 1 нет в базе данных
Трек 2 нет в базе данных
Трек 3 нет в базе данных
Трек 4 нет в базе данных
Трек 5 нет в базе данных
Трек 6 нет в базе данных
Трек 7 нет в базе данных
Трек 8 нет в базе данных
Трек 9 нет в базе данных
Трек 10 нет в базе данных
Трек 11 нет в базе данных
Трек 12 нет в базе данных
Трек 13 нет в базе данных
Трек 14 нет в базе данных
Трек 15 нет в базе данных
Ни одного трека нет в базе AccurateRip
Конец отчёта

Отчёт auCDtect Task manager&#58;

-----------------------
DON'T MODIFY THIS FILE
-----------------------
PERFORMER: auCDtect Task Manager, ver. 1.5.1RC4 build 1.5.1.5
Copyright (c) 2008-2010 y-soft. All rights reserved
http://y-soft.org
ANALYZER: auCDtect: CD records authenticity detector, version 0.8.2
Copyright (c) 2004 Oleg Berngardt. All rights reserved.
Copyright (c) 2004 Alexander Djourik. All rights reserved.
FILE: Sillent Circle - The Maxi-Singles Collection.ape
  Size: 572844376 Hash: A2BF287A4B374E2F2B337BCC7E906B75 Accuracy: -m0
  Conclusion: CDDA 100%
  Signature: 85ED339A228252581F47FCC5049A26B1AEC78F12

Содержание индексной карты (.CUE&#41;&#58;

REM GENRE Italo-Disco
REM DATE 2006
REM DISCID C812950F
REM COMMENT "ExactAudioCopy v0.99pb5"
PERFORMER "Sillent Circle"
TITLE "The Maxi-Singles Collection"
FILE "Sillent Circle - The Maxi-Singles Collection.ape" WAVE
  TRACK 01 AUDIO
    TITLE "Touch In The Night (Crash Version)"
    PERFORMER "Sillent Circle"
    FLAGS DCP
    INDEX 01 00:00:00
  TRACK 02 AUDIO
    TITLE "Time For Love (Super-Action-Mix)"
    PERFORMER "Sillent Circle"
    FLAGS DCP
    INDEX 00 05:33:48
    INDEX 01 05:35:48
    INDEX 02 10:09:27
    INDEX 03 10:09:28
    INDEX 04 10:09:29
    INDEX 05 10:09:31
  TRACK 03 AUDIO
    TITLE "Danger, Danger (Raicing Mix)"
    PERFORMER "Sillent Circle"
    FLAGS DCP
    INDEX 00 10:56:21
    INDEX 01 10:58:21
  TRACK 04 AUDIO
    TITLE "Forget The Stranger (Simple Mix)"
    PERFORMER "Sillent Circle"
    FLAGS DCP
    INDEX 00 16:57:33
    INDEX 01 16:59:33
  TRACK 05 AUDIO
    TITLE "Give Me Time"
    PERFORMER "Sillent Circle"
    FLAGS DCP
    INDEX 00 21:58:22
    INDEX 01 22:00:22
  TRACK 06 AUDIO
    TITLE "Hide Away-Man Is Comin' ! (Special Mix)"
    PERFORMER "Sillent Circle"
    FLAGS DCP
    INDEX 00 25:43:20
    INDEX 01 25:45:20
    INDEX 02 25:52:09
    INDEX 03 25:53:11
    INDEX 04 25:53:13
    INDEX 05 25:53:69
  TRACK 07 AUDIO
    TITLE "I Am Your Believer (Club Mix)"
    PERFORMER "Sillent Circle"
    FLAGS DCP
    INDEX 00 30:55:48
    INDEX 01 30:57:48
  TRACK 08 AUDIO
    TITLE "Is It Love"
    PERFORMER "Sillent Circle"
    FLAGS DCP
    INDEX 00 36:43:41
    INDEX 01 36:45:41
  TRACK 09 AUDIO
    TITLE "Love Is Just A Word (Reggae Version)"
    PERFORMER "Sillent Circle"
    FLAGS DCP
    INDEX 00 41:12:11
    INDEX 01 41:14:11
  TRACK 10 AUDIO
    TITLE "Stop The Rain (Extended Version)"
    PERFORMER "Sillent Circle"
    FLAGS DCP
    INDEX 00 47:00:00
    INDEX 01 47:02:00
  TRACK 11 AUDIO
    TITLE "What A Shame (Masterbeat Mix)"
    PERFORMER "Sillent Circle"
    FLAGS DCP
    INDEX 00 52:42:12
    INDEX 01 52:44:12
  TRACK 12 AUDIO
    TITLE "Lost In Your Light...(Instrumental)"
    PERFORMER "Sillent Circle"
    FLAGS DCP
    INDEX 00 59:19:17
    INDEX 01 59:21:17
  TRACK 13 AUDIO
    TITLE "Highway Driver (Instrumental)"
    PERFORMER "Sillent Circle"
    FLAGS DCP
    INDEX 00 62:19:71
    INDEX 01 62:21:71
  TRACK 14 AUDIO
    TITLE "D.J.Special Mix Vol.1 (Extract From Album #1)"
    PERFORMER "Sillent Circle"
    FLAGS DCP
    INDEX 00 66:46:08
    INDEX 01 66:48:08
  TRACK 15 AUDIO
    TITLE "D.J.Special Mix Vol.2 (Extract From Album #1)"
    PERFORMER "Sillent Circle"
    FLAGS DCP
    INDEX 00 73:10:12
    INDEX 01 73:12:12
[Профиль] [ЛС]

Создавать темы 13-Авг-2015 10:44 (спустя 7 месяцев 20 дней)

Топик был перенесен из форума Зарубежная в форум Technopop, Eurodance, Disco
sergej644
 
Показать сообщения:    

Текущее время: Сегодня 08:27

Часовой пояс: GMT



Вы не можете начинать темы
Вы не можете отвечать на сообщения
Вы не можете редактировать свои сообщения
Вы не можете удалять свои сообщения
Вы не можете голосовать в опросах
Вы не можете прикреплять файлы к сообщениям
Вы не можете скачивать файлы