(Classic Rock) Shocking Blue - All Gold og the World - 2000 (ESMSD1038), FLAC (image+.cue), lossless

 
Автор Сообщение

sergej644 ®

Пол:

Стаж: 4 года 11 месяцев

Сообщений: 6046

Откуда: Soviet Union



Награды: Нет

Торрент-статистика

Создавать темы 11-Дек-2014 13:40

[Цитировать]

Shocking Blue - All Gold og the World
Жанр: Classic Rock
Год выпуска диска: 2000
Производитель диска: Россия (Меккофон совместно с Castle Communications, England)
Аудио кодек: FLAC
Тип рипа: image+.cue
Битрейт аудио: lossless
Продолжительность: 01:19:26
Треклист:

треклист

01. Venus [0:03:04.43]
02. Shocking You [0:03:01.45]
03. Blossom Lady [0:03:31.25]
04. Inkpot [0:02:40.42]
05. Long and Lonesome Road [0:02:51.30]
06. Gonna Sing My Song [0:02:45.45]
07. I`m a Woman [0:03:02.60]
08. California Here I Come [0:03:18.65]
09. The Bird of Paradise [0:02:51.33]
10. Moonlight Night [0:04:58.60]
11. I`ll Follow the Sun [0:02:45.15]
12. Never Marry a Railroad Man [0:03:04.40]
13. Roll Engine Roll [0:03:16.02]
14. Is This a Dream? [0:03:46.45]
15. Wild Wind [0:02:14.25]
16. Bool Weevil [0:02:42.20]
17. I`ll Write Your Name Through the Fire [0:02:58.35]
18. Love Machine [0:03:20.58]
19. Love Buzz [0:03:45.40]
20. Alaska Country [0:03:54.13]
21. Sally Was a Good Old Girl [0:03:29.02]
22. Demon Lover [0:06:05.13]
23. Seven is a Number in Magic [0:03:00.52]
24. Hello Darkness [0:02:57.12]

Лог EAC

Exact Audio Copy V0.99 prebeta 4 from 23. January 2008
Отчёт EAC об извлечении, выполненном 5. февраля 2010, 21:28
Shoсking Blue / All Gold og the World
Дисковод: PIONEER DVD-RW  DVR-215   Adapter: 2  ID: 0
Режим чтения                 : Достоверность
Использование точного потока : Да
Отключение кэша аудио        : Да
Использование указателей C2  : Нет
Коррекция смещения при чтении                     : 48
Способность читать области Lead-in и Lead-out     : Нет
Заполнение пропущенных сэмплов тишиной            : Да
Удаление блоков с тишиной в начале и конце        : Нет
При вычислениях CRC использовались нулевые сэмплы : Да
Интерфейс                                         : Встроенный Win32-интерфейс для Win NT/2000
Выходной формат          : Пользовательский кодировщик
Выбранный битрейт        : 1024 kBit/s
Качество                 : Высокий
Добавление ID3-тэга      : Нет
Утилита сжатия           : C:\Program Files\Exact Audio Copy\FLAC\FLAC.EXE
Дополнительные параметры : -8 -V -T "ARTIST=%a" -T "TITLE=%t" -T "ALBUM=%g" -T "DATE=%y" -T "TRACKNUMBER=%n" -T "GENRE=%m" -T "COMMENT=%e" %s -o %d
TOC извлечённого CD
     Трек |   Старт  | Длительность | Начальный сектор | Конечный сектор
    ---------------------------------------------------------------------
       1  |  0:00.00 |    3:04.43   |           0      |      13842
       2  |  3:04.43 |    3:01.45   |       13843      |      27462
       3  |  6:06.13 |    3:31.25   |       27463      |      43312
       4  |  9:37.38 |    2:40.42   |       43313      |      55354
       5  | 12:18.05 |    2:51.30   |       55355      |      68209
       6  | 15:09.35 |    2:45.45   |       68210      |      80629
       7  | 17:55.05 |    3:02.60   |       80630      |      94339
       8  | 20:57.65 |    3:18.65   |       94340      |     109254
       9  | 24:16.55 |    2:51.33   |      109255      |     122112
      10  | 27:08.13 |    4:58.60   |      122113      |     144522
      11  | 32:06.73 |    2:45.15   |      144523      |     156912
      12  | 34:52.13 |    3:04.40   |      156913      |     170752
      13  | 37:56.53 |    3:16.02   |      170753      |     185454
      14  | 41:12.55 |    3:46.45   |      185455      |     202449
      15  | 44:59.25 |    2:14.25   |      202450      |     212524
      16  | 47:13.50 |    2:42.20   |      212525      |     224694
      17  | 49:55.70 |    2:58.35   |      224695      |     238079
      18  | 52:54.30 |    3:20.58   |      238080      |     253137
      19  | 56:15.13 |    3:45.40   |      253138      |     270052
      20  | 60:00.53 |    3:54.13   |      270053      |     287615
      21  | 63:54.66 |    3:29.02   |      287616      |     303292
      22  | 67:23.68 |    6:05.13   |      303293      |     330680
      23  | 73:29.06 |    3:00.52   |      330681      |     344232
      24  | 76:29.58 |    2:57.12   |      344233      |     357519
Характеристики диапазона извлечения и сообщения об ошибках
Выбранный диапазон
     Имя файла G:\РАЗДАЧИ!!!!\Shocking Blue - All Gold og the World\Shoсking Blue - All Gold og the World.wav
     Пиковый уровень 88.0 %
     Качество диапазона 100.0 %
     CRC теста 3E174888
     CRC копии 3E174888
     Копирование... OK
Ошибок не произошло
AccurateRip: сводка
Трек  1  нет в базе данных
Трек  2  нет в базе данных
Трек  3  нет в базе данных
Трек  4  нет в базе данных
Трек  5  нет в базе данных
Трек  6  нет в базе данных
Трек  7  нет в базе данных
Трек  8  нет в базе данных
Трек  9  нет в базе данных
Трек 10  нет в базе данных
Трек 11  нет в базе данных
Трек 12  нет в базе данных
Трек 13  нет в базе данных
Трек 14  нет в базе данных
Трек 15  нет в базе данных
Трек 16  нет в базе данных
Трек 17  нет в базе данных
Трек 18  нет в базе данных
Трек 19  нет в базе данных
Трек 20  нет в базе данных
Трек 21  нет в базе данных
Трек 22  нет в базе данных
Трек 23  нет в базе данных
Трек 24  нет в базе данных
Ни одного трека нет в базе AccurateRip
Конец отчёта

Лог audiochecker

AUDIOCHECKER v2.0 beta (build 457) - by Dester - opdester@freemail.hu
~~~~~~~~~~~~~~~~~~~~~~~~~~~~~~~~~~
-=== DO NOT EDIT THIS FILE! ===-
Path: ...\Shocking Blue - All Gold og the World
1 -=- Shoсking Blue - All Gold og the World.flac -=- CDDA (100%)
99033268

Доп. информация по релизу:

Данный диск, catalogue number: ESMSD1038, из серии: ВСЁ ЗОЛОТО МИРА,
выпущен компаниями Меккофон совместно с Castle Communications.
Рип качественный, так как запись сделана в Англии под лейблом Castle Communications.
--
[Профиль] [ЛС]
Показать сообщения:    

Текущее время: Сегодня 14:01

Часовой пояс: GMT



Вы не можете начинать темы
Вы не можете отвечать на сообщения
Вы не можете редактировать свои сообщения
Вы не можете удалять свои сообщения
Вы не можете голосовать в опросах
Вы не можете прикреплять файлы к сообщениям
Вы не можете скачивать файлы