(Pop Music, Dance-Pop, Electropop) Selena Gomez - Revival (Deluxe Edition) - 2015 [FLAC, image +.cue, lossless]

 
Автор Сообщение

sergej644 ®

Пол:

Стаж: 4 года 11 месяцев

Сообщений: 6046

Откуда: Soviet Union



Награды: Нет

Торрент-статистика

Создавать темы 15-Янв-2016 13:09

[Цитировать]

-Selena Gomez - Revival (Deluxe Edition)-- Год издания: 2015
Страна: USA
Жанр: Pop Music, Dance-Pop, Electropop
Продолжительность: 01:01:46-Лейбл издания: Universal Music Company
Тип альбома: Album
Страна-выпуска диска: Japan
Номер по каталогу: UICS-9150
Источник (релизер): serg-82-Формат: FLAC
Битрейт аудио: Lossless
Тип рипа: image +.cue
Наличие сканов в содержимом раздачи: да
-

Селе́на Мари́ Го́мес — американская актриса кино, телевидения и озвучивания, певица, композитор, автор песен, модель, филантроп, и посол доброй воли ЮНИСЕФ.

Трэклист


01.Revival(04:07)
02.Kill'em With Kindness(03:38)
03.Hands To Myself(03:21)
04.Same Old Love(03:50)
05.Sober(03:15)
06.Good For You [feat. A$AP Rocky](03:42)
07.Camouflage(04:10)
08.Me & The Rhythm(03:34)
09.Survivors(03:42)
10.Body Heat(03:28)
11.Rise(02:48)
12.Me & My Girls(03:31)
13.Nobody(03:38)
14.Perfect(04:03)
15.Outta My Hands (Loco)(03:32)
16.Cologne(03:54)
17.Good For You (KASBO Remix) [A$AP Rocky](03:41)
-

Лог создания рипа

Exact Audio Copy V1.0 beta 6 from 9. April 2015
Отчёт EAC об извлечении, выполненном 23. октября 2015, 23:26
Selena Gomez / Revival (Deluxe Edition)
Дисковод: SlimtypeDVD A  DS8A9SH   Adapter: 1  ID: 0
Режим чтения                 : Достоверность
Использование точного потока : Да
Отключение кэша аудио        : Да
Использование указателей C2  : Нет
Коррекция смещения при чтении                     : 6
Способность читать области Lead-in и Lead-out     : Нет
Заполнение пропущенных сэмплов тишиной            : Да
Удаление блоков с тишиной в начале и конце        : Нет
При вычислениях CRC использовались нулевые сэмплы : Да
Интерфейс                                         : Встроенный Win32-интерфейс для Win NT/2000
Выходной формат          : Пользовательский кодировщик
Выбранный битрейт        : 128 kBit/s
Качество                 : Высокий
Добавление ID3-тега      : Нет
Утилита сжатия           : D:\Programm Files\FLAC\FLAC.EXE
Дополнительные параметры : -V -8 -T "Date=%year%" -T "Genre=%genre%" %source%
TOC извлечённого CD
     Трек |   Старт  | Длительность | Начальный сектор | Конечный сектор
    ---------------------------------------------------------------------
       1  |  0:00.00 |    4:06.30   |           0      |      18479
       2  |  4:06.30 |    3:37.68   |       18480      |      34822
       3  |  7:44.23 |    3:20.51   |       34823      |      49873
       4  | 11:04.74 |    3:49.06   |       49874      |      67054
       5  | 14:54.05 |    3:14.62   |       67055      |      81666
       6  | 18:08.67 |    3:41.21   |       81667      |      98262
       7  | 21:50.13 |    4:09.06   |       98263      |     116943
       8  | 25:59.19 |    3:33.32   |      116944      |     132950
       9  | 29:32.51 |    3:41.64   |      132951      |     149589
      10  | 33:14.40 |    3:27.55   |      149590      |     165169
      11  | 36:42.20 |    2:47.19   |      165170      |     177713
      12  | 39:29.39 |    3:30.38   |      177714      |     193501
      13  | 43:00.02 |    3:37.33   |      193502      |     209809
      14  | 46:37.35 |    4:02.48   |      209810      |     228007
      15  | 50:40.08 |    3:31.72   |      228008      |     243904
      16  | 54:12.05 |    3:53.18   |      243905      |     261397
      17  | 58:05.23 |    3:40.41   |      261398      |     277938
Характеристики диапазона извлечения и сообщения об ошибках
Выбранный диапазон
     Имя файла D:\My Rips\Audio\Selena Gomez - Revival (Deluxe Edition)\Selena Gomez - Revival (Deluxe Edition).wav
     Пиковый уровень 99.9 %
     Скорость извлечения 4.9 X
     Качество диапазона 100.0 %
     CRC теста 2B09C9E1
     CRC копии 2B09C9E1
     Копирование... OK
Ошибок не произошло
AccurateRip: сводка
Трек  1  отсутствует в базе данных
Трек  2  отсутствует в базе данных
Трек  3  отсутствует в базе данных
Трек  4  отсутствует в базе данных
Трек  5  отсутствует в базе данных
Трек  6  отсутствует в базе данных
Трек  7  отсутствует в базе данных
Трек  8  отсутствует в базе данных
Трек  9  отсутствует в базе данных
Трек 10  отсутствует в базе данных
Трек 11  отсутствует в базе данных
Трек 12  отсутствует в базе данных
Трек 13  отсутствует в базе данных
Трек 14  отсутствует в базе данных
Трек 15  отсутствует в базе данных
Трек 16  отсутствует в базе данных
Трек 17  отсутствует в базе данных
Ни одного трека нет в базе AccurateRip
Конец отчёта

Индексная карта (non-compilant .cue)

REM GENRE Pop
REM DATE 2015
REM DISCID 020E7911
REM COMMENT "ExactAudioCopy v1.0b6"
PERFORMER "Selena Gomez"
TITLE "Revival (Deluxe Edition)"
FILE "Selena Gomez - Revival (Deluxe Edition).flac" WAVE
  TRACK 01 AUDIO
    TITLE "Revival"
    PERFORMER "Selena Gomez"
    INDEX 01 00:00:00
  TRACK 02 AUDIO
    TITLE "Kill'em With Kindness"
    PERFORMER "Selena Gomez"
    INDEX 01 04:06:30
  TRACK 03 AUDIO
    TITLE "Hands To Myself"
    PERFORMER "Selena Gomez"
    INDEX 01 07:44:23
  TRACK 04 AUDIO
    TITLE "Same Old Love"
    PERFORMER "Selena Gomez"
    INDEX 01 11:04:74
  TRACK 05 AUDIO
    TITLE "Sober"
    PERFORMER "Selena Gomez"
    INDEX 01 14:54:05
  TRACK 06 AUDIO
    TITLE "Good For You [feat. A$AP Rocky]"
    PERFORMER "Selena Gomez"
    INDEX 01 18:08:67
  TRACK 07 AUDIO
    TITLE "Camouflage"
    PERFORMER "Selena Gomez"
    INDEX 01 21:50:13
  TRACK 08 AUDIO
    TITLE "Me & The Rhythm"
    PERFORMER "Selena Gomez"
    INDEX 01 25:59:19
  TRACK 09 AUDIO
    TITLE "Survivors"
    PERFORMER "Selena Gomez"
    INDEX 01 29:32:51
  TRACK 10 AUDIO
    TITLE "Body Heat"
    PERFORMER "Selena Gomez"
    INDEX 01 33:14:40
  TRACK 11 AUDIO
    TITLE "Rise"
    PERFORMER "Selena Gomez"
    INDEX 01 36:42:20
  TRACK 12 AUDIO
    TITLE "Me & My Girls"
    PERFORMER "Selena Gomez"
    INDEX 01 39:29:39
  TRACK 13 AUDIO
    TITLE "Nobody"
    PERFORMER "Selena Gomez"
    INDEX 01 43:00:02
  TRACK 14 AUDIO
    TITLE "Perfect"
    PERFORMER "Selena Gomez"
    INDEX 01 46:37:35
  TRACK 15 AUDIO
    TITLE "Outta My Hands (Loco)"
    PERFORMER "Selena Gomez"
    INDEX 01 50:40:08
  TRACK 16 AUDIO
    TITLE "Cologne"
    PERFORMER "Selena Gomez"
    INDEX 01 54:12:05
  TRACK 17 AUDIO
    TITLE "Good For You (KASBO Remix) [A$AP Rocky]"
    PERFORMER "Selena Gomez"
    INDEX 01 58:05:23
--
[Профиль] [ЛС]
Кто просматривает тему:

Показать сообщения:    

Текущее время: Сегодня 08:18

Часовой пояс: GMT



Вы не можете начинать темы
Вы не можете отвечать на сообщения
Вы не можете редактировать свои сообщения
Вы не можете удалять свои сообщения
Вы не можете голосовать в опросах
Вы не можете прикреплять файлы к сообщениям
Вы не можете скачивать файлы