(Disco, Synth-pop) Secret Service - Discography (6CD) - 2011, FLAC (image+cue), lossless

 
Автор Сообщение

sergej644 ®

Пол:

Стаж: 4 года 11 месяцев

Сообщений: 6045

Откуда: Soviet Union



Награды: Нет

Торрент-статистика

Создавать темы 23-Авг-2014 15:39

[Цитировать]

Discography, Sonet 2011
Исполнитель: Secret Service
Жанр: Disco, Synth-pop
Дата выпуска альбомов: 1979 - 1987
Дата выпуска дисков: 2011
Лейбл: Sonet
Страна-производитель дисков: Sweden
Формат: FLAC (image+cue)
Битрейт: lossless
Продолжительность: 6 CD, 03:47:35
Полиграфия 600dpi

01 - Oh Susie

Исполнитель: Secret Service
Альбом: Oh Susie
Жанр: Pop
Дата выпуска: 1979
Страна: Sweden
Лейбл: Sonet
Формат: FLAC (image+cue)
Битрейт: lossless
Продолжительность: 00:33:14
Источник: CD
Треклист:
01. Ten O'Clock Postman [00:03:40]
02. Hey Johnny [00:04:22]
03. Give Me Your Love [00:03:40]
04. Oh Susie [00:04:38]
05. Darling, You're My Girl [00:03:44]
06. She Wants Me [00:03:08]
07. Why Don't You Try To Phone [00:03:27]
08. Angel On Wheels [00:03:04]
09. Family Delight [00:03:28]

Отчёт EAC

Exact Audio Copy V0.99 prebeta 5 from 4. May 2009
Отчёт EAC об извлечении, выполненном 20. марта 2011, 10:45
Secret Service / Oh Susie
Дисковод: Optiarc DVD RW AD-7203A Adapter: 1 ID: 0
Режим чтения : Достоверность
Использование точного потока : Да
Отключение кэша аудио : Да
Использование указателей C2 : Нет
Коррекция смещения при чтении : 48
Способность читать области Lead-in и Lead-out : Нет
Заполнение пропущенных сэмплов тишиной : Да
Удаление блоков с тишиной в начале и конце : Нет
При вычислениях CRC использовались нулевые сэмплы : Да
Интерфейс : Встроенный Win32-интерфейс для Win NT/2000
Выходной формат : Пользовательский кодировщик
Выбранный битрейт : 1024 kBit/s
Качество : Высокий
Добавление ID3-тэга : Да
Утилита сжатия : C:\Program Files\Exact Audio Copy\FLAC\FLAC.EXE
Дополнительные параметры : -8 -V -T "ARTIST=%a" -T "TITLE=%t" -T "ALBUM=%g" -T "DATE=%y" -T "TRACKNUMBER=%n" -T "GENRE=%m" -T "COMMENT=EAC FLAC -8" %s
TOC извлечённого CD
Трек | Старт | Длительность | Начальный сектор | Конечный сектор
---------------------------------------------------------------------
1 | 0:00.00 | 3:40.30 | 0 | 16529
2 | 3:40.30 | 4:22.00 | 16530 | 36179
3 | 8:02.30 | 3:40.25 | 36180 | 52704
4 | 11:42.55 | 4:38.60 | 52705 | 73614
5 | 16:21.40 | 3:44.30 | 73615 | 90444
6 | 20:05.70 | 3:08.60 | 90445 | 104604
7 | 23:14.55 | 3:27.30 | 104605 | 120159
8 | 26:42.10 | 3:04.00 | 120160 | 133959
9 | 29:46.10 | 3:28.35 | 133960 | 149594
Характеристики диапазона извлечения и сообщения об ошибках
Выбранный диапазон
Имя файла F:\СВОИ РЕЛИЗЫ\Secret Service 1979-1987 ''Sonet Discography 2011''\Secret Service 1979 ''Oh Susie'' (Sonet 2011)\Secret Service - Oh Susie.wav
Пиковый уровень 90.3 %
Качество диапазона 100.0 %
CRC теста 491130DA
CRC копии 491130DA
Копирование... OK
Ошибок не произошло
AccurateRip: сводка
Трек 1 нет в базе данных
Трек 2 нет в базе данных
Трек 3 нет в базе данных
Трек 4 нет в базе данных
Трек 5 нет в базе данных
Трек 6 нет в базе данных
Трек 7 нет в базе данных
Трек 8 нет в базе данных
Трек 9 нет в базе данных
Ни одного трека нет в базе AccurateRip
Конец отчёта

Спектры TAU

Covers

02 - Ye Si Ca

Исполнитель: Secret Service
Альбом: Ye Si Ca
Жанр: Pop
Дата выпуска: 1981
Страна: Sweden
Лейбл: Sonet
Формат: FLAC (image+cue)
Битрейт: lossless
Продолжительность: 00:38:49
Источник: CD
Треклист:
01. L A Goodby [00:03:11]
02. Broken Hearts [00:03:21]
03. Angelica And Ramone [00:03:14]
04. Friday Night [00:03:44]
05. I Know [00:03:18]
06. Ye Si Ca [00:03:17]
07. King And Queen [00:03:33]
08. Crossing A River [00:03:45]
09. Don't Go Away [00:03:32]
10. Stay Here The Night [00:03:39]
11. L A Goodbye (bonus track) [00:04:10]

Отчёт EAC

Exact Audio Copy V0.99 prebeta 5 from 4. May 2009
Отчёт EAC об извлечении, выполненном 20. марта 2011, 11:43
Secret Service / Ye Si Ca
Дисковод: Optiarc DVD RW AD-7203A Adapter: 1 ID: 0
Режим чтения : Достоверность
Использование точного потока : Да
Отключение кэша аудио : Да
Использование указателей C2 : Нет
Коррекция смещения при чтении : 48
Способность читать области Lead-in и Lead-out : Нет
Заполнение пропущенных сэмплов тишиной : Да
Удаление блоков с тишиной в начале и конце : Нет
При вычислениях CRC использовались нулевые сэмплы : Да
Интерфейс : Встроенный Win32-интерфейс для Win NT/2000
Выходной формат : Пользовательский кодировщик
Выбранный битрейт : 1024 kBit/s
Качество : Высокий
Добавление ID3-тэга : Да
Утилита сжатия : C:\Program Files\Exact Audio Copy\FLAC\FLAC.EXE
Дополнительные параметры : -8 -V -T "ARTIST=%a" -T "TITLE=%t" -T "ALBUM=%g" -T "DATE=%y" -T "TRACKNUMBER=%n" -T "GENRE=%m" -T "COMMENT=EAC FLAC -8" %s
TOC извлечённого CD
Трек | Старт | Длительность | Начальный сектор | Конечный сектор
---------------------------------------------------------------------
1 | 0:00.00 | 3:11.65 | 0 | 14389
2 | 3:11.65 | 3:21.70 | 14390 | 29534
3 | 6:33.60 | 3:14.15 | 29535 | 44099
4 | 9:48.00 | 3:44.40 | 44100 | 60939
5 | 13:32.40 | 3:18.55 | 60940 | 75844
6 | 16:51.20 | 3:17.25 | 75845 | 90644
7 | 20:08.45 | 3:33.60 | 90645 | 106679
8 | 23:42.30 | 3:45.35 | 106680 | 123589
9 | 27:27.65 | 3:32.00 | 123590 | 139489
10 | 30:59.65 | 3:39.00 | 139490 | 155914
11 | 34:38.65 | 4:10.10 | 155915 | 174674
Характеристики диапазона извлечения и сообщения об ошибках
Выбранный диапазон
Имя файла F:\СВОИ РЕЛИЗЫ\Secret Service 1979-1987 ''Sonet Discography 2011''\Secret Service 1981 ''Ye Si Ca'' (Sonet 2011)\Secret Service - Ye Si Ca.wav
Пиковый уровень 92.1 %
Качество диапазона 100.0 %
CRC теста B1B0704B
CRC копии B1B0704B
Копирование... OK
Ошибок не произошло
AccurateRip: сводка
Трек 1 нет в базе данных
Трек 2 нет в базе данных
Трек 3 нет в базе данных
Трек 4 нет в базе данных
Трек 5 нет в базе данных
Трек 6 нет в базе данных
Трек 7 нет в базе данных
Трек 8 нет в базе данных
Трек 9 нет в базе данных
Трек 10 нет в базе данных
Трек 11 нет в базе данных
Ни одного трека нет в базе AccurateRip
Конец отчёта

Спектры TAU

Covers

03 - Cutting Corners

Исполнитель: Secret Service
Альбом: Cutting Corners
Жанр: Electro Pop
Дата выпуска: 1982
Страна: Sweden
Лейбл: Sonet
Формат: FLAC (image+cue)
Битрейт: lossless
Продолжительность: 00:41:46
Источник: CD
Треклист:
01. Over Town [00:03:59]
02. Fire Into Ice [00:03:57]
03. Cutting Corners [00:03:27]
04. Flash In The Night [00:05:14]
05. Cry Softly (Times Is Morning) [00:03:39]
06. If I Try [00:04:11]
07. Like A Morning Song [00:03:29]
08. When The DancerYou Have Loved Walks Out The Door [00:03:56]
09. Rainy Day Memories [00:03:13]
10. Watching Julietta [00:03:26]
11. Dancing In Madness (bonus track) [00:03:11]

Отчёт EAC

Exact Audio Copy V0.99 prebeta 5 from 4. May 2009
Отчёт EAC об извлечении, выполненном 19. марта 2011, 23:57
Secret Service / Cutting Corners
Дисковод: Optiarc DVD RW AD-7203A Adapter: 1 ID: 0
Режим чтения : Достоверность
Использование точного потока : Да
Отключение кэша аудио : Да
Использование указателей C2 : Нет
Коррекция смещения при чтении : 48
Способность читать области Lead-in и Lead-out : Нет
Заполнение пропущенных сэмплов тишиной : Да
Удаление блоков с тишиной в начале и конце : Нет
При вычислениях CRC использовались нулевые сэмплы : Да
Интерфейс : Встроенный Win32-интерфейс для Win NT/2000
Выходной формат : Пользовательский кодировщик
Выбранный битрейт : 1024 kBit/s
Качество : Высокий
Добавление ID3-тэга : Да
Утилита сжатия : C:\Program Files\Exact Audio Copy\FLAC\FLAC.EXE
Дополнительные параметры : -8 -V -T "ARTIST=%a" -T "TITLE=%t" -T "ALBUM=%g" -T "DATE=%y" -T "TRACKNUMBER=%n" -T "GENRE=%m" -T "COMMENT=EAC FLAC -8" %s
TOC извлечённого CD
Трек | Старт | Длительность | Начальный сектор | Конечный сектор
---------------------------------------------------------------------
1 | 0:00.00 | 3:59.05 | 0 | 17929
2 | 3:59.05 | 3:57.40 | 17930 | 35744
3 | 7:56.45 | 3:27.65 | 35745 | 51334
4 | 11:24.35 | 5:14.55 | 51335 | 74939
5 | 16:39.15 | 3:39.45 | 74940 | 91409
6 | 20:18.60 | 4:11.70 | 91410 | 110304
7 | 24:30.55 | 3:29.00 | 110305 | 125979
8 | 27:59.55 | 3:56.00 | 125980 | 143679
9 | 31:55.55 | 3:13.40 | 143680 | 158194
10 | 35:09.20 | 3:26.35 | 158195 | 173679
11 | 38:35.55 | 3:11.10 | 173680 | 188014
Характеристики диапазона извлечения и сообщения об ошибках
Выбранный диапазон
Имя файла F:\СВОИ РЕЛИЗЫ\Secret Service 1979-1987 ''Sonet Discography 2011''\Secret Service 1982 ''Cutting Corners'' (Sonet 2011)\Secret Service - Cutting Corners.wav
Пиковый уровень 89.0 %
Качество диапазона 100.0 %
CRC теста CE47A161
CRC копии CE47A161
Копирование... OK
Ошибок не произошло
AccurateRip: сводка
Трек 1 нет в базе данных
Трек 2 нет в базе данных
Трек 3 нет в базе данных
Трек 4 нет в базе данных
Трек 5 нет в базе данных
Трек 6 нет в базе данных
Трек 7 нет в базе данных
Трек 8 нет в базе данных
Трек 9 нет в базе данных
Трек 10 нет в базе данных
Трек 11 нет в базе данных
Ни одного трека нет в базе AccurateRip
Конец отчёта

Спектры TAU

Covers

04 - Jupiter Sign

Исполнитель: Secret Service
Альбом: Jupiter Sign
Жанр: Electro Pop
Дата выпуска: 1984
Страна: Sweden
Лейбл: Sonet
Формат: FLAC (image+cue)
Битрейт: lossless
Продолжительность: 00:37:15
Источник: CD
Треклист:
01. Jupiter Sign [00:05:01]
02. Love Cannot Be Wrong [00:03:00]
03. Visions Of You [00:03:21]
04. Heart Companion [00:03:13]
05. Jo-Anne Jo-Anne [00:03:50]
06. Do It [00:03:40]
07. Night Cafe [00:03:17]
08. All I Want To Do [00:03:40]
09. Will You Be Near Me [00:04:21]
10. Mrs. Marple [00:03:47]

Отчёт EAC

Exact Audio Copy V0.99 prebeta 5 from 4. May 2009
Отчёт EAC об извлечении, выполненном 20. марта 2011, 12:36
Secret Service / Jupiter Sign
Дисковод: Optiarc DVD RW AD-7203A Adapter: 1 ID: 0
Режим чтения : Достоверность
Использование точного потока : Да
Отключение кэша аудио : Да
Использование указателей C2 : Нет
Коррекция смещения при чтении : 48
Способность читать области Lead-in и Lead-out : Нет
Заполнение пропущенных сэмплов тишиной : Да
Удаление блоков с тишиной в начале и конце : Нет
При вычислениях CRC использовались нулевые сэмплы : Да
Интерфейс : Встроенный Win32-интерфейс для Win NT/2000
Выходной формат : Пользовательский кодировщик
Выбранный битрейт : 1024 kBit/s
Качество : Высокий
Добавление ID3-тэга : Да
Утилита сжатия : C:\Program Files\Exact Audio Copy\FLAC\FLAC.EXE
Дополнительные параметры : -8 -V -T "ARTIST=%a" -T "TITLE=%t" -T "ALBUM=%g" -T "DATE=%y" -T "TRACKNUMBER=%n" -T "GENRE=%m" -T "COMMENT=EAC FLAC -8" %s
TOC извлечённого CD
Трек | Старт | Длительность | Начальный сектор | Конечный сектор
---------------------------------------------------------------------
1 | 0:00.00 | 5:01.30 | 0 | 22604
2 | 5:01.30 | 3:00.65 | 22605 | 36169
3 | 8:02.20 | 3:21.50 | 36170 | 51294
4 | 11:23.70 | 3:13.15 | 51295 | 65784
5 | 14:37.10 | 3:50.30 | 65785 | 83064
6 | 18:27.40 | 3:40.40 | 83065 | 99604
7 | 22:08.05 | 3:17.25 | 99605 | 114404
8 | 25:25.30 | 3:40.60 | 114405 | 130964
9 | 29:06.15 | 4:21.45 | 130965 | 150584
10 | 33:27.60 | 3:47.60 | 150585 | 167669
Характеристики диапазона извлечения и сообщения об ошибках
Выбранный диапазон
Имя файла F:\СВОИ РЕЛИЗЫ\Secret Service 1979-1987 ''Sonet Discography 2011''\Secret Service 1984 ''Jupiter Sign'' (Sonet 2011)\Secret Service - Jupiter Sign.wav
Пиковый уровень 89.0 %
Качество диапазона 100.0 %
CRC теста 4ED96B60
CRC копии 4ED96B60
Копирование... OK
Ошибок не произошло
AccurateRip: сводка
Трек 1 нет в базе данных
Трек 2 нет в базе данных
Трек 3 нет в базе данных
Трек 4 нет в базе данных
Трек 5 нет в базе данных
Трек 6 нет в базе данных
Трек 7 нет в базе данных
Трек 8 нет в базе данных
Трек 9 нет в базе данных
Трек 10 нет в базе данных
Ни одного трека нет в базе AccurateRip
Конец отчёта

Спектры TAU

Covers

05 - When The Night Closes In

Исполнитель: Secret Service
Альбом: When The Night Closes In
Жанр: Pop
Дата выпуска: 1985
Страна: Sweden
Лейбл: Sonet
Формат: FLAC (image+cue)
Битрейт: lossless
Продолжительность: 00:37:13
Источник: CD
Треклист:
01. Night City [00:03:37]
02. Let Us Dance Just A Little Bit More [00:04:31]
03. Special Songs [00:03:40]
04. Do You Remember? [00:03:31]
05. Walking [00:04:09]
06. When The Night Closes In [00:04:08]
07. How I Want You [00:03:54]
08. Closer Every Day [00:03:15]
09. Feel You Near Me [00:03:08]
10. Just A Friend For The Night [00:03:20]

Отчёт EAC

Exact Audio Copy V0.99 prebeta 5 from 4. May 2009
Отчёт EAC об извлечении, выполненном 20. марта 2011, 13:19
Secret Service / When The Night Closes In
Дисковод: Optiarc DVD RW AD-7203A Adapter: 1 ID: 0
Режим чтения : Достоверность
Использование точного потока : Да
Отключение кэша аудио : Да
Использование указателей C2 : Нет
Коррекция смещения при чтении : 48
Способность читать области Lead-in и Lead-out : Нет
Заполнение пропущенных сэмплов тишиной : Да
Удаление блоков с тишиной в начале и конце : Нет
При вычислениях CRC использовались нулевые сэмплы : Да
Интерфейс : Встроенный Win32-интерфейс для Win NT/2000
Выходной формат : Пользовательский кодировщик
Выбранный битрейт : 1024 kBit/s
Качество : Высокий
Добавление ID3-тэга : Да
Утилита сжатия : C:\Program Files\Exact Audio Copy\FLAC\FLAC.EXE
Дополнительные параметры : -8 -V -T "ARTIST=%a" -T "TITLE=%t" -T "ALBUM=%g" -T "DATE=%y" -T "TRACKNUMBER=%n" -T "GENRE=%m" -T "COMMENT=EAC FLAC -8" %s
TOC извлечённого CD
Трек | Старт | Длительность | Начальный сектор | Конечный сектор
---------------------------------------------------------------------
1 | 0:00.00 | 3:37.20 | 0 | 16294
2 | 3:37.20 | 4:31.00 | 16295 | 36619
3 | 8:08.20 | 3:40.00 | 36620 | 53119
4 | 11:48.20 | 3:31.00 | 53120 | 68944
5 | 15:19.20 | 4:09.00 | 68945 | 87619
6 | 19:28.20 | 4:08.00 | 87620 | 106219
7 | 23:36.20 | 3:54.00 | 106220 | 123769
8 | 27:30.20 | 3:15.00 | 123770 | 138394
9 | 30:45.20 | 3:08.00 | 138395 | 152494
10 | 33:53.20 | 3:20.00 | 152495 | 167494
Характеристики диапазона извлечения и сообщения об ошибках
Выбранный диапазон
Имя файла F:\СВОИ РЕЛИЗЫ\Secret Service 1979-1987 ''Sonet Discography 2011''\Secret Service 1985 ''When The Night Closes In'' (Sonet 2011)\Secret Service - When The Night Closes In.wav
Пиковый уровень 79.1 %
Качество диапазона 100.0 %
CRC теста F34A4DB2
CRC копии F34A4DB2
Копирование... OK
Ошибок не произошло
AccurateRip: сводка
Трек 1 нет в базе данных
Трек 2 нет в базе данных
Трек 3 нет в базе данных
Трек 4 нет в базе данных
Трек 5 нет в базе данных
Трек 6 нет в базе данных
Трек 7 нет в базе данных
Трек 8 нет в базе данных
Трек 9 нет в базе данных
Трек 10 нет в базе данных
Ни одного трека нет в базе AccurateRip
Конец отчёта

Спектры TAU

Covers

06 - Aux Deux Magots

Исполнитель: Secret Service
Альбом: Aux Deux Magots
Жанр: Pop
Дата выпуска: 1987
Страна: Sweden
Лейбл: Sonet
Формат: FLAC (image+cue)
Битрейт: lossless
Продолжительность: 00:39:16
Источник: CD
Треклист:
01. I'm So I'm So I'm So [00:04:06]
02. If You Need Me [00:03:30]
03. Don't You Know Don't You Know [00:03:29]
04. Turn To Me [00:03:42]
05. The Way You Are [00:05:50]
06. Say Say [00:03:14]
07. Light [00:03:35]
08. Aux Deux Magots [00:04:10]
09. Where The Wind Blows [00:03:25]
10. Thank You For That Night [00:04:10]

Отчёт EAC

Exact Audio Copy V0.99 prebeta 5 from 4. May 2009
Отчёт EAC об извлечении, выполненном 20. марта 2011, 14:03
Secret Service / Aux Deux Magots
Дисковод: Optiarc DVD RW AD-7203A Adapter: 1 ID: 0
Режим чтения : Достоверность
Использование точного потока : Да
Отключение кэша аудио : Да
Использование указателей C2 : Нет
Коррекция смещения при чтении : 48
Способность читать области Lead-in и Lead-out : Нет
Заполнение пропущенных сэмплов тишиной : Да
Удаление блоков с тишиной в начале и конце : Нет
При вычислениях CRC использовались нулевые сэмплы : Да
Интерфейс : Встроенный Win32-интерфейс для Win NT/2000
Выходной формат : Пользовательский кодировщик
Выбранный битрейт : 1024 kBit/s
Качество : Высокий
Добавление ID3-тэга : Да
Утилита сжатия : C:\Program Files\Exact Audio Copy\FLAC\FLAC.EXE
Дополнительные параметры : -8 -V -T "ARTIST=%a" -T "TITLE=%t" -T "ALBUM=%g" -T "DATE=%y" -T "TRACKNUMBER=%n" -T "GENRE=%m" -T "COMMENT=EAC FLAC -8" %s
TOC извлечённого CD
Трек | Старт | Длительность | Начальный сектор | Конечный сектор
---------------------------------------------------------------------
1 | 0:00.00 | 4:06.30 | 0 | 18479
2 | 4:06.30 | 3:30.70 | 18480 | 34299
3 | 7:37.25 | 3:29.30 | 34300 | 50004
4 | 11:06.55 | 3:42.30 | 50005 | 66684
5 | 14:49.10 | 5:50.50 | 66685 | 92984
6 | 20:39.60 | 3:14.10 | 92985 | 107544
7 | 23:53.70 | 3:35.10 | 107545 | 123679
8 | 27:29.05 | 4:10.60 | 123680 | 142489
9 | 31:39.65 | 3:25.40 | 142490 | 157904
10 | 35:05.30 | 4:10.65 | 157905 | 176719
Характеристики диапазона извлечения и сообщения об ошибках
Выбранный диапазон
Имя файла F:\СВОИ РЕЛИЗЫ\Secret Service 1979-1987 ''Sonet Discography 2011''\Secret Service 1987 ''Aux Deux Magots'' (Sonet 2011)\Secret Service - Aux Deux Magots.wav
Пиковый уровень 100.0 %
Качество диапазона 100.0 %
CRC теста ADCA9E52
CRC копии ADCA9E52
Копирование... OK
Ошибок не произошло
AccurateRip: сводка
Трек 1 нет в базе данных
Трек 2 нет в базе данных
Трек 3 нет в базе данных
Трек 4 нет в базе данных
Трек 5 нет в базе данных
Трек 6 нет в базе данных
Трек 7 нет в базе данных
Трек 8 нет в базе данных
Трек 9 нет в базе данных
Трек 10 нет в базе данных
Ни одного трека нет в базе AccurateRip
Конец отчёта

Спектры TAU

[Профиль] [ЛС]

Создавать темы 13-Авг-2015 10:57 (спустя 11 месяцев 20 дней)

Топик был перенесен из форума Зарубежная в форум Technopop, Eurodance, Disco
sergej644
 
Показать сообщения:    

Текущее время: Сегодня 02:15

Часовой пояс: GMT



Вы не можете начинать темы
Вы не можете отвечать на сообщения
Вы не можете редактировать свои сообщения
Вы не можете удалять свои сообщения
Вы не можете голосовать в опросах
Вы не можете прикреплять файлы к сообщениям
Вы не можете скачивать файлы