(Disco, Synth-pop) Secret Service - CD Collection - (3 Albums, 2 Compilations) 1985-2012, FLAC (image+.cue), lossless

 
Автор Сообщение

sergej644 ®

Пол:

Стаж: 4 года 11 месяцев

Сообщений: 6043

Откуда: Soviet Union



Награды: Нет

Торрент-статистика

Создавать темы 23-Авг-2014 07:38

[Цитировать]

Secret Service - CD Collection (5 CD)
Жанр: Disco/PopMusic/Synthpop
Год выпуска диска: 1985-2012
Аудио кодек: FLAC
Тип рипа: image+.cue
Битрейт аудио: lossless
Наличие сканов в содержимом раздачи: да

Secret Service - When The Night Closes In 1985 (Sonet SLPCD 2770)

Производитель диска: Made in Sweden Sonet Grammofon AB SLPCD-2770
Трэклист:
CD: Secret Service - When The Night Closes In
Sonet; SLPCD-2770
01. Night City [0:03:42.00]
02. Let Us Dance Just A Little Bit More [0:04:32.33]
03. Special Songs [0:03:35.66]
04. Do You Remember? [0:03:31.00]
05. Walking [0:04:09.33]
06. When The Night Closes In [0:04:10.66]
07. How I Want You [0:03:52.66]
08. Closer Every Day [0:03:14.66]
09. Feel You Near Me [0:03:10.33]
10. Just A Friend For The Night [0:03:11.33]
Total: 37:10.00

back&disc

Log ЕАС

Exact Audio Copy V1.0 beta 3 from 29. August 2011
EAC extraction logfile from 7. May 2013, 2:09
Secret Service / When The Night Closes In
Used drive  : PLEXTOR DVDR   PX-716A   Adapter: 0  ID: 0
Read mode               : Secure
Utilize accurate stream : Yes
Defeat audio cache      : Yes
Make use of C2 pointers : No
Read offset correction                      : 30
Overread into Lead-In and Lead-Out          : Yes
Fill up missing offset samples with silence : Yes
Delete leading and trailing silent blocks   : No
Null samples used in CRC calculations       : Yes
Used interface                              : Native Win32 interface for Win NT & 2000
Used output format              : User Defined Encoder
Selected bitrate                : 896 kBit/s
Quality                         : High
Add ID3 tag                     : No
Command line compressor         : C:\Program Files (x86)\FLAC\flac.exe
Additional command line options : -V -8 -T "Date=%year%" -T "Genre=%genre%" %source%
TOC of the extracted CD
     Track |   Start  |  Length  | Start sector | End sector
    ---------------------------------------------------------
        1  |  0:00.33 |  3:42.00 |        33    |    16682
        2  |  3:42.33 |  4:32.25 |     16683    |    37107
        3  |  8:14.58 |  3:35.50 |     37108    |    53282
        4  | 11:50.33 |  3:31.00 |     53283    |    69107
        5  | 15:21.33 |  4:09.25 |     69108    |    87807
        6  | 19:30.58 |  4:10.50 |     87808    |   106607
        7  | 23:41.33 |  3:52.50 |    106608    |   124057
        8  | 27:34.08 |  3:14.50 |    124058    |   138657
        9  | 30:48.58 |  3:10.25 |    138658    |   152932
       10  | 33:59.08 |  3:11.25 |    152933    |   167282
Range status and errors
Selected range
     Filename E:\mtorrent_flac\Secret Service - CD Collection\1985 Secret Service - When The Night Closes In (Sonet SLPCD 2770)\Secret Service - When The Night Closes In (SLPCD-2770).wav
     Peak level 79.1 %
     Extraction speed 1.4 X
     Range quality 100.0 %
     Test CRC 2E146FB4
     Copy CRC 2E146FB4
     Copy OK
No errors occurred
AccurateRip summary
Track  1  cannot be verified as accurate (confidence 6)  [E22747E6], AccurateRip returned [FE3480B2]  (AR v2)
Track  2  cannot be verified as accurate (confidence 5)  [E720402F], AccurateRip returned [963509EE]  (AR v2)
Track  3  cannot be verified as accurate (confidence 5)  [C573B53B], AccurateRip returned [090CCDA6]  (AR v2)
Track  4  cannot be verified as accurate (confidence 5)  [8C6977EE], AccurateRip returned [6512A0B5]  (AR v2)
Track  5  cannot be verified as accurate (confidence 6)  [005CD082], AccurateRip returned [BBDD2B14]  (AR v2)
Track  6  cannot be verified as accurate (confidence 5)  [75C920E7], AccurateRip returned [6C972E31]  (AR v2)
Track  7  cannot be verified as accurate (confidence 6)  [54D93D17], AccurateRip returned [22EA79E3]  (AR v2)
Track  8  cannot be verified as accurate (confidence 6)  [61C4F1D2], AccurateRip returned [0142C75C]  (AR v2)
Track  9  cannot be verified as accurate (confidence 6)  [D5B3CAFE], AccurateRip returned [F54C4602]  (AR v2)
Track 10  cannot be verified as accurate (confidence 5)  [6072209C], AccurateRip returned [FE0D0A55]  (AR v2)
No tracks could be verified as accurate
You may have a different pressing from the one(s) in the database
End of status report
---- CUETools DB Plugin V2.1.5
[CTDB TOCID: SOMJfZt_ffRU34iLN_Utwxs18_I-] found
Submit result: SOMJfZt_ffRU34iLN_Utwxs18_I- has been confirmed
Track | CTDB Status
  1   | (1/1) Accurately ripped
  2   | (1/1) Accurately ripped
  3   | (1/1) Accurately ripped
  4   | (1/1) Accurately ripped
  5   | (1/1) Accurately ripped
  6   | (1/1) Accurately ripped
  7   | (1/1) Accurately ripped
  8   | (1/1) Accurately ripped
  9   | (1/1) Accurately ripped
10   | (1/1) Accurately ripped
==== Log checksum 45A5C31C8D3B741FC88E0C5224A6B0ABD011C272B1CE3544AC66AAEE0DBE5B81 ====

Secret Service - Aux Deux Magots 1987 (Sonet SLPCD 2790)

Производитель диска: Made in Sweden Sonet Grammofon AB SLPCD-2790
Трэклист:
CD: Secret Service - Aux Deux Magots
SLPCD 2790
01. I'm So I'm So I'm So [0:04:06.93]
02. If You Need Me [0:03:30.17]
03. Don't You Know Don't You Know [0:03:30.82]
04. Turn To Me [0:03:42.60]
05. The Way You Are [0:05:50.33]
06. Say Say [0:03:13.46]
07. Light [0:03:34.50]
08. Aux Deux Magots [0:04:11.42]
09. Where The Wind Blows [0:03:28.04]
10. Thank You For That Night [0:04:04.66]
Total: 39:12.97

back&disc

Log ЕАС

Exact Audio Copy V1.0 beta 3 from 29. August 2011
EAC extraction logfile from 7. May 2013, 22:57
Secret Service / Aux Deux Magots
Used drive  : PLEXTOR DVDR   PX-716A   Adapter: 0  ID: 0
Read mode               : Secure
Utilize accurate stream : Yes
Defeat audio cache      : Yes
Make use of C2 pointers : No
Read offset correction                      : 30
Overread into Lead-In and Lead-Out          : Yes
Fill up missing offset samples with silence : Yes
Delete leading and trailing silent blocks   : No
Null samples used in CRC calculations       : Yes
Used interface                              : Native Win32 interface for Win NT & 2000
Used output format              : User Defined Encoder
Selected bitrate                : 896 kBit/s
Quality                         : High
Add ID3 tag                     : No
Command line compressor         : C:\Program Files (x86)\FLAC\flac.exe
Additional command line options : -V -8 -T "Date=%year%" -T "Genre=%genre%" %source%
TOC of the extracted CD
     Track |   Start  |  Length  | Start sector | End sector
    ---------------------------------------------------------
        1  |  0:00.00 |  4:06.70 |         0    |    18519
        2  |  4:06.70 |  3:30.13 |     18520    |    34282
        3  |  7:37.08 |  3:30.62 |     34283    |    50094
        4  | 11:07.70 |  3:42.45 |     50095    |    66789
        5  | 14:50.40 |  5:50.25 |     66790    |    93064
        6  | 20:40.65 |  3:13.35 |     93065    |   107574
        7  | 23:54.25 |  3:34.38 |    107575    |   123662
        8  | 27:28.63 |  4:11.32 |    123663    |   142519
        9  | 31:40.20 |  3:28.03 |    142520    |   158122
       10  | 35:08.23 |  4:04.50 |    158123    |   176472
Range status and errors
Selected range
     Filename E:\mtorrent_flac\Secret Service - CD Collection\1987 Secret Service - Aux Deux Magots (Sonet SLPCD 2790)\Secret Service - Aux Deux Magots (SLPCD-2790).wav
     Peak level 100.0 %
     Extraction speed 1.3 X
     Range quality 100.0 %
     Test CRC CA3E9A18
     Copy CRC CA3E9A18
     Copy OK
No errors occurred
AccurateRip summary
Track  1  accurately ripped (confidence 3)  [20D7C074]  (AR v1)
Track  2  accurately ripped (confidence 3)  [2AD5EFE6]  (AR v1)
Track  3  accurately ripped (confidence 3)  [96E1C27D]  (AR v1)
Track  4  accurately ripped (confidence 3)  [0D5F0036]  (AR v1)
Track  5  accurately ripped (confidence 3)  [6BD44BFF]  (AR v1)
Track  6  accurately ripped (confidence 3)  [A56C7502]  (AR v1)
Track  7  accurately ripped (confidence 3)  [0263DE32]  (AR v1)
Track  8  accurately ripped (confidence 3)  [2809886B]  (AR v1)
Track  9  accurately ripped (confidence 3)  [37C3649F]  (AR v1)
Track 10  accurately ripped (confidence 3)  [BB7D2254]  (AR v1)
All tracks accurately ripped
End of status report
---- CUETools DB Plugin V2.1.5
[CTDB TOCID: jsRajKP16wgLd_3EsmeTHitHCTA-] found
Submit result: already submitted
Track | CTDB Status
  1   | (1/1) Accurately ripped
  2   | (1/1) Accurately ripped
  3   | (1/1) Accurately ripped
  4   | (1/1) Accurately ripped
  5   | (1/1) Accurately ripped
  6   | (1/1) Accurately ripped
  7   | (1/1) Accurately ripped
  8   | (1/1) Accurately ripped
  9   | (1/1) Accurately ripped
10   | (1/1) Accurately ripped
==== Log checksum 2E5B2964D1AD762D55CBEB12EA1C2D76DF2F8A829F33860DCA6211733B495E98 ====

Secret Service - Spotlight 1990 (Sonet SPCD-16)

Производитель диска: Made in Sweden Sonet Grammofon AB SPCD-16
Трэклист:
CD: Secret Service - Spotlight 1979 - 1985
YEAR: 1990 ID3G: 17
01. Oh Susie '79 82' Remix [0:03:56.49]
02. L.A. Goodbye '80 [0:03:17.00]
03. Flash In The Night '80 82'Remix [0:03:48.00]
04. Ye-Si-Ca '80 82'Remix [0:03:27.17]
05. Broken Hearts '80 82'Remix [0:03:37.82]
06. Ten O'Clock Postman '79 82'Remix [0:03:36.00]
07. Dancing In Madness '82 [0:03:08.00]
08. Fire Into Ice '82 [0:03:56.17]
09. Like A Morning Song '82 [0:03:27.82]
10. When The Dancer You Have Loved Walks Out The Door '82 [0:03:54.00]
11. Jo-Anne Jo-Anne '84 [0:03:44.00]
12. Jupiter Sign '84 [0:04:56.17]
13. Mrs. Marple '84 [0:03:33.82]
14. Visions Of You '85 [0:03:16.00]
15. When The Night Closes In '85 [0:04:08.33]
16. Let Us Dance Just A Little Bit More '85 [0:04:29.84]
17. Night City '85 [0:03:39.60]
Total: 1:03:56.26

back&disc

Log ЕАС

Exact Audio Copy V1.0 beta 3 from 29. August 2011
EAC extraction logfile from 8. May 2013, 0:24
Secret Service / Spotlight 1979 - 1985
Used drive  : PLEXTOR DVDR   PX-716A   Adapter: 0  ID: 0
Read mode               : Secure
Utilize accurate stream : Yes
Defeat audio cache      : Yes
Make use of C2 pointers : No
Read offset correction                      : 30
Overread into Lead-In and Lead-Out          : Yes
Fill up missing offset samples with silence : Yes
Delete leading and trailing silent blocks   : No
Null samples used in CRC calculations       : Yes
Used interface                              : Native Win32 interface for Win NT & 2000
Used output format              : User Defined Encoder
Selected bitrate                : 896 kBit/s
Quality                         : High
Add ID3 tag                     : No
Command line compressor         : C:\Program Files (x86)\FLAC\flac.exe
Additional command line options : -V -8 -T "Date=%year%" -T "Genre=%genre%" %source%
TOC of the extracted CD
     Track |   Start  |  Length  | Start sector | End sector
    ---------------------------------------------------------
        1  |  0:00.00 |  3:56.37 |         0    |    17736
        2  |  3:56.37 |  3:17.00 |     17737    |    32511
        3  |  7:13.37 |  3:48.00 |     32512    |    49611
        4  | 11:01.37 |  3:27.13 |     49612    |    65149
        5  | 14:28.50 |  3:37.62 |     65150    |    81486
        6  | 18:06.37 |  3:36.00 |     81487    |    97686
        7  | 21:42.37 |  3:08.00 |     97687    |   111786
        8  | 24:50.37 |  3:56.13 |    111787    |   129499
        9  | 28:46.50 |  3:27.62 |    129500    |   145086
       10  | 32:14.37 |  3:54.00 |    145087    |   162636
       11  | 36:08.37 |  3:44.00 |    162637    |   179436
       12  | 39:52.37 |  4:56.13 |    179437    |   201649
       13  | 44:48.50 |  3:33.62 |    201650    |   217686
       14  | 48:22.37 |  3:16.00 |    217687    |   232386
       15  | 51:38.37 |  4:08.25 |    232387    |   251011
       16  | 55:46.62 |  4:29.63 |    251012    |   271249
       17  | 60:16.50 |  3:39.45 |    271250    |   287719
Range status and errors
Selected range
     Filename E:\mtorrent_flac\Secret Service - CD Collection\1990 Secret Service - Spotlight (Sonet SPCD-16)\Secret Service - Spotlight (SPCD-16).wav
     Peak level 93.1 %
     Extraction speed 1.7 X
     Range quality 99.9 %
     Test CRC F452901A
     Copy CRC F452901A
     Copy OK
No errors occurred
AccurateRip summary
Track  1  accurately ripped (confidence 5)  [384E8AE9]  (AR v1)
Track  2  accurately ripped (confidence 5)  [11AC9BE2]  (AR v1)
Track  3  accurately ripped (confidence 5)  [EA696D44]  (AR v1)
Track  4  accurately ripped (confidence 5)  [5F18DDA1]  (AR v1)
Track  5  accurately ripped (confidence 5)  [DC2D0489]  (AR v1)
Track  6  accurately ripped (confidence 5)  [4FF75BB0]  (AR v1)
Track  7  accurately ripped (confidence 5)  [22F95716]  (AR v1)
Track  8  accurately ripped (confidence 5)  [9F7ACFB1]  (AR v1)
Track  9  accurately ripped (confidence 5)  [DC16EC1F]  (AR v1)
Track 10  accurately ripped (confidence 5)  [9DF83BF9]  (AR v1)
Track 11  accurately ripped (confidence 5)  [0E7345A3]  (AR v1)
Track 12  accurately ripped (confidence 5)  [4B9D632B]  (AR v1)
Track 13  accurately ripped (confidence 5)  [6668AD81]  (AR v1)
Track 14  accurately ripped (confidence 5)  [0528973F]  (AR v1)
Track 15  accurately ripped (confidence 5)  [DD378DC0]  (AR v1)
Track 16  accurately ripped (confidence 5)  [396794BC]  (AR v1)
Track 17  accurately ripped (confidence 5)  [3CB1EAE5]  (AR v1)
All tracks accurately ripped
End of status report
---- CUETools DB Plugin V2.1.5
[CTDB TOCID: SkNvl2wxh7YVjH4Dfh9IQia80bk-] found
Submit result: already submitted
Track | CTDB Status
  1   | (6/6) Accurately ripped
  2   | (6/6) Accurately ripped
  3   | (6/6) Accurately ripped
  4   | (6/6) Accurately ripped
  5   | (6/6) Accurately ripped
  6   | (6/6) Accurately ripped
  7   | (6/6) Accurately ripped
  8   | (6/6) Accurately ripped
  9   | (6/6) Accurately ripped
10   | (6/6) Accurately ripped
11   | (6/6) Accurately ripped
12   | (6/6) Accurately ripped
13   | (6/6) Accurately ripped
14   | (6/6) Accurately ripped
15   | (6/6) Accurately ripped
16   | (6/6) Accurately ripped
17   | (6/6) Accurately ripped
==== Log checksum 9C196F208FCA275258E95951B829DF20ABA95A873B3FF95910AA135F3C627CDA ====

Secret Service - Top Secret (Greatest Hits) 2000 (159 765-2)

Производитель диска: Made in Germany Stockholm Records 159 765-2
Трэклист:
CD: Secret Service - Top Secret - Greatest Hits
YEAR: 2000 ID3G: 13
01. Oh Susie [0:04:09.53]
02. The Dancer [0:03:34.49]
03. Ten O'Clock Postman [0:03:38.37]
04. Cry Softly (Time Is Mourning) [0:03:32.26]
05. Flash In The Night [0:03:38.20]
06. Let Us Dance Just A Little Bit More [0:04:13.09]
07. Ye Si Ca [0:03:10.37]
08. If I Try [0:04:07.66]
09. Fire Into Ice [0:03:43.09]
10. Destiny Of Love [0:04:10.50]
11. Night City [0:04:10.16]
12. Rainy Day Memories [0:03:10.44]
13. L.A. Goodbye [0:03:18.96]
14. When The Night Closes In [0:04:07.24]
15. The Sound Of The Rain [0:03:52.00]
16. Bring Heaven Down [0:03:39.69]
17. Like A Morning Song [0:03:02.60]
18. Dancing In Madness [0:02:55.50]
19. Jo-Anne Jo-Anne [0:03:21.49]
20. I'm So I'm So I'm So (I'm So In Love With You) [0:04:03.80]
Total: 1:13:39.49

back&disc

Log ЕАС

Exact Audio Copy V1.0 beta 3 from 29. August 2011
EAC extraction logfile from 8. May 2013, 1:39
Secret Service / Top Secret - Greatest Hits
Used drive  : PLEXTOR DVDR   PX-716A   Adapter: 0  ID: 0
Read mode               : Secure
Utilize accurate stream : Yes
Defeat audio cache      : Yes
Make use of C2 pointers : No
Read offset correction                      : 30
Overread into Lead-In and Lead-Out          : Yes
Fill up missing offset samples with silence : Yes
Delete leading and trailing silent blocks   : No
Null samples used in CRC calculations       : Yes
Used interface                              : Native Win32 interface for Win NT & 2000
Used output format              : User Defined Encoder
Selected bitrate                : 896 kBit/s
Quality                         : High
Add ID3 tag                     : No
Command line compressor         : C:\Program Files (x86)\FLAC\flac.exe
Additional command line options : -V -8 -T "Date=%year%" -T "Genre=%genre%" %source%
TOC of the extracted CD
     Track |   Start  |  Length  | Start sector | End sector
    ---------------------------------------------------------
        1  |  0:00.00 |  4:09.40 |         0    |    18714
        2  |  4:09.40 |  3:34.37 |     18715    |    34801
        3  |  7:44.02 |  3:38.28 |     34802    |    51179
        4  | 11:22.30 |  3:32.20 |     51180    |    67099
        5  | 14:54.50 |  3:38.15 |     67100    |    83464
        6  | 18:32.65 |  4:13.07 |     83465    |   102446
        7  | 22:45.72 |  3:10.28 |    102447    |   116724
        8  | 25:56.25 |  4:07.50 |    116725    |   135299
        9  | 30:04.00 |  3:43.07 |    135300    |   152031
       10  | 33:47.07 |  4:10.38 |    152032    |   170819
       11  | 37:57.45 |  4:10.12 |    170820    |   189581
       12  | 42:07.57 |  3:10.33 |    189582    |   203864
       13  | 45:18.15 |  3:18.72 |    203865    |   218786
       14  | 48:37.12 |  4:07.18 |    218787    |   237329
       15  | 52:44.30 |  3:52.00 |    237330    |   254729
       16  | 56:36.30 |  3:39.52 |    254730    |   271206
       17  | 60:16.07 |  3:02.45 |    271207    |   284901
       18  | 63:18.52 |  2:55.38 |    284902    |   298064
       19  | 66:14.15 |  3:21.37 |    298065    |   313176
       20  | 69:35.52 |  4:03.60 |    313177    |   331461
Range status and errors
Selected range
     Filename E:\mtorrent_flac\Secret Service - CD Collection\2000 Secret Service - Top Secret (Greatest Hits) (159 765-2)\Secret Service - Top Secret - Greatest Hits.wav
     Peak level 100.0 %
     Extraction speed 1.8 X
     Range quality 100.0 %
     Test CRC AA000365
     Copy CRC AA000365
     Copy OK
No errors occurred
AccurateRip summary
Track  1  accurately ripped (confidence 2)  [DCE0E73C]  (AR v2)
Track  2  accurately ripped (confidence 2)  [1179D10C]  (AR v2)
Track  3  accurately ripped (confidence 2)  [EB16DAE9]  (AR v2)
Track  4  accurately ripped (confidence 2)  [AF8CA924]  (AR v2)
Track  5  accurately ripped (confidence 2)  [32405F39]  (AR v2)
Track  6  accurately ripped (confidence 2)  [D7E7B256]  (AR v2)
Track  7  accurately ripped (confidence 2)  [A045B438]  (AR v2)
Track  8  accurately ripped (confidence 2)  [044CA4B0]  (AR v2)
Track  9  accurately ripped (confidence 2)  [4F33BCAB]  (AR v2)
Track 10  accurately ripped (confidence 2)  [199091A5]  (AR v2)
Track 11  accurately ripped (confidence 2)  [0526476A]  (AR v2)
Track 12  accurately ripped (confidence 2)  [818CEA1A]  (AR v2)
Track 13  accurately ripped (confidence 2)  [27EF1657]  (AR v2)
Track 14  accurately ripped (confidence 2)  [45062DC2]  (AR v2)
Track 15  accurately ripped (confidence 2)  [F7B9C448]  (AR v2)
Track 16  accurately ripped (confidence 2)  [0E54DEED]  (AR v2)
Track 17  accurately ripped (confidence 2)  [6216D502]  (AR v2)
Track 18  accurately ripped (confidence 2)  [55DA1DBB]  (AR v2)
Track 19  accurately ripped (confidence 2)  [62C8F69D]  (AR v2)
Track 20  accurately ripped (confidence 15)  [84388924]  (AR v1)
All tracks accurately ripped
End of status report
---- CUETools DB Plugin V2.1.5
[CTDB TOCID: 2e81NYU_hL3ZDRpFyg2A1l5xC_w-] found
Submit result: 2e81NYU_hL3ZDRpFyg2A1l5xC_w- has been confirmed
Track | CTDB Status
  1   | (7/7) Accurately ripped
  2   | (7/7) Accurately ripped
  3   | (7/7) Accurately ripped
  4   | (7/7) Accurately ripped
  5   | (7/7) Accurately ripped
  6   | (7/7) Accurately ripped
  7   | (7/7) Accurately ripped
  8   | (7/7) Accurately ripped
  9   | (7/7) Accurately ripped
10   | (7/7) Accurately ripped
11   | (7/7) Accurately ripped
12   | (7/7) Accurately ripped
13   | (7/7) Accurately ripped
14   | (7/7) Accurately ripped
15   | (7/7) Accurately ripped
16   | (7/7) Accurately ripped
17   | (7/7) Accurately ripped
18   | (7/7) Accurately ripped
19   | (7/7) Accurately ripped
20   | (7/7) Accurately ripped
==== Log checksum EBE38B1305556E38FAE1A157F5989A46B75D694830B7BFA22678D1D337BD4A62 ====

Secret Service - The Lost Box 2012 (XTC A 2012-1)

Производитель диска: Made in Sweden XTC Productions AB Sweden XTC A 2012-1
Трэклист:
CD: Secret Service - The Lost Box
01. Satellites [0:03:44.70]
02. If I Do [0:03:31.73]
03. Different [0:03:32.73]
04. Eyes Are Talking [0:04:00.45]
05. I Want You [0:03:47.60]
06. The Go-Between [0:04:04.46]
07. Upside Down [0:04:10.82]
08. Woman And Man [0:03:20.49]
09. Always A Fool At The First Time [0:02:56.41]
10. It's Not Over [0:03:13.12]
11. Someone Can Open Your Heart [0:03:22.77]
Total: 39:45.32

back&disc

Log ЕАС

Exact Audio Copy V1.0 beta 3 from 29. August 2011
EAC extraction logfile from 8. May 2013, 8:30
Secret Service / The Lost Box
Used drive  : PLEXTOR DVDR   PX-716A   Adapter: 0  ID: 0
Read mode               : Secure
Utilize accurate stream : Yes
Defeat audio cache      : Yes
Make use of C2 pointers : No
Read offset correction                      : 30
Overread into Lead-In and Lead-Out          : Yes
Fill up missing offset samples with silence : Yes
Delete leading and trailing silent blocks   : No
Null samples used in CRC calculations       : Yes
Used interface                              : Native Win32 interface for Win NT & 2000
Used output format              : User Defined Encoder
Selected bitrate                : 896 kBit/s
Quality                         : High
Add ID3 tag                     : No
Command line compressor         : C:\Program Files (x86)\FLAC\flac.exe
Additional command line options : -V -8 -T "Date=%year%" -T "Genre=%genre%" %source%
TOC of the extracted CD
     Track |   Start  |  Length  | Start sector | End sector
    ---------------------------------------------------------
        1  |  0:00.00 |  3:44.53 |         0    |    16852
        2  |  3:44.53 |  3:31.55 |     16853    |    32732
        3  |  7:16.33 |  3:32.55 |     32733    |    48687
        4  | 10:49.13 |  4:00.34 |     48688    |    66721
        5  | 14:49.47 |  3:47.45 |     66722    |    83791
        6  | 18:37.17 |  4:04.35 |     83792    |   102126
        7  | 22:41.52 |  4:10.62 |    102127    |   120938
        8  | 26:52.39 |  3:20.37 |    120939    |   135975
        9  | 30:13.01 |  2:56.31 |    135976    |   149206
       10  | 33:09.32 |  3:13.09 |    149207    |   163690
       11  | 36:22.41 |  3:22.58 |    163691    |   178898
Range status and errors
Selected range
     Filename E:\mtorrent_flac\Secret Service - CD Collection\2012 Secret Service - The Lost Box (XTC A 2012-1)\Secret Service - The Lost Box (XTC A 2012-1).wav
     Peak level 98.2 %
     Extraction speed 1.5 X
     Range quality 100.0 %
     Test CRC 5D9A10E6
     Copy CRC 5D9A10E6
     Copy OK
No errors occurred
AccurateRip summary
Track  1  not present in database
Track  2  not present in database
Track  3  not present in database
Track  4  not present in database
Track  5  not present in database
Track  6  not present in database
Track  7  not present in database
Track  8  not present in database
Track  9  not present in database
Track 10  accurately ripped (confidence 1)  [9DAA9DB3]  (AR v1)
Track 11  not present in database
1 track(s) accurately ripped
10 track(s) not present in the AccurateRip database
Some tracks could not be verified as accurate
End of status report
---- CUETools DB Plugin V2.1.5
[CTDB TOCID: IuWHdL8fDr2BGzCEmJYqyfFkyY4-] found
Submit result: IuWHdL8fDr2BGzCEmJYqyfFkyY4- has been confirmed
Track | CTDB Status
  1   | (4/4) Accurately ripped
  2   | (4/4) Accurately ripped
  3   | (4/4) Accurately ripped
  4   | (4/4) Accurately ripped
  5   | (4/4) Accurately ripped
  6   | (4/4) Accurately ripped
  7   | (4/4) Accurately ripped
  8   | (4/4) Accurately ripped
  9   | (4/4) Accurately ripped
10   | (4/4) Accurately ripped
11   | (4/4) Accurately ripped
==== Log checksum 135993962894D2D6688288B0B2F0DDA284022CB32473454E18929E8FF42DB6AA ====
-Рипы (ЕАС) с оригинальных CD . Сканы ковриков прилагаются.(400dpi .PNG)-
[Профиль] [ЛС]

Создавать темы 13-Авг-2015 10:57 (спустя 11 месяцев 21 день)

Топик был перенесен из форума Зарубежная в форум Technopop, Eurodance, Disco
sergej644
 
Показать сообщения:    

Текущее время: Сегодня 04:22

Часовой пояс: GMT



Вы не можете начинать темы
Вы не можете отвечать на сообщения
Вы не можете редактировать свои сообщения
Вы не можете удалять свои сообщения
Вы не можете голосовать в опросах
Вы не можете прикреплять файлы к сообщениям
Вы не можете скачивать файлы