Scotch - The Maxi-Singles Collection (2008) [APE|Lossless]<Italo-Disco>

 
Автор Сообщение

sergej644 ®

Пол:

Стаж: 4 года 11 месяцев

Сообщений: 6039

Откуда: Soviet Union



Награды: Нет

Торрент-статистика

Создавать темы 24-Дек-2014 22:31

[Цитировать]

-Scotch - The Maxi-Singles Collection (2008)- Год: 2008
Лейбл: ESonCD
Каталог #: 200809-2
Жанр: Italo-Disco
Продолжительность: 01:11:38
Кодек: APE
Битрейт: Lossless
Тип битрейта: image +.cue
Треклист:
01. Penguins' Invasion (Original Version) 5:47
02. Disco Band (Mach 2 Remix) 6:18
03. Losing In Time 4:22
04. Loving Is Easy (Frederick Ramel Rmx) 5:50
05. Born To Kill (Bonus Version) 5:49
06. Delirio Mind (Remix) 5:37
07. Pictures (Tess Power Remix) 5:58
08. Discolation 4:50
09. Man To Man 4:50
10. Amour Pour Victoria (Russian Version) 4:47
11. Mirage (Deutch Version) 4:51
12. Delirio Mind (Power Mix 90) 7:34
13. Take Me Up (Extended Remix 90) 5:00

Отчёт ЕАС&#58;

Exact Audio Copy V0.99 prebeta 5 from 4. May 2009
Отчёт EAC об извлечении, выполненном 4. сентября 2009, 22:36
Scotch / The Maxi-Singles Collection
Дисковод: Optiarc DVD RW AD-5200A Adapter: 0 ID: 0
Режим чтения : Достоверность
Использование точного потока : Да
Отключение кэша аудио : Да
Использование указателей C2 : Нет
Коррекция смещения при чтении : 48
Способность читать области Lead-in и Lead-out : Нет
Заполнение пропущенных сэмплов тишиной : Да
Удаление блоков с тишиной в начале и конце : Нет
При вычислениях CRC использовались нулевые сэмплы : Да
Интерфейс : Установленный внешний ASPI-интерфейс
Выходной формат : Внутренние WAV-операции
Формат сэмплов : 44.100 Гц; 16 бит; стерео
TOC извлечённого CD
Трек | Старт | Длительность | Начальный сектор | Конечный сектор
---------------------------------------------------------------------
1 | 0:00.00 | 5:47.25 | 0 | 26049
2 | 5:47.25 | 6:18.18 | 26050 | 54417
3 | 12:05.43 | 4:22.42 | 54418 | 74109
4 | 16:28.10 | 5:50.47 | 74110 | 100406
5 | 22:18.57 | 5:49.70 | 100407 | 126651
6 | 28:08.52 | 5:37.01 | 126652 | 151927
7 | 33:45.53 | 5:58.03 | 151928 | 178780
8 | 39:43.56 | 4:50.74 | 178781 | 200604
9 | 44:34.55 | 4:50.51 | 200605 | 222405
10 | 49:25.31 | 4:47.44 | 222406 | 243974
11 | 54:13.00 | 4:51.12 | 243975 | 265811
12 | 59:04.12 | 7:34.14 | 265812 | 299875
13 | 66:38.26 | 5:00.74 | 299876 | 322449
Характеристики диапазона извлечения и сообщения об ошибках
Выбранный диапазон
Имя файла E:\Scotch - The Maxi-Singles Collection\Scotch - The Maxi-Singles Collection.wav
Пиковый уровень 100.0 %
Качество диапазона 100.0 %
CRC теста 23364219
CRC копии 23364219
Копирование... OK
Ошибок не произошло
AccurateRip: сводка
Трек 1 нет в базе данных
Трек 2 нет в базе данных
Трек 3 нет в базе данных
Трек 4 нет в базе данных
Трек 5 нет в базе данных
Трек 6 нет в базе данных
Трек 7 нет в базе данных
Трек 8 нет в базе данных
Трек 9 нет в базе данных
Трек 10 нет в базе данных
Трек 11 нет в базе данных
Трек 12 нет в базе данных
Трек 13 нет в базе данных
Ни одного трека нет в базе AccurateRip
Конец отчёта

Отчёт auCDtect Task manager&#58;

-----------------------
DON'T MODIFY THIS FILE
-----------------------
PERFORMER: auCDtect Task Manager, ver. 1.5.1RC4 build 1.5.1.5
Copyright (c) 2008-2010 y-soft. All rights reserved
http://y-soft.org
ANALYZER: auCDtect: CD records authenticity detector, version 0.8.2
Copyright (c) 2004 Oleg Berngardt. All rights reserved.
Copyright (c) 2004 Alexander Djourik. All rights reserved.
FILE: Scotch - The Maxi-Singles Collection.ape
  Size: 483946048 Hash: 9CFD1DA8C6A2125E55E9F31C28749DC3 Accuracy: -m0
  Conclusion: CDDA 100%
  Signature: AC466BCEDA105C386FAD03FF66A1BB2B0302B167

Содержание индексной карты (.CUE&#41;&#58;

REM GENRE Italo-Disco
REM DATE 2008
REM DISCID BB10CB0D
REM COMMENT "ExactAudioCopy v0.99pb5"
PERFORMER "Scotch"
TITLE "The Maxi-Singles Collection"
FILE "Scotch - The Maxi-Singles Collection.ape" WAVE
  TRACK 01 AUDIO
    TITLE "Penguins' Invasion (Original Version)"
    PERFORMER "Scotch"
    FLAGS DCP
    INDEX 01 00:00:00
    INDEX 02 00:02:30
    INDEX 03 00:02:34
    INDEX 04 00:03:51
    INDEX 05 00:07:57
    INDEX 06 00:14:12
    INDEX 07 01:35:48
    INDEX 08 02:21:15
    INDEX 09 03:35:67
    INDEX 10 05:43:51
  TRACK 02 AUDIO
    TITLE "Disco Band (Mach 2 Remix)"
    PERFORMER "Scotch"
    FLAGS DCP
    INDEX 00 05:45:25
    INDEX 01 05:47:25
    INDEX 02 06:31:08
    INDEX 03 06:44:43
    INDEX 04 06:48:66
    INDEX 05 07:14:25
    INDEX 06 07:32:61
    INDEX 07 08:24:03
    INDEX 08 08:44:47
    INDEX 09 11:20:32
  TRACK 03 AUDIO
    TITLE "Losing In Time"
    PERFORMER "Scotch"
    FLAGS DCP
    INDEX 00 12:03:43
    INDEX 01 12:05:43
    INDEX 02 16:04:55
  TRACK 04 AUDIO
    TITLE "Loving Is Easy (Frederick Ramel Rmx)"
    PERFORMER "Scotch"
    FLAGS DCP
    INDEX 00 16:26:10
    INDEX 01 16:28:10
    INDEX 02 16:47:52
    INDEX 03 19:00:11
  TRACK 05 AUDIO
    TITLE "Born To Kill (Bonus Version)"
    PERFORMER "Scotch"
    FLAGS DCP
    INDEX 00 22:16:57
    INDEX 01 22:18:57
    INDEX 02 23:05:14
    INDEX 03 23:24:13
    INDEX 04 25:18:61
    INDEX 05 25:33:33
    INDEX 06 27:37:22
    INDEX 07 27:37:32
    INDEX 08 27:46:27
  TRACK 06 AUDIO
    TITLE "Delirio Mind (Remix)"
    PERFORMER "Scotch"
    FLAGS DCP
    INDEX 00 28:06:52
    INDEX 01 28:08:52
    INDEX 02 28:10:58
    INDEX 03 28:12:73
    INDEX 04 28:55:42
    INDEX 05 30:55:24
    INDEX 06 31:25:60
    INDEX 07 32:22:61
  TRACK 07 AUDIO
    TITLE "Pictures (Tess Power Remix)"
    PERFORMER "Scotch"
    FLAGS DCP
    INDEX 00 33:43:53
    INDEX 01 33:45:53
  TRACK 08 AUDIO
    TITLE "Discolation"
    PERFORMER "Scotch"
    FLAGS DCP
    INDEX 00 39:41:56
    INDEX 01 39:43:56
    INDEX 02 40:27:03
    INDEX 03 41:45:48
    INDEX 04 42:03:28
  TRACK 09 AUDIO
    TITLE "Man To Man"
    PERFORMER "Scotch"
    FLAGS DCP
    INDEX 00 44:32:55
    INDEX 01 44:34:55
    INDEX 02 48:10:20
  TRACK 10 AUDIO
    TITLE "Amour Pour Victoria (Russian Version)"
    PERFORMER "Scotch"
    FLAGS DCP
    INDEX 00 49:23:31
    INDEX 01 49:25:31
    INDEX 02 51:41:00
    INDEX 03 52:00:52
    INDEX 04 52:00:54
    INDEX 05 52:12:39
    INDEX 06 52:24:01
    INDEX 07 52:24:02
    INDEX 08 52:24:05
    INDEX 09 53:44:11
    INDEX 10 54:04:68
  TRACK 11 AUDIO
    TITLE "Mirage (Deutch Version)"
    PERFORMER "Scotch"
    FLAGS DCP
    INDEX 00 54:11:00
    INDEX 01 54:13:00
  TRACK 12 AUDIO
    TITLE "Delirio Mind (Power Mix' 90)"
    PERFORMER "Scotch"
    FLAGS DCP
    INDEX 00 59:02:12
    INDEX 01 59:04:12
  TRACK 13 AUDIO
    TITLE "Take Me Up (Extended Remix' 90)"
    PERFORMER "Scotch"
    FLAGS DCP
    INDEX 00 66:36:26
    INDEX 01 66:38:26
[Профиль] [ЛС]

Создавать темы 13-Авг-2015 10:44 (спустя 7 месяцев 20 дней)

Топик был перенесен из форума Зарубежная в форум Technopop, Eurodance, Disco
sergej644
 
Кто просматривает тему:

Показать сообщения:    

Текущее время: Сегодня 16:36

Часовой пояс: GMT



Вы не можете начинать темы
Вы не можете отвечать на сообщения
Вы не можете редактировать свои сообщения
Вы не можете удалять свои сообщения
Вы не можете голосовать в опросах
Вы не можете прикреплять файлы к сообщениям
Вы не можете скачивать файлы