(Hard Rock) Scorpions - World Wide Live (50th Anniversary Deluxe) - 2015 [FLAC, image+.cue, lossless]

 
Автор Сообщение

sergej644 ®

Пол:

Стаж: 4 года 11 месяцев

Сообщений: 6042

Откуда: Soviet Union



Награды: Нет

Торрент-статистика

Создавать темы 20-Дек-2015 08:20

[Цитировать]

-Scorpions / World Wide Live (50th Anniversary Deluxe)-- Год издания: 2015
Страна: Germany
Жанр: Hard Rock
Продолжительность: 01:19:05-Лейбл издания: Bmg Rights Management (SPV)
Номер по каталогу: 538159522
Формат: FLAC
Битрейт аудио: lossless
Тип рипа: image+.cue
Наличие сканов в содержимом раздачи: да
-

Трэклист

01. Countdown (00:42)
02. Coming Home (03:18)
03. Blackout (04:05)
04. Bad Boys Running Wild (03:53)
05. Loving You Sunday Morning (04:42)
06. Make It Real (03:50)
07. Big City Nights (04:59)
08. Coast To Coast (05:13)
09. Holiday (03:24)
10. Still Loving You (05:50)
11. Rock You Like A Hurricane (04:16)
12. Can't Live Without You (05:33)
13. Another Piece Of Meat (03:37)
14. Dynamite (07:19)
15. The Zoo (05:54)
16. No One Like You (04:10)
17. Can't Get Enough, Pt. 1 (02:17)
18. Six String Sting (04:16)
19. Can't Get Enough, Pt. 2 (01:56)
-

Лог создания рипа

Exact Audio Copy V1.1 from 23. June 2015
EAC extraction logfile from 13. November 2015, 14:19
SCORPIONS / World Wide Live - Deluxe 50TH Anniversary
Used drive  : HL-DT-STBD-RE  BH10LS30   Adapter: 1  ID: 2
Read mode               : Secure
Utilize accurate stream : Yes
Defeat audio cache      : Yes
Make use of C2 pointers : No
Read offset correction                      : 667
Overread into Lead-In and Lead-Out          : No
Fill up missing offset samples with silence : Yes
Delete leading and trailing silent blocks   : No
Null samples used in CRC calculations       : Yes
Used interface                              : Native Win32 interface for Win NT & 2000
Used output format              : User Defined Encoder
Selected bitrate                : 768 kBit/s
Quality                         : High
Add ID3 tag                     : No
Command line compressor         : C:\Program Files (x86)\Exact Audio Copy\FLAC\FLAC.EXE
Additional command line options : -6 -V %source%
TOC of the extracted CD
     Track |   Start  |  Length  | Start sector | End sector
    ---------------------------------------------------------
        1  |  0:00.00 |  0:41.20 |         0    |     3094
        2  |  0:41.20 |  3:17.06 |      3095    |    17875
        3  |  3:58.26 |  4:04.29 |     17876    |    36204
        4  |  8:02.55 |  3:52.53 |     36205    |    53657
        5  | 11:55.33 |  4:41.39 |     53658    |    74771
        6  | 16:36.72 |  3:49.24 |     74772    |    91970
        7  | 20:26.21 |  4:58.54 |     91971    |   114374
        8  | 25:25.00 |  5:12.62 |    114375    |   137836
        9  | 30:37.62 |  3:23.09 |    137837    |   153070
       10  | 34:00.71 |  5:49.45 |    153071    |   179290
       11  | 39:50.41 |  4:15.18 |    179291    |   198433
       12  | 44:05.59 |  5:32.56 |    198434    |   223389
       13  | 49:38.40 |  3:36.33 |    223390    |   239622
       14  | 53:14.73 |  7:18.17 |    239623    |   272489
       15  | 60:33.15 |  5:53.59 |    272490    |   299023
       16  | 66:26.74 |  4:09.39 |    299024    |   317737
       17  | 70:36.38 |  2:16.58 |    317738    |   327995
       18  | 72:53.21 |  4:15.66 |    327996    |   347186
       19  | 77:09.12 |  1:55.21 |    347187    |   355832
Range status and errors
Selected range
     Filename E:\Musica\EAC\Scorpions\World Wide Live\SCORPIONS - World Wide Live - Deluxe 50TH Anniversary.wav
     Peak level 100.0 %
     Extraction speed 8.2 X
     Range quality 100.0 %
     Test CRC 74CAB081
     Copy CRC 74CAB081
     Copy OK
No errors occurred
AccurateRip summary
Track  1  not present in database
Track  2  not present in database
Track  3  not present in database
Track  4  not present in database
Track  5  not present in database
Track  6  not present in database
Track  7  not present in database
Track  8  not present in database
Track  9  not present in database
Track 10  not present in database
Track 11  not present in database
Track 12  not present in database
Track 13  not present in database
Track 14  not present in database
Track 15  not present in database
Track 16  not present in database
Track 17  not present in database
Track 18  not present in database
Track 19  not present in database
None of the tracks are present in the AccurateRip database
End of status report
---- CUETools DB Plugin V2.1.6
[CTDB TOCID: DArHWEY7tTfoYefQOZIztoFLbvo-] found
Submit result: DArHWEY7tTfoYefQOZIztoFLbvo- has been confirmed
Track | CTDB Status
  1   | (5/5) Accurately ripped
  2   | (5/5) Accurately ripped
  3   | (5/5) Accurately ripped
  4   | (5/5) Accurately ripped
  5   | (5/5) Accurately ripped
  6   | (5/5) Accurately ripped
  7   | (5/5) Accurately ripped
  8   | (5/5) Accurately ripped
  9   | (5/5) Accurately ripped
10   | (5/5) Accurately ripped
11   | (5/5) Accurately ripped
12   | (5/5) Accurately ripped
13   | (5/5) Accurately ripped
14   | (5/5) Accurately ripped
15   | (5/5) Accurately ripped
16   | (5/5) Accurately ripped
17   | (5/5) Accurately ripped
18   | (5/5) Accurately ripped
19   | (5/5) Accurately ripped

Индексная карта (non-compilant .cue)

REM GENRE "Hard Rock"
REM DATE 1986
REM DISCID 2A128813
REM COMMENT "ExactAudioCopy v1.1"
PERFORMER "SCORPIONS"
TITLE "World Wide Live - Deluxe 50TH Anniversary"
FILE "SCORPIONS - World Wide Live - Deluxe 50TH Anniversary.flac" WAVE
  TRACK 01 AUDIO
    TITLE "Countdown"
    PERFORMER "SCORPIONS"
    INDEX 01 00:00:00
  TRACK 02 AUDIO
    TITLE "Coming Home"
    PERFORMER "SCORPIONS"
    INDEX 01 00:41:20
  TRACK 03 AUDIO
    TITLE "Blackout"
    PERFORMER "SCORPIONS"
    INDEX 01 03:58:26
  TRACK 04 AUDIO
    TITLE "Bad Boys Running Wild"
    PERFORMER "SCORPIONS"
    INDEX 01 08:02:55
  TRACK 05 AUDIO
    TITLE "Loving You Sunday Morning"
    PERFORMER "SCORPIONS"
    INDEX 01 11:55:33
  TRACK 06 AUDIO
    TITLE "Make It Real"
    PERFORMER "SCORPIONS"
    INDEX 01 16:36:72
  TRACK 07 AUDIO
    TITLE "Big City Nights"
    PERFORMER "SCORPIONS"
    INDEX 01 20:26:21
  TRACK 08 AUDIO
    TITLE "Coast To Coast"
    PERFORMER "SCORPIONS"
    INDEX 01 25:25:00
  TRACK 09 AUDIO
    TITLE "Holiday"
    PERFORMER "SCORPIONS"
    INDEX 01 30:37:62
  TRACK 10 AUDIO
    TITLE "Still Loving You"
    PERFORMER "SCORPIONS"
    INDEX 01 34:00:71
  TRACK 11 AUDIO
    TITLE "Rock You Like A Hurricane"
    PERFORMER "SCORPIONS"
    INDEX 01 39:50:41
  TRACK 12 AUDIO
    TITLE "Can't Live Without You"
    PERFORMER "SCORPIONS"
    INDEX 01 44:05:59
  TRACK 13 AUDIO
    TITLE "Another Piece Of Meat"
    PERFORMER "SCORPIONS"
    INDEX 01 49:38:40
  TRACK 14 AUDIO
    TITLE "Dynamite"
    PERFORMER "SCORPIONS"
    INDEX 01 53:14:73
  TRACK 15 AUDIO
    TITLE "The Zoo"
    PERFORMER "SCORPIONS"
    INDEX 01 60:33:15
  TRACK 16 AUDIO
    TITLE "No One Like You"
    PERFORMER "SCORPIONS"
    INDEX 01 66:26:74
  TRACK 17 AUDIO
    TITLE "Can't Get Enough, Pt. 1"
    PERFORMER "SCORPIONS"
    INDEX 01 70:36:38
  TRACK 18 AUDIO
    TITLE "Six String Sting"
    PERFORMER "SCORPIONS"
    INDEX 01 72:53:21
  TRACK 19 AUDIO
    TITLE "Can't Get Enough, Pt. 2"
    PERFORMER "SCORPIONS"
    INDEX 01 77:09:12
--Не забываем говорить
[Профиль] [ЛС]
Показать сообщения:    

Текущее время: Сегодня 20:11

Часовой пояс: GMT



Вы не можете начинать темы
Вы не можете отвечать на сообщения
Вы не можете редактировать свои сообщения
Вы не можете удалять свои сообщения
Вы не можете голосовать в опросах
Вы не можете прикреплять файлы к сообщениям
Вы не можете скачивать файлы