(Hard Rock) Scorpions - Tokyo Tapes (50th Anniversary Deluxe Edition 2CD) - 2015 [FLAC, tracks+.cue, lossless]

 
Автор Сообщение

sergej644 ®

Пол:

Стаж: 4 года 11 месяцев

Сообщений: 6035

Откуда: Soviet Union



Награды: Нет

Торрент-статистика

Создавать темы 20-Дек-2015 08:17

[Цитировать]

-Scorpions / Tokyo Tapes (50th Anniversary Deluxe Edition 2CD)-- Год / Год издания: 1978 / 2015
Страна: Germany
Жанр: Hard Rock
Продолжительность: 02:11:13-Лейбл издания: Bmg Rights Management (SPV)
Страна-выпуска диска: Germany
Номер по каталогу: 538159542
Формат: FLAC
Битрейт аудио: lossless
Тип рипа: tracks+.cue
Наличие сканов в содержимом раздачи: да
-

Трэклист

CD 1 / 01:18:58

01.All Night Long (03:44)
02.Pictured Life (03:14)
03.Backstage Queen (03:40)
04.Polar Nights (07:02)
05.In Trance (05:27)
06.Well Burn The Sky (08:07)
07.Suspender Love (03:41)
08.In Search Of The Peace Of Mind (03:03)
09.Fly To The Rainbow (09:39)
10.Hes A Woman She s A Man (05:22)
11.Speedys Coming (03:40)
12.Top Of The Bill (06:48)
13.Hound Dog (01:15)
14.Long Tal Sally (02:50)
15.Steamrock Fever (03:42)
16.Dark Lady (04:38)
17.Kojo No Tsuki (03:15)

CD 2 / 00:52:15

01.Robot Man (05:51)
02.Hell Cat (09:48)
03.Catch Your Train (03:53)
04.Kimi Ga Yo (Japanese National Anthem) (01:30)
05.Polar Nights (07:32)
06.He's A Woman Shes A Man (06:07)
07.Top Of The Bill (10:49)
08.Robot Man (06:50)
-

Лог создания рипа

CD 1

Exact Audio Copy V1.1 from 23. June 2015
EAC extraction logfile from 13. November 2015, 19:18
Scorpions / Tokyo Tapes - 50th Anniversary Deluxe & Remasterd Edition 2015
Used drive  : TSSTcorpCDDVDW SH-224DB   Adapter: 1  ID: 1
Read mode               : Secure
Utilize accurate stream : Yes
Defeat audio cache      : Yes
Make use of C2 pointers : No
Read offset correction                      : 6
Overread into Lead-In and Lead-Out          : No
Fill up missing offset samples with silence : Yes
Delete leading and trailing silent blocks   : No
Null samples used in CRC calculations       : Yes
Used interface                              : Native Win32 interface for Win NT & 2000
Gap handling                                : Appended to previous track
Used output format              : User Defined Encoder
Selected bitrate                : 896 kBit/s
Quality                         : High
Add ID3 tag                     : No
Command line compressor         : C:\Program Files\Exact Audio Copy\Flac\flac.exe
Additional command line options : -8 -V -T "ARTIST=%artist%" -T "TITLE=%title%" -T "ALBUM=%albumtitle%" -T "DATE=%year%" -T "TRACKNUMBER=%tracknr%" -T "TOTALTRACKS=%numtracks%" -T "GENRE=%genre%" -T "ALBUMARTIST=%albumartist%" -T "ALBUM ARTIST=%albumartist%" -T "COMMENT=EAC Secure Mode, Test & Copy, AccurateRip, FLAC -8" %source%
TOC of the extracted CD
     Track |   Start  |  Length  | Start sector | End sector
    ---------------------------------------------------------
        1  |  0:00.00 |  3:43.30 |         0    |    16754
        2  |  3:43.30 |  3:13.20 |     16755    |    31249
        3  |  6:56.50 |  3:39.49 |     31250    |    47723
        4  | 10:36.24 |  7:01.23 |     47724    |    79321
        5  | 17:37.47 |  5:26.57 |     79322    |   103828
        6  | 23:04.29 |  8:06.61 |    103829    |   140339
        7  | 31:11.15 |  3:40.41 |    140340    |   156880
        8  | 34:51.56 |  3:02.03 |    156881    |   170533
        9  | 37:53.59 |  9:38.31 |    170534    |   213914
       10  | 47:32.15 |  5:21.54 |    213915    |   238043
       11  | 52:53.69 |  3:39.13 |    238044    |   254481
       12  | 56:33.07 |  6:47.25 |    254482    |   285031
       13  | 63:20.32 |  1:14.19 |    285032    |   290600
       14  | 64:34.51 |  2:49.56 |    290601    |   303331
       15  | 67:24.32 |  3:41.06 |    303332    |   319912
       16  | 71:05.38 |  4:37.48 |    319913    |   340735
       17  | 75:43.11 |  3:14.01 |    340736    |   355286
Track  1
     Filename D:\Scorpions - Tokyo Tapes (1978) [FLAC] {Remasterd Deluxe Edition Digipack 2CD}\Disc 1of2\01 - All Night Long.wav
     Pre-gap length  0:00:02.00
     Peak level 99.1 %
     Extraction speed 1.6 X
     Track quality 99.9 %
     Test CRC 5C768691
     Copy CRC 5C768691
     Track not present in AccurateRip database
     Copy OK
Track  2
     Filename D:\Scorpions - Tokyo Tapes (1978) [FLAC] {Remasterd Deluxe Edition Digipack 2CD}\Disc 1of2\02 - Pictured Life.wav
     Peak level 99.1 %
     Extraction speed 2.0 X
     Track quality 100.0 %
     Test CRC 7520F336
     Copy CRC 7520F336
     Track not present in AccurateRip database
     Copy OK
Track  3
     Filename D:\Scorpions - Tokyo Tapes (1978) [FLAC] {Remasterd Deluxe Edition Digipack 2CD}\Disc 1of2\03 - Backstage Queen.wav
     Peak level 99.1 %
     Extraction speed 2.2 X
     Track quality 100.0 %
     Test CRC CC58A2E9
     Copy CRC CC58A2E9
     Track not present in AccurateRip database
     Copy OK
Track  4
     Filename D:\Scorpions - Tokyo Tapes (1978) [FLAC] {Remasterd Deluxe Edition Digipack 2CD}\Disc 1of2\04 - Polar Nights.wav
     Peak level 96.7 %
     Extraction speed 2.3 X
     Track quality 99.9 %
     Test CRC 2DEC6E9B
     Copy CRC 2DEC6E9B
     Track not present in AccurateRip database
     Copy OK
Track  5
     Filename D:\Scorpions - Tokyo Tapes (1978) [FLAC] {Remasterd Deluxe Edition Digipack 2CD}\Disc 1of2\05 - In Trance.wav
     Peak level 99.4 %
     Extraction speed 2.7 X
     Track quality 100.0 %
     Test CRC C8A2E379
     Copy CRC C8A2E379
     Track not present in AccurateRip database
     Copy OK
Track  6
     Filename D:\Scorpions - Tokyo Tapes (1978) [FLAC] {Remasterd Deluxe Edition Digipack 2CD}\Disc 1of2\06 - Well Burn The Sky.wav
     Peak level 99.1 %
     Extraction speed 3.0 X
     Track quality 100.0 %
     Test CRC 46883FB8
     Copy CRC 46883FB8
     Track not present in AccurateRip database
     Copy OK
Track  7
     Filename D:\Scorpions - Tokyo Tapes (1978) [FLAC] {Remasterd Deluxe Edition Digipack 2CD}\Disc 1of2\07 - Suspender Love.wav
     Peak level 99.1 %
     Extraction speed 2.9 X
     Track quality 100.0 %
     Test CRC AA51F1F3
     Copy CRC AA51F1F3
     Track not present in AccurateRip database
     Copy OK
Track  8
     Filename D:\Scorpions - Tokyo Tapes (1978) [FLAC] {Remasterd Deluxe Edition Digipack 2CD}\Disc 1of2\08 - In Search Of The Peace Of Mind.wav
     Peak level 99.1 %
     Extraction speed 2.9 X
     Track quality 100.0 %
     Test CRC 1AF61BC4
     Copy CRC 1AF61BC4
     Track not present in AccurateRip database
     Copy OK
Track  9
     Filename D:\Scorpions - Tokyo Tapes (1978) [FLAC] {Remasterd Deluxe Edition Digipack 2CD}\Disc 1of2\09 - Fly To The Rainbow.wav
     Peak level 99.1 %
     Extraction speed 3.5 X
     Track quality 100.0 %
     Test CRC 51FB5632
     Copy CRC 51FB5632
     Track not present in AccurateRip database
     Copy OK
Track 10
     Filename D:\Scorpions - Tokyo Tapes (1978) [FLAC] {Remasterd Deluxe Edition Digipack 2CD}\Disc 1of2\10 - Hes A Woman She s A Man.wav
     Peak level 99.8 %
     Extraction speed 2.9 X
     Track quality 99.9 %
     Test CRC C56589FB
     Copy CRC C56589FB
     Track not present in AccurateRip database
     Copy OK
Track 11
     Filename D:\Scorpions - Tokyo Tapes (1978) [FLAC] {Remasterd Deluxe Edition Digipack 2CD}\Disc 1of2\11 - Speedys Coming.wav
     Peak level 100.0 %
     Extraction speed 3.5 X
     Track quality 100.0 %
     Test CRC C48A0063
     Copy CRC C48A0063
     Track not present in AccurateRip database
     Copy OK
Track 12
     Filename D:\Scorpions - Tokyo Tapes (1978) [FLAC] {Remasterd Deluxe Edition Digipack 2CD}\Disc 1of2\12 - Top Of The Bill.wav
     Peak level 99.1 %
     Extraction speed 3.2 X
     Track quality 99.9 %
     Test CRC 9EE471F6
     Copy CRC 9EE471F6
     Track not present in AccurateRip database
     Copy OK
Track 13
     Filename D:\Scorpions - Tokyo Tapes (1978) [FLAC] {Remasterd Deluxe Edition Digipack 2CD}\Disc 1of2\13 - Hound Dog.wav
     Peak level 99.1 %
     Extraction speed 2.8 X
     Track quality 100.0 %
     Test CRC 8EABD227
     Copy CRC 8EABD227
     Track not present in AccurateRip database
     Copy OK
Track 14
     Filename D:\Scorpions - Tokyo Tapes (1978) [FLAC] {Remasterd Deluxe Edition Digipack 2CD}\Disc 1of2\14 - Long Tal Sally.wav
     Peak level 99.8 %
     Extraction speed 3.6 X
     Track quality 100.0 %
     Test CRC E009D7B8
     Copy CRC E009D7B8
     Track not present in AccurateRip database
     Copy OK
Track 15
     Filename D:\Scorpions - Tokyo Tapes (1978) [FLAC] {Remasterd Deluxe Edition Digipack 2CD}\Disc 1of2\15 - Steamrock Fever.wav
     Peak level 99.1 %
     Extraction speed 2.8 X
     Track quality 99.9 %
     Test CRC 8F43D9D0
     Copy CRC 8F43D9D0
     Track not present in AccurateRip database
     Copy OK
Track 16
     Filename D:\Scorpions - Tokyo Tapes (1978) [FLAC] {Remasterd Deluxe Edition Digipack 2CD}\Disc 1of2\16 - Dark Lady.wav
     Peak level 99.1 %
     Extraction speed 4.0 X
     Track quality 100.0 %
     Test CRC E9C53E8F
     Copy CRC E9C53E8F
     Track not present in AccurateRip database
     Copy OK
Track 17
     Filename D:\Scorpions - Tokyo Tapes (1978) [FLAC] {Remasterd Deluxe Edition Digipack 2CD}\Disc 1of2\17 - Kojo No Tsuki.wav
     Peak level 99.1 %
     Extraction speed 3.8 X
     Track quality 100.0 %
     Test CRC 2AEC4600
     Copy CRC 2AEC4600
     Track not present in AccurateRip database
     Copy OK
None of the tracks are present in the AccurateRip database
No errors occurred
End of status report
---- CUETools DB Plugin V2.1.6
[CTDB TOCID: yNDLhSNTkbuAvX1YoxmjkPrT3EY-] found
Submit result: yNDLhSNTkbuAvX1YoxmjkPrT3EY- has been confirmed
Track | CTDB Status
  1   | (5/5) Accurately ripped
  2   | (5/5) Accurately ripped
  3   | (5/5) Accurately ripped
  4   | (5/5) Accurately ripped
  5   | (5/5) Accurately ripped
  6   | (5/5) Accurately ripped
  7   | (5/5) Accurately ripped
  8   | (5/5) Accurately ripped
  9   | (5/5) Accurately ripped
10   | (5/5) Accurately ripped
11   | (5/5) Accurately ripped
12   | (5/5) Accurately ripped
13   | (5/5) Accurately ripped
14   | (5/5) Accurately ripped
15   | (5/5) Accurately ripped
16   | (5/5) Accurately ripped
17   | (5/5) Accurately ripped

CD 2

Exact Audio Copy V1.1 from 23. June 2015
EAC extraction logfile from 13. November 2015, 20:43
Scorpions / Tokyo Tapes - 50th Anniversary Deluxe & Remasterd Edition 2015 disc 2
Used drive  : TSSTcorpCDDVDW SH-224DB   Adapter: 1  ID: 1
Read mode               : Secure
Utilize accurate stream : Yes
Defeat audio cache      : Yes
Make use of C2 pointers : No
Read offset correction                      : 6
Overread into Lead-In and Lead-Out          : No
Fill up missing offset samples with silence : Yes
Delete leading and trailing silent blocks   : No
Null samples used in CRC calculations       : Yes
Used interface                              : Native Win32 interface for Win NT & 2000
Gap handling                                : Appended to previous track
Used output format              : User Defined Encoder
Selected bitrate                : 896 kBit/s
Quality                         : High
Add ID3 tag                     : No
Command line compressor         : C:\Program Files\Exact Audio Copy\Flac\flac.exe
Additional command line options : -8 -V -T "ARTIST=%artist%" -T "TITLE=%title%" -T "ALBUM=%albumtitle%" -T "DATE=%year%" -T "TRACKNUMBER=%tracknr%" -T "TOTALTRACKS=%numtracks%" -T "GENRE=%genre%" -T "ALBUMARTIST=%albumartist%" -T "ALBUM ARTIST=%albumartist%" -T "COMMENT=EAC Secure Mode, Test & Copy, AccurateRip, FLAC -8" %source%
TOC of the extracted CD
     Track |   Start  |  Length  | Start sector | End sector
    ---------------------------------------------------------
        1  |  0:00.00 |  5:50.14 |         0    |    26263
        2  |  5:50.14 |  9:47.16 |     26264    |    70304
        3  | 15:37.30 |  3:52.37 |     70305    |    87741
        4  | 19:29.67 |  1:29.05 |     87742    |    94421
        5  | 20:58.72 |  7:31.73 |     94422    |   128319
        6  | 28:30.70 |  6:06.16 |    128320    |   155785
        7  | 34:37.11 | 10:48.25 |    155786    |   204410
        8  | 45:25.36 |  6:49.31 |    204411    |   235116
Track  1
     Filename D:\Scorpions - Tokyo Tapes (1978) [FLAC] {Remasterd Deluxe Edition Digipack 2CD}\Disc 2of2\01 - Robot Man.wav
     Pre-gap length  0:00:02.00
     Peak level 99.1 %
     Extraction speed 1.8 X
     Track quality 100.0 %
     Test CRC 5474BD69
     Copy CRC 5474BD69
     Track not present in AccurateRip database
     Copy OK
Track  2
     Filename D:\Scorpions - Tokyo Tapes (1978) [FLAC] {Remasterd Deluxe Edition Digipack 2CD}\Disc 2of2\02 - Hell-Cat - 27 04 1978.wav
     Pre-gap length  0:00:01.00
     Peak level 98.8 %
     Extraction speed 2.3 X
     Track quality 100.0 %
     Test CRC BC815616
     Copy CRC BC815616
     Track not present in AccurateRip database
     Copy OK
Track  3
     Filename D:\Scorpions - Tokyo Tapes (1978) [FLAC] {Remasterd Deluxe Edition Digipack 2CD}\Disc 2of2\03 - Catch Your Train - 27 04 1978.wav
     Pre-gap length  0:00:01.00
     Peak level 98.8 %
     Extraction speed 2.3 X
     Track quality 100.0 %
     Test CRC 64CC7CE2
     Copy CRC 64CC7CE2
     Track not present in AccurateRip database
     Copy OK
Track  4
     Filename D:\Scorpions - Tokyo Tapes (1978) [FLAC] {Remasterd Deluxe Edition Digipack 2CD}\Disc 2of2\04 - Kimi Ga Yo - Japanese National Anthem - 24 04 1978.wav
     Pre-gap length  0:00:01.00
     Peak level 98.8 %
     Extraction speed 2.0 X
     Track quality 100.0 %
     Test CRC EAB2792C
     Copy CRC EAB2792C
     Track not present in AccurateRip database
     Copy OK
Track  5
     Filename D:\Scorpions - Tokyo Tapes (1978) [FLAC] {Remasterd Deluxe Edition Digipack 2CD}\Disc 2of2\05 - Polar Nights - 24 04 1978.wav
     Pre-gap length  0:00:01.00
     Peak level 98.8 %
     Extraction speed 2.7 X
     Track quality 100.0 %
     Test CRC A5CB5FD3
     Copy CRC A5CB5FD3
     Track not present in AccurateRip database
     Copy OK
Track  6
     Filename D:\Scorpions - Tokyo Tapes (1978) [FLAC] {Remasterd Deluxe Edition Digipack 2CD}\Disc 2of2\06 - Hes A Woman Shes A Man - 24 04 1978.wav
     Pre-gap length  0:00:01.00
     Peak level 98.8 %
     Extraction speed 2.9 X
     Track quality 100.0 %
     Test CRC B89AB5F3
     Copy CRC B89AB5F3
     Track not present in AccurateRip database
     Copy OK
Track  7
     Filename D:\Scorpions - Tokyo Tapes (1978) [FLAC] {Remasterd Deluxe Edition Digipack 2CD}\Disc 2of2\07 - Top Of The Bill - 24 04 1978.wav
     Pre-gap length  0:00:01.00
     Peak level 98.8 %
     Extraction speed 3.3 X
     Track quality 100.0 %
     Test CRC 3FF81A12
     Copy CRC 3FF81A12
     Track not present in AccurateRip database
     Copy OK
Track  8
     Filename D:\Scorpions - Tokyo Tapes (1978) [FLAC] {Remasterd Deluxe Edition Digipack 2CD}\Disc 2of2\08 - Robot Man - 27 04 1978.wav
     Pre-gap length  0:00:01.00
     Peak level 98.8 %
     Extraction speed 3.4 X
     Track quality 100.0 %
     Test CRC 99B57590
     Copy CRC 99B57590
     Track not present in AccurateRip database
     Copy OK
None of the tracks are present in the AccurateRip database
No errors occurred
End of status report
---- CUETools DB Plugin V2.1.6
[CTDB TOCID: nl1iugl0Mg8MdQMtfsbdqcBpZQk-] found
Submit result: nl1iugl0Mg8MdQMtfsbdqcBpZQk- has been confirmed
Track | CTDB Status
  1   | (5/5) Accurately ripped
  2   | (5/5) Accurately ripped
  3   | (5/5) Accurately ripped
  4   | (5/5) Accurately ripped
  5   | (5/5) Accurately ripped
  6   | (5/5) Accurately ripped
  7   | (5/5) Accurately ripped
  8   | (5/5) Accurately ripped

Индексная карта (non-compilant .cue)

CD 1

REM GENRE Hardrock
REM DATE 1978
REM DISCID 0B128111
REM COMMENT "ExactAudioCopy v1.1"
PERFORMER "Scorpions"
TITLE "Tokyo Tapes - 50th Anniversary Deluxe & Remasterd Edition 2015"
FILE "01 - All Night Long.wav" WAVE
  TRACK 01 AUDIO
    TITLE "All Night Long"
    PERFORMER "Scorpions"
    INDEX 01 00:00:00
FILE "02 - Pictured Life.wav" WAVE
  TRACK 02 AUDIO
    TITLE "Pictured Life"
    PERFORMER "Scorpions"
    INDEX 01 00:00:00
FILE "03 - Backstage Queen.wav" WAVE
  TRACK 03 AUDIO
    TITLE "Backstage Queen"
    PERFORMER "Scorpions"
    INDEX 01 00:00:00
FILE "04 - Polar Nights.wav" WAVE
  TRACK 04 AUDIO
    TITLE "Polar Nights"
    PERFORMER "Scorpions"
    INDEX 01 00:00:00
FILE "05 - In Trance.wav" WAVE
  TRACK 05 AUDIO
    TITLE "In Trance"
    PERFORMER "Scorpions"
    INDEX 01 00:00:00
FILE "06 - Well Burn The Sky.wav" WAVE
  TRACK 06 AUDIO
    TITLE "Well Burn The Sky"
    PERFORMER "Scorpions"
    INDEX 01 00:00:00
FILE "07 - Suspender Love.wav" WAVE
  TRACK 07 AUDIO
    TITLE "Suspender Love"
    PERFORMER "Scorpions"
    INDEX 01 00:00:00
FILE "08 - In Search Of The Peace Of Mind.wav" WAVE
  TRACK 08 AUDIO
    TITLE "In Search Of The Peace Of Mind"
    PERFORMER "Scorpions"
    INDEX 01 00:00:00
FILE "09 - Fly To The Rainbow.wav" WAVE
  TRACK 09 AUDIO
    TITLE "Fly To The Rainbow"
    PERFORMER "Scorpions"
    INDEX 01 00:00:00
FILE "10 - Hes A Woman She s A Man.wav" WAVE
  TRACK 10 AUDIO
    TITLE "Hes A Woman She s A Man"
    PERFORMER "Scorpions"
    INDEX 01 00:00:00
FILE "11 - Speedys Coming.wav" WAVE
  TRACK 11 AUDIO
    TITLE "Speedys Coming"
    PERFORMER "Scorpions"
    INDEX 01 00:00:00
FILE "12 - Top Of The Bill.wav" WAVE
  TRACK 12 AUDIO
    TITLE "Top Of The Bill"
    PERFORMER "Scorpions"
    INDEX 01 00:00:00
FILE "13 - Hound Dog.wav" WAVE
  TRACK 13 AUDIO
    TITLE "Hound Dog"
    PERFORMER "Scorpions"
    INDEX 01 00:00:00
FILE "14 - Long Tal Sally.wav" WAVE
  TRACK 14 AUDIO
    TITLE "Long Tal Sally"
    PERFORMER "Scorpions"
    INDEX 01 00:00:00
FILE "15 - Steamrock Fever.wav" WAVE
  TRACK 15 AUDIO
    TITLE "Steamrock Fever"
    PERFORMER "Scorpions"
    INDEX 01 00:00:00
FILE "16 - Dark Lady.wav" WAVE
  TRACK 16 AUDIO
    TITLE "Dark Lady"
    PERFORMER "Scorpions"
    INDEX 01 00:00:00
FILE "17 - Kojo No Tsuki.wav" WAVE
  TRACK 17 AUDIO
    TITLE "Kojo No Tsuki"
    PERFORMER "Scorpions"
    INDEX 01 00:00:00

CD 2

REM GENRE Hardrock
REM DATE 1978
REM DISCID 630C3E08
REM COMMENT "ExactAudioCopy v1.1"
PERFORMER "Scorpions"
TITLE "Tokyo Tapes - 50th Anniversary Deluxe & Remasterd Edition 2015 disc 2"
FILE "01 - Robot Man.wav" WAVE
  TRACK 01 AUDIO
    TITLE "Robot Man"
    PERFORMER "Scorpions"
    INDEX 01 00:00:00
  TRACK 02 AUDIO
    TITLE "Hell-Cat - 27 04 1978"
    PERFORMER "Scorpions"
    INDEX 00 05:49:14
FILE "02 - Hell-Cat - 27 04 1978.wav" WAVE
    INDEX 01 00:00:00
  TRACK 03 AUDIO
    TITLE "Catch Your Train - 27 04 1978"
    PERFORMER "Scorpions"
    INDEX 00 09:46:16
FILE "03 - Catch Your Train - 27 04 1978.wav" WAVE
    INDEX 01 00:00:00
  TRACK 04 AUDIO
    TITLE "Kimi Ga Yo - Japanese National Anthem - 24 04 1978"
    PERFORMER "Scorpions"
    INDEX 00 03:51:37
FILE "04 - Kimi Ga Yo - Japanese National Anthem - 24 04 1978.wav" WAVE
    INDEX 01 00:00:00
  TRACK 05 AUDIO
    TITLE "Polar Nights - 24 04 1978"
    PERFORMER "Scorpions"
    INDEX 00 01:28:05
FILE "05 - Polar Nights - 24 04 1978.wav" WAVE
    INDEX 01 00:00:00
  TRACK 06 AUDIO
    TITLE "Hes A Woman Shes A Man - 24 04 1978"
    PERFORMER "Scorpions"
    INDEX 00 07:30:73
FILE "06 - Hes A Woman Shes A Man - 24 04 1978.wav" WAVE
    INDEX 01 00:00:00
  TRACK 07 AUDIO
    TITLE "Top Of The Bill - 24 04 1978"
    PERFORMER "Scorpions"
    INDEX 00 06:05:16
FILE "07 - Top Of The Bill - 24 04 1978.wav" WAVE
    INDEX 01 00:00:00
  TRACK 08 AUDIO
    TITLE "Robot Man - 27 04 1978"
    PERFORMER "Scorpions"
    INDEX 00 10:47:25
FILE "08 - Robot Man - 27 04 1978.wav" WAVE
    INDEX 01 00:00:00

Об альбоме (сборнике)

НОВИНКА! Лимитированное коллекционное ремастированное и дополненное издание альбома "Tokyo Tapes" выпущено к 50-ти летнему юбилею основания немецкой рок-группы Scorpions. Всего в коллекции восемь альбомов группы - шесть студийных и два концертных, выпущенных группой в 1977-1988 гг. "World Wide Live" - концертный альбом немецкой рок-группы "Scorpions", изданный в 1985 году и спродюсированный Дитером Дирксом. Диск получил платиновый статус в США и золотой - в Германии. В чарте The Billboard 200 диск поднялся до 17 места. Принадлежит к числу наиболее успешных концертных альбомов в истории рок-музыки.
--Не забываем говорить
[Профиль] [ЛС]
Показать сообщения:    

Текущее время: Сегодня 20:10

Часовой пояс: GMT



Вы не можете начинать темы
Вы не можете отвечать на сообщения
Вы не можете редактировать свои сообщения
Вы не можете удалять свои сообщения
Вы не можете голосовать в опросах
Вы не можете прикреплять файлы к сообщениям
Вы не можете скачивать файлы