(Hard Rock) Scorpions - Savage Amusement(50th Anniversary Deluxe Edition) - 2015 [FLAC, image+.cue, lossless]

 
Автор Сообщение

sergej644 ®

Пол:

Стаж: 4 года 11 месяцев

Сообщений: 6045

Откуда: Soviet Union



Награды: Нет

Торрент-статистика

Создавать темы 20-Дек-2015 11:35

[Цитировать]

-Scorpions / Savage Amusement(50th Anniversary Deluxe Edition)-- Год / Год издания: 1988 / 2015
Страна: Germany
Жанр: Hard Rock
Продолжительность: 01:00:41-Лейбл издания: Bmg Rights Management (SPV)
Страна-выпуска диска: Germany
Номер по каталогу: 538159432
Формат: FLAC
Битрейт аудио: lossless
Тип рипа: image+.cue
Наличие сканов в содержимом раздачи: да
-

Трэклист

01.Don't Top At The Top (04:04)
02.Rhythm Of Love (03:51)
03.Passion Rules The Game (04:01)
04.Media Overkill (03:35)
05.Walking On The Edge (05:10)
06.We Let It Rock.. You Let It Roll (03:41)
07.Every Minute Every Day (04:24)
08.Love On The Run (03:40)
09.Believe In Love (05:24)
10.Taste Of Love (Demo Song) (04:38)
11.Edge Of Time (Demo Version) (03:43)
12.Fast And Furious (Demo) (03:12)
13.Dancing With The Moonlight (Demo Song Version) (03:10)
14.Living For Tomorrow (Demo Song) (03:39)
15.I Can't Explain (04:37)
-

Лог создания рипа

Exact Audio Copy V1.0 beta 3 from 29. August 2011
Отчёт EAC об извлечении, выполненном 20. ноября 2015, 16:02
Scorpions / Savage Amusement(50th Anniversary Deluxe Edition)
Дисковод: hp      DVD-RAM UJ8B1   Adapter: 0  ID: 0
Режим чтения                 : Достоверность
Использование точного потока : Да
Отключение кэша аудио        : Да
Использование указателей C2  : Нет
Коррекция смещения при чтении                     : 6
Способность читать области Lead-in и Lead-out     : Нет
Заполнение пропущенных сэмплов тишиной            : Да
Удаление блоков с тишиной в начале и конце        : Нет
При вычислениях CRC использовались нулевые сэмплы : Да
Интерфейс                                         : Встроенный Win32-интерфейс для Win NT/2000
Выходной формат          : Пользовательский кодировщик
Выбранный битрейт        : 128 kBit/s
Качество                 : Высокий
Добавление ID3-тега      : Нет
Утилита сжатия           : C:\Program Files (x86)\Exact Audio Copy\Flac\flac.exe
Дополнительные параметры : -V -8 -T "Date=%year%" -T "Genre=%genre%" %source%
TOC извлечённого CD
     Трек |   Старт  | Длительность | Начальный сектор | Конечный сектор
    ---------------------------------------------------------------------
       1  |  0:00.00 |    4:03.28   |           0      |      18252
       2  |  4:03.28 |    3:50.51   |       18253      |      35553
       3  |  7:54.04 |    4:00.02   |       35554      |      53555
       4  | 11:54.06 |    3:34.20   |       53556      |      69625
       5  | 15:28.26 |    5:09.27   |       69626      |      92827
       6  | 20:37.53 |    3:40.43   |       92828      |     109370
       7  | 24:18.21 |    4:23.24   |      109371      |     129119
       8  | 28:41.45 |    3:39.10   |      129120      |     145554
       9  | 32:20.55 |    5:23.46   |      145555      |     169825
      10  | 37:44.26 |    4:37.57   |      169826      |     190657
      11  | 42:22.08 |    3:42.04   |      190658      |     207311
      12  | 46:04.12 |    3:11.16   |      207312      |     221652
      13  | 49:15.28 |    3:09.20   |      221653      |     235847
      14  | 52:24.48 |    3:38.44   |      235848      |     252241
      15  | 56:03.17 |    4:36.61   |      252242      |     273002
Характеристики диапазона извлечения и сообщения об ошибках
Выбранный диапазон
     Имя файла E:\РАЗДАЧИ\Папки\Scorpions - Savage Amusement\Scorpions - Savage Amusement(50th Anniversary Deluxe Edition).wav
     Пиковый уровень 99.3 %
     Скорость извлечения 2.0 X
     Качество диапазона 99.9 %
     CRC теста DCF03B18
     CRC копии DCF03B18
     Копирование... OK
Ошибок не произошло
AccurateRip: сводка
Трек  1  отсутствует в базе данных
Трек  2  отсутствует в базе данных
Трек  3  отсутствует в базе данных
Трек  4  отсутствует в базе данных
Трек  5  отсутствует в базе данных
Трек  6  отсутствует в базе данных
Трек  7  отсутствует в базе данных
Трек  8  отсутствует в базе данных
Трек  9  отсутствует в базе данных
Трек 10  отсутствует в базе данных
Трек 11  отсутствует в базе данных
Трек 12  отсутствует в базе данных
Трек 13  отсутствует в базе данных
Трек 14  отсутствует в базе данных
Трек 15  отсутствует в базе данных
Ни одного трека нет в базе AccurateRip
Конец отчёта

Индексная карта (non-compilant .cue)

REM GENRE "Hard Rock"
REM DATE 2015
REM DISCID D90E380F
REM COMMENT "ExactAudioCopy v1.0b3"
PERFORMER "Scorpions"
TITLE "Savage Amusement(50th Anniversary Deluxe Edition)"
FILE "Scorpions - Savage Amusement(50th Anniversary Deluxe Edition).flac" WAVE
  TRACK 01 AUDIO
    TITLE "Don't Top At The Top"
    PERFORMER "Scorpions"
    INDEX 01 00:00:00
  TRACK 02 AUDIO
    TITLE "Rhythm Of Love"
    PERFORMER "Scorpions"
    INDEX 00 04:02:65
    INDEX 01 04:03:28
  TRACK 03 AUDIO
    TITLE "Passion Rules The Game"
    PERFORMER "Scorpions"
    INDEX 00 07:53:41
    INDEX 01 07:54:04
  TRACK 04 AUDIO
    TITLE "Media Overkill"
    PERFORMER "Scorpions"
    INDEX 00 11:53:43
    INDEX 01 11:54:06
  TRACK 05 AUDIO
    TITLE "Walking On The Edge"
    PERFORMER "Scorpions"
    INDEX 00 15:27:63
    INDEX 01 15:28:26
  TRACK 06 AUDIO
    TITLE "We Let It Rock.. You Let It Roll"
    PERFORMER "Scorpions"
    INDEX 00 20:37:15
    INDEX 01 20:37:53
  TRACK 07 AUDIO
    TITLE "Every Minute Every Day"
    PERFORMER "Scorpions"
    INDEX 00 24:17:58
    INDEX 01 24:18:21
  TRACK 08 AUDIO
    TITLE "Love On The Run"
    PERFORMER "Scorpions"
    INDEX 00 28:41:07
    INDEX 01 28:41:45
  TRACK 09 AUDIO
    TITLE "Believe In Love"
    PERFORMER "Scorpions"
    INDEX 00 32:20:17
    INDEX 01 32:20:55
  TRACK 10 AUDIO
    TITLE "Taste Of Love (Demo Song)"
    PERFORMER "Scorpions"
    INDEX 00 37:43:63
    INDEX 01 37:44:26
  TRACK 11 AUDIO
    TITLE "Edge Of Time (Demo Version)"
    PERFORMER "Scorpions"
    INDEX 00 42:21:45
    INDEX 01 42:22:08
  TRACK 12 AUDIO
    TITLE "Fast And Furious (Demo)"
    PERFORMER "Scorpions"
    INDEX 00 46:03:49
    INDEX 01 46:04:12
  TRACK 13 AUDIO
    TITLE "Dancing With The Moonlight (Demo Song Version)"
    PERFORMER "Scorpions"
    INDEX 00 49:14:65
    INDEX 01 49:15:28
  TRACK 14 AUDIO
    TITLE "Living For Tomorrow (Demo Song)"
    PERFORMER "Scorpions"
    INDEX 00 52:24:10
    INDEX 01 52:24:48
  TRACK 15 AUDIO
    TITLE "I Can't Explain"
    PERFORMER "Scorpions"
    INDEX 00 56:02:54
    INDEX 01 56:03:17
--Не забываем говорить
[Профиль] [ЛС]
Показать сообщения:    

Текущее время: Сегодня 09:58

Часовой пояс: GMT



Вы не можете начинать темы
Вы не можете отвечать на сообщения
Вы не можете редактировать свои сообщения
Вы не можете удалять свои сообщения
Вы не можете голосовать в опросах
Вы не можете прикреплять файлы к сообщениям
Вы не можете скачивать файлы