(Rock,Classic Rock) Scorpions - MTV Unplugged Live In Athens (3CD) - 2014, FLAC (image + .cue), lossless

 
Автор Сообщение

sergej644 ®

Пол:

Стаж: 4 года 11 месяцев

Сообщений: 6044

Откуда: Soviet Union



Награды: Нет

Торрент-статистика

Создавать темы 11-Июн-2014 16:59

[Цитировать]

-Scorpions - MTV Unplugged Live In Athens (3CD)
Страна: Germany
Жанр: Rock,Classic Rock
Год выпуска: 2014
Издатель (лейбл): © + ® Sony Music Entertainment GmbH, RCA Deutschland
Номер по каталогу: 888430 05427 2
Формат: FLAC (image + .cue)
Битрейт аудио: lossless
Продолжительность: 02:27:50
- -

Scorpions - MTV Unplugged Live In Athens CD 1 (00:54:11)

01. Sting In The Tail (04:37)
02. Can't Live Without You (03:53)
03. Pictured Life (03:57)
04. Speedy's Coming (04:17)
05. Born To Touch Your Feelings (06:15)
06. The Best Is Yet To Come (05:03)
07. Dancing With The Moonlight (03:59)
08. In Trance (with CATHE) (04:34)
09. When You Came Into My Life (05:05)
10. Delicate Dance (Matthias Solo) (05:10)
11. Love Is The Answer (Rudolf Solo) (04:30)
12. Follow Your Heart (Klaus Solo) (02:47)

лог создания рипа

Exact Audio Copy V1.0 beta 3 from 29. August 2011
EAC extraction logfile from 24. May 2014, 1:53
Scorpions / MTV Unplugged: Live In Athens CD 1
Used drive  : ASUS    DRW-24B3LT   Adapter: 2  ID: 0
Read mode               : Secure
Utilize accurate stream : Yes
Defeat audio cache      : Yes
Make use of C2 pointers : No
Read offset correction                      : 6
Overread into Lead-In and Lead-Out          : No
Fill up missing offset samples with silence : Yes
Delete leading and trailing silent blocks   : No
Null samples used in CRC calculations       : Yes
Used interface                              : Native Win32 interface for Win NT & 2000
Used output format : Internal WAV Routines
Sample format      : 44.100 Hz; 16 Bit; Stereo
TOC of the extracted CD
     Track |   Start  |  Length  | Start sector | End sector
    ---------------------------------------------------------
        1  |  0:00.00 |  4:37.73 |         0    |    20847
        2  |  4:37.73 |  3:53.50 |     20848    |    38372
        3  |  8:31.48 |  3:57.06 |     38373    |    56153
        4  | 12:28.54 |  4:17.16 |     56154    |    75444
        5  | 16:45.70 |  6:15.23 |     75445    |   103592
        6  | 23:01.18 |  5:03.31 |    103593    |   126348
        7  | 28:04.49 |  3:59.02 |    126349    |   144275
        8  | 32:03.51 |  4:34.29 |    144276    |   164854
        9  | 36:38.05 |  5:05.01 |    164855    |   187730
       10  | 41:43.06 |  5:10.39 |    187731    |   211019
       11  | 46:53.45 |  4:30.59 |    211020    |   231328
       12  | 51:24.29 |  2:47.12 |    231329    |   243865
Range status and errors
Selected range
     Filename D:\Osieron\Desktop\Test&Copy\Scorpions - MTV Unplugged- Live In Athens CD 1.wav
     Peak level 99.8 %
     Extraction speed 5.9 X
     Range quality 100.0 %
     Test CRC B7163350
     Copy CRC B7163350
     Copy OK
No errors occurred
AccurateRip summary
Track  1  cannot be verified as accurate (confidence 41)  [81D5F9AA], AccurateRip returned [10786117]  (AR v2)
Track  2  cannot be verified as accurate (confidence 40)  [9F82BEE9], AccurateRip returned [FEFD696E]  (AR v2)
Track  3  cannot be verified as accurate (confidence 40)  [0A35D8DA], AccurateRip returned [DE7B0CF5]  (AR v2)
Track  4  cannot be verified as accurate (confidence 40)  [FCD33692], AccurateRip returned [9A1FC228]  (AR v2)
Track  5  cannot be verified as accurate (confidence 40)  [3011E562], AccurateRip returned [95847FB5]  (AR v2)
Track  6  cannot be verified as accurate (confidence 40)  [B3E2A442], AccurateRip returned [10BA9CD8]  (AR v2)
Track  7  cannot be verified as accurate (confidence 39)  [20FDB9D4], AccurateRip returned [A3ADBA14]  (AR v2)
Track  8  cannot be verified as accurate (confidence 40)  [F54E780F], AccurateRip returned [25D81A14]  (AR v2)
Track  9  cannot be verified as accurate (confidence 40)  [85CB04A9], AccurateRip returned [380F250D]  (AR v2)
Track 10  cannot be verified as accurate (confidence 40)  [C4D273C6], AccurateRip returned [ABD54A2A]  (AR v2)
Track 11  cannot be verified as accurate (confidence 40)  [150C6DD8], AccurateRip returned [B54E9323]  (AR v2)
Track 12  cannot be verified as accurate (confidence 40)  [FAB006C0], AccurateRip returned [8201858A]  (AR v2)
No tracks could be verified as accurate
You may have a different pressing from the one(s) in the database
End of status report

содержание индексной карты *cue

REM ACCURATERIPID 001878ff-00e59a81-970cb30c
REM GENRE "Rock"
REM DATE 2014
REM DISCID 970CB30C
REM COMMENT "ExactAudioCopy v1.0b3"
PERFORMER "Scorpions"
TITLE "MTV Unplugged: Live In Athens CD 1"
FILE "Scorpions - MTV Unplugged_ Live In Athens CD 1.flac" WAVE
  TRACK 01 AUDIO
    TITLE "Sting In The Tail"
    PERFORMER "Scorpions"
    INDEX 01 00:00:00
  TRACK 02 AUDIO
    TITLE "Can't Live Without You"
    PERFORMER "Scorpions"
    INDEX 01 04:37:73
  TRACK 03 AUDIO
    TITLE "Pictured Life"
    PERFORMER "Scorpions"
    INDEX 01 08:31:48
  TRACK 04 AUDIO
    TITLE "Speedy's Coming"
    PERFORMER "Scorpions"
    INDEX 01 12:28:54
  TRACK 05 AUDIO
    TITLE "Born To Touch Your Feelings"
    PERFORMER "Scorpions"
    INDEX 01 16:45:70
  TRACK 06 AUDIO
    TITLE "The Best Is Yet To Come"
    PERFORMER "Scorpions"
    INDEX 01 23:01:18
  TRACK 07 AUDIO
    TITLE "Dancing With The Moonlight"
    PERFORMER "Scorpions"
    INDEX 01 28:04:49
  TRACK 08 AUDIO
    TITLE "In Trance (with CATHE)"
    PERFORMER "Scorpions"
    INDEX 01 32:03:51
  TRACK 09 AUDIO
    TITLE "When You Came Into My Life"
    PERFORMER "Scorpions"
    INDEX 01 36:38:05
  TRACK 10 AUDIO
    TITLE "Delicate Dance (Matthias Solo)"
    PERFORMER "Scorpions"
    INDEX 01 41:43:06
  TRACK 11 AUDIO
    TITLE "Love Is The Answer (Rudolf Solo)"
    PERFORMER "Scorpions"
    INDEX 01 46:53:45
  TRACK 12 AUDIO
    TITLE "Follow Your Heart (Klaus Solo)"
    PERFORMER "Scorpions"
    INDEX 01 51:24:29

Scorpions - MTV Unplugged Live In Athens CD 2 (00:55:04)

01. Send Me An Angel (03:56)
02. Where The River Flows (03:58)
03. Passion Rules The Game (05:46)
04. Rock You Like A Hurrican (with Johannes Strate) (04:58)
05. Hit Between The Eyes (04:45)
06. Rock'n'Roll Band (04:32)
07. Blackout (04:57)
08. Still Loving You (03:43)
09. Big City Nights (04:31)
10. Wind Of Change (with Morten Harket) (05:31)
11. No One Like You (04:39)
12. Where The Rivers Flows (feat. Ina Muller) (03:45)

лог создания рипа

Exact Audio Copy V1.0 beta 3 from 29. August 2011
EAC extraction logfile from 24. May 2014, 2:12
Scorpions / MTV Unplugged: Live In Athens CD 2
Used drive  : ASUS    DRW-24B3LT   Adapter: 2  ID: 0
Read mode               : Secure
Utilize accurate stream : Yes
Defeat audio cache      : Yes
Make use of C2 pointers : No
Read offset correction                      : 6
Overread into Lead-In and Lead-Out          : No
Fill up missing offset samples with silence : Yes
Delete leading and trailing silent blocks   : No
Null samples used in CRC calculations       : Yes
Used interface                              : Native Win32 interface for Win NT & 2000
Used output format : Internal WAV Routines
Sample format      : 44.100 Hz; 16 Bit; Stereo
TOC of the extracted CD
     Track |   Start  |  Length  | Start sector | End sector
    ---------------------------------------------------------
        1  |  0:00.00 |  3:56.28 |         0    |    17727
        2  |  3:56.28 |  3:58.39 |     17728    |    35616
        3  |  7:54.67 |  5:46.09 |     35617    |    61575
        4  | 13:41.01 |  4:58.49 |     61576    |    83974
        5  | 18:39.50 |  4:45.21 |     83975    |   105370
        6  | 23:24.71 |  4:32.17 |    105371    |   125787
        7  | 27:57.13 |  4:57.48 |    125788    |   148110
        8  | 32:54.61 |  3:43.10 |    148111    |   164845
        9  | 36:37.71 |  4:31.19 |    164846    |   185189
       10  | 41:09.15 |  5:31.22 |    185190    |   210036
       11  | 46:40.37 |  4:39.25 |    210037    |   230986
       12  | 51:19.62 |  3:45.13 |    230987    |   247874
Range status and errors
Selected range
     Filename D:\Osieron\Desktop\Test&Copy\Scorpions - MTV Unplugged- Live In Athens CD 2.wav
     Peak level 99.8 %
     Extraction speed 5.9 X
     Range quality 100.0 %
     Test CRC 18A06200
     Copy CRC 18A06200
     Copy OK
No errors occurred
AccurateRip summary
Track  1  cannot be verified as accurate (confidence 4)  [096C47B2], AccurateRip returned [9D83897C]  (AR v2)
Track  2  cannot be verified as accurate (confidence 4)  [BD08726D], AccurateRip returned [6E031010]  (AR v2)
Track  3  cannot be verified as accurate (confidence 4)  [A9F0D338], AccurateRip returned [5A1EBBB9]  (AR v2)
Track  4  cannot be verified as accurate (confidence 4)  [1E4AE859], AccurateRip returned [594D6C59]  (AR v2)
Track  5  cannot be verified as accurate (confidence 4)  [48B37DD7], AccurateRip returned [DDDC4E40]  (AR v2)
Track  6  cannot be verified as accurate (confidence 4)  [8B9B3839], AccurateRip returned [C3FE17ED]  (AR v2)
Track  7  cannot be verified as accurate (confidence 4)  [C1D18352], AccurateRip returned [7E2FFC1F]  (AR v2)
Track  8  cannot be verified as accurate (confidence 4)  [B3AE367F], AccurateRip returned [0430F1CC]  (AR v2)
Track  9  cannot be verified as accurate (confidence 4)  [A2C030B8], AccurateRip returned [37E12DAE]  (AR v2)
Track 10  cannot be verified as accurate (confidence 4)  [7EE608D8], AccurateRip returned [FCF1BBBF]  (AR v2)
Track 11  cannot be verified as accurate (confidence 4)  [7DBFD33E], AccurateRip returned [FF8EC3E4]  (AR v2)
Track 12  cannot be verified as accurate (confidence 4)  [2C63FE3C], AccurateRip returned [F398192D]  (AR v2)
No tracks could be verified as accurate
You may have a different pressing from the one(s) in the database
End of status report

содержание индексной карты *cue

REM ACCURATERIPID 0018accd-00e71d11-a60ce90c
REM GENRE "Rock"
REM DATE 2014
REM DISCID A60CE90C
REM COMMENT "ExactAudioCopy v1.0b3"
PERFORMER "Scorpions"
TITLE "MTV Unplugged: Live In Athens CD 2"
FILE "Scorpions - MTV Unplugged_ Live In Athens CD 2.flac" WAVE
  TRACK 01 AUDIO
    TITLE "Send Me An Angel"
    PERFORMER "Scorpions"
    INDEX 01 00:00:00
  TRACK 02 AUDIO
    TITLE "Where The River Flows"
    PERFORMER "Scorpions"
    INDEX 01 03:56:28
  TRACK 03 AUDIO
    TITLE "Passion Rules The Game"
    PERFORMER "Scorpions"
    INDEX 01 07:54:67
  TRACK 04 AUDIO
    TITLE "Rock You Like A Hurrican (with Johannes Strate)"
    PERFORMER "Scorpions"
    INDEX 01 13:41:01
  TRACK 05 AUDIO
    TITLE "Hit Between The Eyes"
    PERFORMER "Scorpions"
    INDEX 01 18:39:50
  TRACK 06 AUDIO
    TITLE "Rock'n'Roll Band"
    PERFORMER "Scorpions"
    INDEX 01 23:24:71
  TRACK 07 AUDIO
    TITLE "Blackout"
    PERFORMER "Scorpions"
    INDEX 01 27:57:13
  TRACK 08 AUDIO
    TITLE "Still Loving You"
    PERFORMER "Scorpions"
    INDEX 01 32:54:61
  TRACK 09 AUDIO
    TITLE "Big City Nights"
    PERFORMER "Scorpions"
    INDEX 01 36:37:71
  TRACK 10 AUDIO
    TITLE "Wind Of Change (with Morten Harket)"
    PERFORMER "Scorpions"
    INDEX 01 41:09:15
  TRACK 11 AUDIO
    TITLE "No One Like You"
    PERFORMER "Scorpions"
    INDEX 01 46:40:37
  TRACK 12 AUDIO
    TITLE "Where The Rivers Flows (feat. Ina Muller)"
    PERFORMER "Scorpions"
    INDEX 01 51:19:62

Scorpions - MTV Unplugged Live In Athens CD 3 (00:38:33)

01. Scorpions - Dancing with the Moonlight (Studio Edit) (03:28)
02. Scorpions with Johannes Strate - Rock You Like a Hurricane (with Johannes Strate) (Studio Edit) (03:57)
03. Scorpions (feat. Ina Muller) - Where the River Flows (feat. Ina Muller) (Studio Edit) (03:55)
04. Scorpions (with Cathe) - In Trance (with Cathe) (Studio Edit) (03:50)
05. Scorpions - Born to Touch Your Feelings (Studio Edit) (04:03)
06. Scorpions - Passion Rules the Game (Studio Edit) (04:02)
07. Scorpions - When You Came into My Life (Studio Edit) (03:31)
08. Scorpions - Rock You Like a Hurricane (Studio Edit) (03:57)
09. Scorpions - Where the River Flows (Studio Edit) (03:56)
10. Scorpions - In Trance (Studio Edit) (03:50)

лог создания рипа

Exact Audio Copy V1.0 beta 3 from 29. August 2011
EAC extraction logfile from 24. May 2014, 2:29
Scorpions / MTV Unplugged: Live In Athens CD 3
Used drive  : ASUS    DRW-24B3LT   Adapter: 2  ID: 0
Read mode               : Secure
Utilize accurate stream : Yes
Defeat audio cache      : Yes
Make use of C2 pointers : No
Read offset correction                      : 6
Overread into Lead-In and Lead-Out          : No
Fill up missing offset samples with silence : Yes
Delete leading and trailing silent blocks   : No
Null samples used in CRC calculations       : Yes
Used interface                              : Native Win32 interface for Win NT & 2000
Used output format : Internal WAV Routines
Sample format      : 44.100 Hz; 16 Bit; Stereo
TOC of the extracted CD
     Track |   Start  |  Length  | Start sector | End sector
    ---------------------------------------------------------
        1  |  0:00.00 |  3:28.31 |         0    |    15630
        2  |  3:28.31 |  3:57.29 |     15631    |    33434
        3  |  7:25.60 |  3:55.52 |     33435    |    51111
        4  | 11:21.37 |  3:50.16 |     51112    |    68377
        5  | 15:11.53 |  4:03.67 |     68378    |    86669
        6  | 19:15.45 |  4:02.18 |     86670    |   104837
        7  | 23:17.63 |  3:31.43 |    104838    |   120705
        8  | 26:49.31 |  3:57.69 |    120706    |   138549
        9  | 30:47.25 |  3:56.16 |    138550    |   156265
       10  | 34:43.41 |  3:50.01 |    156266    |   173516
Range status and errors
Selected range
     Filename D:\Osieron\Desktop\Test&Copy\Scorpions - MTV Unplugged- Live In Athens CD 3.wav
     Peak level 99.8 %
     Extraction speed 5.4 X
     Range quality 100.0 %
     Test CRC 8AEB5945
     Copy CRC 8AEB5945
     Copy OK
No errors occurred
AccurateRip summary
Track  1  accurately ripped (confidence 1)  [6EA30B9C]  (AR v2)
Track  2  accurately ripped (confidence 1)  [F0BD57A4]  (AR v2)
Track  3  accurately ripped (confidence 1)  [C67735E8]  (AR v2)
Track  4  accurately ripped (confidence 1)  [FC5E4734]  (AR v2)
Track  5  accurately ripped (confidence 1)  [1C9F59E6]  (AR v2)
Track  6  accurately ripped (confidence 1)  [FF06A270]  (AR v2)
Track  7  accurately ripped (confidence 1)  [E278F5D9]  (AR v2)
Track  8  accurately ripped (confidence 1)  [1BB4AD78]  (AR v2)
Track  9  accurately ripped (confidence 1)  [37B34F71]  (AR v2)
Track 10  accurately ripped (confidence 1)  [A3E41501]  (AR v2)
All tracks accurately ripped
End of status report

содержание индексной карты *cue

REM ACCURATERIPID 000e7b6f-007434f9-8409090a
REM GENRE "Rock"
REM DATE 2014
REM DISCID 8409090A
REM COMMENT "ExactAudioCopy v1.0b3"
PERFORMER "Scorpions"
TITLE "MTV Unplugged: Live In Athens CD 3"
FILE "Scorpions - MTV Unplugged_ Live In Athens CD 3.flac" WAVE
  TRACK 01 AUDIO
    TITLE "Dancing with the Moonlight (Studio Edit)"
    PERFORMER "Scorpions"
    INDEX 01 00:00:00
  TRACK 02 AUDIO
    TITLE "Rock You Like a Hurricane (with Johannes Strate) (Studio Edit)"
    PERFORMER "Scorpions with Johannes Strate"
    INDEX 00 03:26:23
    INDEX 01 03:28:31
  TRACK 03 AUDIO
    TITLE "Where the River Flows (feat. Ina Muller) (Studio Edit)"
    PERFORMER "Scorpions (feat. Ina Muller)"
    INDEX 00 07:23:29
    INDEX 01 07:25:60
  TRACK 04 AUDIO
    TITLE "In Trance (with Cathe) (Studio Edit)"
    PERFORMER "Scorpions  (with Cathe)"
    INDEX 00 11:19:14
    INDEX 01 11:21:37
  TRACK 05 AUDIO
    TITLE "Born to Touch Your Feelings (Studio Edit)"
    PERFORMER "Scorpions"
    INDEX 00 15:10:29
    INDEX 01 15:11:53
  TRACK 06 AUDIO
    TITLE "Passion Rules the Game (Studio Edit)"
    PERFORMER "Scorpions"
    INDEX 00 19:12:58
    INDEX 01 19:15:45
  TRACK 07 AUDIO
    TITLE "When You Came into My Life (Studio Edit)"
    PERFORMER "Scorpions"
    INDEX 00 23:15:32
    INDEX 01 23:17:63
  TRACK 08 AUDIO
    TITLE "Rock You Like a Hurricane (Studio Edit)"
    PERFORMER "Scorpions"
    INDEX 00 26:48:45
    INDEX 01 26:49:31
  TRACK 09 AUDIO
    TITLE "Where the River Flows (Studio Edit)"
    PERFORMER "Scorpions"
    INDEX 00 30:45:42
    INDEX 01 30:47:25
  TRACK 10 AUDIO
    TITLE "In Trance (Studio Edit)"
    PERFORMER "Scorpions"
    INDEX 00 34:41:37
    INDEX 01 34:43:41
[Профиль] [ЛС]
Показать сообщения:    

Текущее время: Сегодня 12:10

Часовой пояс: GMT



Вы не можете начинать темы
Вы не можете отвечать на сообщения
Вы не можете редактировать свои сообщения
Вы не можете удалять свои сообщения
Вы не можете голосовать в опросах
Вы не можете прикреплять файлы к сообщениям
Вы не можете скачивать файлы