(Hard Rock) Scorpions - Love At First Sting (50th Anniversary Deluxe Edition, 2CD) - 2015 [FLAC, image+.cue, lossless]

 
Автор Сообщение

sergej644 ®

Пол:

Стаж: 4 года 11 месяцев

Сообщений: 6045

Откуда: Soviet Union



Награды: Нет

Торрент-статистика

Создавать темы 20-Дек-2015 11:01

[Цитировать]

-Scorpions / Love At First Sting (50th Anniversary Deluxe Edition, 2CD)-- Год / Год издания: 1984 / 2015
Страна: Germany
Жанр: Hard Rock
Продолжительность: 01:54:37-Лейбл издания: Bmg Rights Management (SPV)
Страна-выпуска диска: Germany
Номер по каталогу: 538159342
Формат: FLAC
Битрейт аудио: lossless
Тип рипа: image+.cue
Наличие сканов в содержимом раздачи: да
-

Трэклист

CD 1 / 01:01:29

01.Bad Boys Running Wild (03:57)
02.Rock You Like A Hurricane (04:14)
03.I'm Leaving You (04:17)
04.Coming Home (05:00)
05.The Same Thrill (03:35)
06.Big City Nights (04:10)
07.As Soon As The Good Times Roll (05:05)
08.Crossfire (04:33)
09.Still Loving You (06:29)
10.Coming Home (Demo Version) (03:23)
11.Living At Night (Demo Song) (04:17)
12.First Sting Jam (Demo) (01:28)
13.Anytime (You Want It) (Demo Song) (05:19)
14.Still Loving You (Demo Version) (05:48)

CD 2 (Bonus CD. Live At The Madison Square Garden)/ 00:53:09

01.Countdown (01:59)
02.Coming Home (03:12)
03.Blackout (03:49)
04.Bad Boys Running Wild (04:12)
05.Loving You Sunday Morning (04:45)
06.Big City Nights (05:15)
07.Coast To Coast (04:59)
08.Still Loving You (05:53)
09.Rock You Like A Hurricane (04:21)
10.The Zoo (08:06)
11.Dynamite (06:42)
-

Лог создания рипа

CD 1

Exact Audio Copy V1.1 from 23. June 2015
EAC extraction logfile from 26. November 2015, 12:42
SCORPIONS / Love At First Sting - Deluxe 50TH Anniversary - CD 1
Used drive  : HL-DT-STBD-RE  BH10LS30   Adapter: 1  ID: 2
Read mode               : Secure
Utilize accurate stream : Yes
Defeat audio cache      : Yes
Make use of C2 pointers : No
Read offset correction                      : 667
Overread into Lead-In and Lead-Out          : No
Fill up missing offset samples with silence : Yes
Delete leading and trailing silent blocks   : No
Null samples used in CRC calculations       : Yes
Used interface                              : Native Win32 interface for Win NT & 2000
Used output format              : User Defined Encoder
Selected bitrate                : 768 kBit/s
Quality                         : High
Add ID3 tag                     : No
Command line compressor         : C:\Program Files (x86)\Exact Audio Copy\FLAC\FLAC.EXE
Additional command line options : -6 -V %source%
TOC of the extracted CD
     Track |   Start  |  Length  | Start sector | End sector
    ---------------------------------------------------------
        1  |  0:00.00 |  3:56.39 |         0    |    17738
        2  |  3:56.39 |  4:13.50 |     17739    |    36763
        3  |  8:10.14 |  4:16.54 |     36764    |    56017
        4  | 12:26.68 |  4:59.64 |     56018    |    78506
        5  | 17:26.57 |  3:34.15 |     78507    |    94571
        6  | 21:00.72 |  4:09.11 |     94572    |   113257
        7  | 25:10.08 |  5:04.07 |    113258    |   136064
        8  | 30:14.15 |  4:32.27 |    136065    |   156491
        9  | 34:46.42 |  6:28.46 |    156492    |   185637
       10  | 41:15.13 |  3:22.73 |    185638    |   200860
       11  | 44:38.11 |  4:16.15 |    200861    |   220075
       12  | 48:54.26 |  1:27.65 |    220076    |   226665
       13  | 50:22.16 |  5:18.58 |    226666    |   250573
       14  | 55:40.74 |  5:47.46 |    250574    |   276644
Range status and errors
Selected range
     Filename E:\Musica\EAC\Scorpions\Love At First Sting\SCORPIONS - Love At First Sting - Deluxe 50TH Anniversary - CD 1.wav
     Peak level 99.3 %
     Extraction speed 8.1 X
     Range quality 100.0 %
     Test CRC D8021AF9
     Copy CRC D8021AF9
     Copy OK
No errors occurred
AccurateRip summary
Track  1  not present in database
Track  2  not present in database
Track  3  not present in database
Track  4  not present in database
Track  5  not present in database
Track  6  not present in database
Track  7  not present in database
Track  8  not present in database
Track  9  not present in database
Track 10  not present in database
Track 11  not present in database
Track 12  not present in database
Track 13  not present in database
Track 14  not present in database
None of the tracks are present in the AccurateRip database
End of status report
---- CUETools DB Plugin V2.1.6
[CTDB TOCID: yTRGdjqSmxgwWFh5g5I2NOm4eKE-] found
Submit result: yTRGdjqSmxgwWFh5g5I2NOm4eKE- has been confirmed
Track | CTDB Status
  1   | (6/6) Accurately ripped
  2   | (6/6) Accurately ripped
  3   | (6/6) Accurately ripped
  4   | (6/6) Accurately ripped
  5   | (6/6) Accurately ripped
  6   | (6/6) Accurately ripped
  7   | (6/6) Accurately ripped
  8   | (6/6) Accurately ripped
  9   | (6/6) Accurately ripped
10   | (6/6) Accurately ripped
11   | (6/6) Accurately ripped
12   | (6/6) Accurately ripped
13   | (6/6) Accurately ripped
14   | (6/6) Accurately ripped

CD 2

Exact Audio Copy V1.1 from 23. June 2015
EAC extraction logfile from 26. November 2015, 12:07
SCORPIONS / Love At First Sting - Deluxe 50TH Anniversary - Bonus CD. Live At The Madison Square Garden
Used drive  : HL-DT-STBD-RE  BH10LS30   Adapter: 1  ID: 2
Read mode               : Secure
Utilize accurate stream : Yes
Defeat audio cache      : Yes
Make use of C2 pointers : No
Read offset correction                      : 667
Overread into Lead-In and Lead-Out          : No
Fill up missing offset samples with silence : Yes
Delete leading and trailing silent blocks   : No
Null samples used in CRC calculations       : Yes
Used interface                              : Native Win32 interface for Win NT & 2000
Used output format              : User Defined Encoder
Selected bitrate                : 768 kBit/s
Quality                         : High
Add ID3 tag                     : No
Command line compressor         : C:\Program Files (x86)\Exact Audio Copy\FLAC\FLAC.EXE
Additional command line options : -6 -V %source%
TOC of the extracted CD
     Track |   Start  |  Length  | Start sector | End sector
    ---------------------------------------------------------
        1  |  0:00.00 |  1:58.67 |         0    |     8916
        2  |  1:58.67 |  3:11.34 |      8917    |    23275
        3  |  5:10.26 |  3:48.37 |     23276    |    40412
        4  |  8:58.63 |  4:11.62 |     40413    |    59299
        5  | 13:10.50 |  4:45.00 |     59300    |    80674
        6  | 17:55.50 |  5:14.08 |     80675    |   104232
        7  | 23:09.58 |  4:58.22 |    104233    |   126604
        8  | 28:08.05 |  5:52.28 |    126605    |   153032
        9  | 34:00.33 |  4:20.52 |    153033    |   172584
       10  | 38:21.10 |  8:05.67 |    172585    |   209026
       11  | 46:27.02 |  6:41.07 |    209027    |   239108
Range status and errors
Selected range
     Filename E:\Musica\EAC\Scorpions\Love At First Sting\SCORPIONS - Love At First Sting - Deluxe 50TH Anniversary - Bonus CD. Live At The Madison Square Garden.wav
     Peak level 98.8 %
     Extraction speed 7.8 X
     Range quality 100.0 %
     Test CRC 865F4141
     Copy CRC 865F4141
     Copy OK
No errors occurred
AccurateRip summary
Track  1  not present in database
Track  2  not present in database
Track  3  not present in database
Track  4  not present in database
Track  5  not present in database
Track  6  not present in database
Track  7  not present in database
Track  8  not present in database
Track  9  not present in database
Track 10  not present in database
Track 11  not present in database
None of the tracks are present in the AccurateRip database
End of status report
---- CUETools DB Plugin V2.1.6
[CTDB TOCID: 1BJLkAtDqRVv6rM8YIz.byrTv4Y-] found
Submit result: 1BJLkAtDqRVv6rM8YIz.byrTv4Y- has been confirmed
Track | CTDB Status
  1   | (7/7) Accurately ripped
  2   | (7/7) Accurately ripped
  3   | (7/7) Accurately ripped
  4   | (7/7) Accurately ripped
  5   | (7/7) Accurately ripped
  6   | (7/7) Accurately ripped
  7   | (7/7) Accurately ripped
  8   | (7/7) Accurately ripped
  9   | (7/7) Accurately ripped
10   | (7/7) Accurately ripped
11   | (7/7) Accurately ripped

Индексная карта (non-compilant .cue)

CD 1

REM GENRE "Hard Rock"
REM DATE 2015
REM DISCID C10E680E
REM COMMENT "ExactAudioCopy v1.1"
PERFORMER "SCORPIONS"
TITLE "Love At First Sting - Deluxe 50TH Anniversary - CD 1"
FILE "SCORPIONS - Love At First Sting - Deluxe 50TH Anniversary - CD 1.flac" WAVE
  TRACK 01 AUDIO
    TITLE "Bad Boys Running Wild"
    PERFORMER "SCORPIONS"
    INDEX 01 00:00:00
  TRACK 02 AUDIO
    TITLE "Rock You Like A Hurricane"
    PERFORMER "SCORPIONS"
    INDEX 00 03:56:01
    INDEX 01 03:56:39
  TRACK 03 AUDIO
    TITLE "I'm Leaving You"
    PERFORMER "SCORPIONS"
    INDEX 00 08:09:51
    INDEX 01 08:10:14
  TRACK 04 AUDIO
    TITLE "Coming Home"
    PERFORMER "SCORPIONS"
    INDEX 00 12:26:30
    INDEX 01 12:26:68
  TRACK 05 AUDIO
    TITLE "The Same Thrill"
    PERFORMER "SCORPIONS"
    INDEX 00 17:26:19
    INDEX 01 17:26:57
  TRACK 06 AUDIO
    TITLE "Big City Nights"
    PERFORMER "SCORPIONS"
    INDEX 00 21:00:34
    INDEX 01 21:00:72
  TRACK 07 AUDIO
    TITLE "As Soon As The Good Times Roll"
    PERFORMER "SCORPIONS"
    INDEX 00 25:09:45
    INDEX 01 25:10:08
  TRACK 08 AUDIO
    TITLE "Crossfire"
    PERFORMER "SCORPIONS"
    INDEX 00 30:13:52
    INDEX 01 30:14:15
  TRACK 09 AUDIO
    TITLE "Still Loving You"
    PERFORMER "SCORPIONS"
    INDEX 00 34:46:04
    INDEX 01 34:46:42
  TRACK 10 AUDIO
    TITLE "Coming Home (Demo Version)"
    PERFORMER "SCORPIONS"
    INDEX 00 41:14:50
    INDEX 01 41:15:13
  TRACK 11 AUDIO
    TITLE "Living At Night (Demo Song)"
    PERFORMER "SCORPIONS"
    INDEX 00 44:37:48
    INDEX 01 44:38:11
  TRACK 12 AUDIO
    TITLE "First Sting Jam (Demo)"
    PERFORMER "SCORPIONS"
    INDEX 00 48:53:63
    INDEX 01 48:54:26
  TRACK 13 AUDIO
    TITLE "Anytime (You Want It) (Demo Song)"
    PERFORMER "SCORPIONS"
    INDEX 00 50:21:53
    INDEX 01 50:22:16
  TRACK 14 AUDIO
    TITLE "Still Loving You (Demo Version)"
    PERFORMER "SCORPIONS"
    INDEX 00 55:40:36
    INDEX 01 55:40:74

CD 2

REM GENRE "Hard Rock"
REM DATE 2015
REM DISCID 7D0C740B
REM COMMENT "ExactAudioCopy v1.1"
PERFORMER "SCORPIONS"
TITLE "Love At First Sting - Deluxe 50TH Anniversary - Bonus CD. Live At The Madison..."
FILE "SCORPIONS - Love At First Sting - Deluxe 50TH Anniversary - Bonus CD. Live At The Madison Square Garden.flac" WAVE
  TRACK 01 AUDIO
    TITLE "Countdown"
    PERFORMER "SCORPIONS"
    INDEX 01 00:00:00
  TRACK 02 AUDIO
    TITLE "Coming Home"
    PERFORMER "SCORPIONS"
    INDEX 01 01:58:67
  TRACK 03 AUDIO
    TITLE "Blackout"
    PERFORMER "SCORPIONS"
    INDEX 01 05:10:26
  TRACK 04 AUDIO
    TITLE "Bad Boys Running Wild"
    PERFORMER "SCORPIONS"
    INDEX 01 08:58:63
  TRACK 05 AUDIO
    TITLE "Loving You Sunday Morning"
    PERFORMER "SCORPIONS"
    INDEX 01 13:10:50
  TRACK 06 AUDIO
    TITLE "Big City Nights"
    PERFORMER "SCORPIONS"
    INDEX 01 17:55:50
  TRACK 07 AUDIO
    TITLE "Coast To Coast"
    PERFORMER "SCORPIONS"
    INDEX 01 23:09:58
  TRACK 08 AUDIO
    TITLE "Still Loving You"
    PERFORMER "SCORPIONS"
    INDEX 01 28:08:05
  TRACK 09 AUDIO
    TITLE "Rock You Like A Hurricane"
    PERFORMER "SCORPIONS"
    INDEX 01 34:00:33
  TRACK 10 AUDIO
    TITLE "The Zoo"
    PERFORMER "SCORPIONS"
    INDEX 01 38:21:10
  TRACK 11 AUDIO
    TITLE "Dynamite"
    PERFORMER "SCORPIONS"
    INDEX 01 46:27:02
--Не забываем говорить
[Профиль] [ЛС]
Показать сообщения:    

Текущее время: Сегодня 08:04

Часовой пояс: GMT



Вы не можете начинать темы
Вы не можете отвечать на сообщения
Вы не можете редактировать свои сообщения
Вы не можете удалять свои сообщения
Вы не можете голосовать в опросах
Вы не можете прикреплять файлы к сообщениям
Вы не можете скачивать файлы