(Rock) Scorpions - Best - 1999 [FLAC, tracks +.cue, lossless]

 
Автор Сообщение

sergej644 ®

Пол:

Стаж: 4 года 11 месяцев

Сообщений: 6043

Откуда: Soviet Union



Награды: Нет

Торрент-статистика

Создавать темы 13-Фев-2016 15:05

[Цитировать]

---
Год издания: 1999
Страна: Germany
Жанр: Rock
Продолжительность: 01:18:46-Лейбл издания: EMI
Страна-выпуска диска: EU
Номер по каталогу: 7243 4 977013 28-Формат: FLAC
Битрейт аудио: Lossless
Тип рипа: tracks +.cue
Наличие сканов в содержимом раздачи: да
-

Трэклист


01. Loving You Sunday Morning (05:40)
02. Rock You Like A Hurricane (04:15)
03. Wind Of Change (05:13)
04. Is There Anybody There? (04:20)
05. Holiday (06:25)
06. Rhythm Of Love (03:51)
07. Passion Rules The Game (04:00)
08. Still Loving You (06:29)
09. No One Like You (03:57)
10. Another Piece Of Meat (Live) (03:48)
11. In Trance (Live) (05:28)
12. I'm Going Mad (04:54)
13. He's A Woman - She's A Man (03:16)
14. Love Is Blind (Previously Unreleased) (03:54)
15. Always Somewhere (04:58)
16. Make It Real (03:53)
17. Send Me An Angel (04:34)
-

Лог создания рипа

Exact Audio Copy V1.0 beta 3 from 29. August 2011
EAC extraction logfile from 1. March 2013, 19:25
Scorpions / Best
Used drive  : Optiarc DVD RW AD-7710H   Adapter: 0  ID: 1
Read mode               : Secure
Utilize accurate stream : Yes
Defeat audio cache      : Yes
Make use of C2 pointers : No
Read offset correction                      : 48
Overread into Lead-In and Lead-Out          : No
Fill up missing offset samples with silence : Yes
Delete leading and trailing silent blocks   : No
Null samples used in CRC calculations       : Yes
Used interface                              : Native Win32 interface for Win NT & 2000
Gap handling                                : Appended to previous track
Used output format              : User Defined Encoder
Selected bitrate                : 128 kBit/s
Quality                         : High
Add ID3 tag                     : No
Command line compressor         : D:\programs\Exact Audio Copy v .1.0 beta 3\Exact Audio Copy\Flac\flac.exe
Additional command line options : -V -8 -T "Genre=%genre%" -T "Artist=%artist%" -T "Title=%title%" -T "Album=%albumtitle%" -T "Date=%year%" -T "Tracknumber=%tracknr%" -T "Comment=ripped by attami" %source%
TOC of the extracted CD
     Track |   Start  |  Length  | Start sector | End sector
    ---------------------------------------------------------
        1  |  0:00.00 |  5:39.62 |         0    |    25486
        2  |  5:39.62 |  4:14.28 |     25487    |    44564
        3  |  9:54.15 |  5:12.25 |     44565    |    67989
        4  | 15:06.40 |  4:19.35 |     67990    |    87449
        5  | 19:26.00 |  6:24.45 |     87450    |   116294
        6  | 25:50.45 |  3:50.17 |    116295    |   133561
        7  | 29:40.62 |  3:59.08 |    133562    |   151494
        8  | 33:39.70 |  6:28.05 |    151495    |   180599
        9  | 40:08.00 |  3:56.37 |    180600    |   198336
       10  | 44:04.37 |  3:47.30 |    198337    |   215391
       11  | 47:51.67 |  5:27.30 |    215392    |   239946
       12  | 53:19.22 |  4:53.43 |    239947    |   261964
       13  | 58:12.65 |  3:15.57 |    261965    |   276646
       14  | 61:28.47 |  3:53.33 |    276647    |   294154
       15  | 65:22.05 |  4:57.25 |    294155    |   316454
       16  | 70:19.30 |  3:53.00 |    316455    |   333929
       17  | 74:12.30 |  4:33.22 |    333930    |   354426
Track  1
     Filename D:\track+.cue_attami\Scorpions - Best\01. Loving You Sunday Morning.wav
     Pre-gap length  0:00:02.00
     Peak level 100.0 %
     Extraction speed 3.2 X
     Track quality 100.0 %
     Test CRC 4AE25E8B
     Copy CRC 4AE25E8B
     Accurately ripped (confidence 23)  [3F4B8761]  (AR v2)
     Copy OK
Track  2
     Filename D:\track+.cue_attami\Scorpions - Best\02. Rock You Like A Hurricane.wav
     Pre-gap length  0:00:01.05
     Peak level 100.0 %
     Extraction speed 3.5 X
     Track quality 100.0 %
     Test CRC 86742C0F
     Copy CRC 86742C0F
     Accurately ripped (confidence 23)  [F28482EF]  (AR v2)
     Copy OK
Track  3
     Filename D:\track+.cue_attami\Scorpions - Best\03. Wind Of Change.wav
     Pre-gap length  0:00:01.40
     Peak level 100.0 %
     Extraction speed 3.9 X
     Track quality 100.0 %
     Test CRC DF22F8AE
     Copy CRC DF22F8AE
     Accurately ripped (confidence 24)  [C2DC80A7]  (AR v2)
     Copy OK
Track  4
     Filename D:\track+.cue_attami\Scorpions - Best\04. Is There Anybody There.wav
     Pre-gap length  0:00:00.73
     Peak level 97.9 %
     Extraction speed 4.0 X
     Track quality 100.0 %
     Test CRC F0A2D399
     Copy CRC F0A2D399
     Accurately ripped (confidence 22)  [03112647]  (AR v2)
     Copy OK
Track  5
     Filename D:\track+.cue_attami\Scorpions - Best\05. Holiday.wav
     Pre-gap length  0:00:01.08
     Peak level 99.1 %
     Extraction speed 4.5 X
     Track quality 100.0 %
     Test CRC 9655C5CD
     Copy CRC 9655C5CD
     Accurately ripped (confidence 20)  [18E5B20D]  (AR v2)
     Copy OK
Track  6
     Filename D:\track+.cue_attami\Scorpions - Best\06. Rhythm Of Love.wav
     Pre-gap length  0:00:01.00
     Peak level 100.0 %
     Extraction speed 4.6 X
     Track quality 100.0 %
     Test CRC 33E19CA3
     Copy CRC 33E19CA3
     Accurately ripped (confidence 22)  [F18D059B]  (AR v2)
     Copy OK
Track  7
     Filename D:\track+.cue_attami\Scorpions - Best\07. Passion Rules The Game.wav
     Pre-gap length  0:00:00.70
     Peak level 99.8 %
     Extraction speed 4.8 X
     Track quality 100.0 %
     Test CRC 6FFB9B41
     Copy CRC 6FFB9B41
     Accurately ripped (confidence 21)  [F9953F5C]  (AR v2)
     Copy OK
Track  8
     Filename D:\track+.cue_attami\Scorpions - Best\08. Still Loving You.wav
     Pre-gap length  0:00:01.08
     Peak level 100.0 %
     Extraction speed 4.8 X
     Track quality 99.9 %
     Test CRC F72C3243
     Copy CRC F72C3243
     Accurately ripped (confidence 20)  [6FA1005F]  (AR v2)
     Copy OK
Track  9
     Filename D:\track+.cue_attami\Scorpions - Best\09. No One Like You.wav
     Pre-gap length  0:00:01.10
     Peak level 98.8 %
     Extraction speed 5.2 X
     Track quality 100.0 %
     Test CRC 56C0FA0B
     Copy CRC 56C0FA0B
     Accurately ripped (confidence 20)  [D2063B4C]  (AR v2)
     Copy OK
Track 10
     Filename D:\track+.cue_attami\Scorpions - Best\10. Another Piece Of Meat (Live).wav
     Pre-gap length  0:00:00.32
     Peak level 99.0 %
     Extraction speed 4.6 X
     Track quality 99.9 %
     Test CRC 5E14E31A
     Copy CRC 5E14E31A
     Accurately ripped (confidence 20)  [A577E42E]  (AR v2)
     Copy OK
Track 11
     Filename D:\track+.cue_attami\Scorpions - Best\11. In Trance (Live).wav
     Pre-gap length  0:00:00.22
     Peak level 99.3 %
     Extraction speed 5.8 X
     Track quality 100.0 %
     Test CRC 2BFD7B40
     Copy CRC 2BFD7B40
     Accurately ripped (confidence 18)  [7994FA2F]  (AR v2)
     Copy OK
Track 12
     Filename D:\track+.cue_attami\Scorpions - Best\12. I'm Going Mad.wav
     Pre-gap length  0:00:01.17
     Peak level 99.8 %
     Extraction speed 5.9 X
     Track quality 100.0 %
     Test CRC 51BBD36E
     Copy CRC 51BBD36E
     Accurately ripped (confidence 18)  [2B61CCFA]  (AR v2)
     Copy OK
Track 13
     Filename D:\track+.cue_attami\Scorpions - Best\13. He's A Woman - She's A Man.wav
     Pre-gap length  0:00:01.20
     Peak level 100.0 %
     Extraction speed 5.7 X
     Track quality 100.0 %
     Test CRC 3C51F90A
     Copy CRC 3C51F90A
     Accurately ripped (confidence 20)  [C44ED5FF]  (AR v2)
     Copy OK
Track 14
     Filename D:\track+.cue_attami\Scorpions - Best\14. Love Is Blind (Previously Unreleased).wav
     Pre-gap length  0:00:01.05
     Peak level 98.5 %
     Extraction speed 6.0 X
     Track quality 100.0 %
     Test CRC 75309EA1
     Copy CRC 75309EA1
     Accurately ripped (confidence 17)  [00A57B55]  (AR v2)
     Copy OK
Track 15
     Filename D:\track+.cue_attami\Scorpions - Best\15. Always Somewhere.wav
     Pre-gap length  0:00:01.08
     Peak level 99.9 %
     Extraction speed 6.3 X
     Track quality 100.0 %
     Test CRC 51616C61
     Copy CRC 51616C61
     Accurately ripped (confidence 19)  [3D01EE75]  (AR v2)
     Copy OK
Track 16
     Filename D:\track+.cue_attami\Scorpions - Best\16. Make It Real.wav
     Pre-gap length  0:00:01.23
     Peak level 100.0 %
     Extraction speed 6.2 X
     Track quality 100.0 %
     Test CRC B9241C56
     Copy CRC B9241C56
     Accurately ripped (confidence 21)  [3DB7C885]  (AR v2)
     Copy OK
Track 17
     Filename D:\track+.cue_attami\Scorpions - Best\17. Send Me An Angel.wav
     Pre-gap length  0:00:01.13
     Peak level 99.1 %
     Extraction speed 1.7 X
     Track quality 99.8 %
     Test CRC 999DDE4B
     Copy CRC 999DDE4B
     Accurately ripped (confidence 17)  [10A7D299]  (AR v2)
     Copy OK
All tracks accurately ripped
No errors occurred
End of status report

Индексная карта (non-compilant .cue)

REM GENRE Rock
REM DATE 1999
REM DISCID E8127511
REM COMMENT "ExactAudioCopy v1.0b3"
PERFORMER "Scorpions"
TITLE "Best"
FILE "01. Loving You Sunday Morning.wav" WAVE
  TRACK 01 AUDIO
    TITLE "Loving You Sunday Morning"
    PERFORMER "Scorpions"
    ISRC DEA349900688
    INDEX 01 00:00:00
  TRACK 02 AUDIO
    TITLE "Rock You Like A Hurricane"
    PERFORMER "Scorpions"
    ISRC DEA349900689
    INDEX 00 05:38:57
FILE "02. Rock You Like A Hurricane.wav" WAVE
    INDEX 01 00:00:00
  TRACK 03 AUDIO
    TITLE "Wind Of Change"
    PERFORMER "Scorpions"
    INDEX 00 04:12:63
FILE "03. Wind Of Change.wav" WAVE
    INDEX 01 00:00:00
  TRACK 04 AUDIO
    TITLE "Is There Anybody There?"
    PERFORMER "Scorpions"
    ISRC DEA349900690
    INDEX 00 05:11:27
FILE "04. Is There Anybody There.wav" WAVE
    INDEX 01 00:00:00
  TRACK 05 AUDIO
    TITLE "Holiday"
    PERFORMER "Scorpions"
    ISRC DEA349900691
    INDEX 00 04:18:27
FILE "05. Holiday.wav" WAVE
    INDEX 01 00:00:00
  TRACK 06 AUDIO
    TITLE "Rhythm Of Love"
    PERFORMER "Scorpions"
    ISRC DEA349900678
    INDEX 00 06:23:45
FILE "06. Rhythm Of Love.wav" WAVE
    INDEX 01 00:00:00
  TRACK 07 AUDIO
    TITLE "Passion Rules The Game"
    PERFORMER "Scorpions"
    ISRC DEA349900679
    INDEX 00 03:49:22
FILE "07. Passion Rules The Game.wav" WAVE
    INDEX 01 00:00:00
  TRACK 08 AUDIO
    TITLE "Still Loving You"
    PERFORMER "Scorpions"
    ISRC DEA349900680
    INDEX 00 03:58:00
FILE "08. Still Loving You.wav" WAVE
    INDEX 01 00:00:00
  TRACK 09 AUDIO
    TITLE "No One Like You"
    PERFORMER "Scorpions"
    ISRC DEA349900681
    INDEX 00 06:26:70
FILE "09. No One Like You.wav" WAVE
    INDEX 01 00:00:00
  TRACK 10 AUDIO
    TITLE "Another Piece Of Meat (Live)"
    PERFORMER "Scorpions"
    ISRC DEA349900682
    INDEX 00 03:56:05
FILE "10. Another Piece Of Meat (Live).wav" WAVE
    INDEX 01 00:00:00
  TRACK 11 AUDIO
    TITLE "In Trance (Live)"
    PERFORMER "Scorpions"
    ISRC DEA349900683
    INDEX 00 03:47:08
FILE "11. In Trance (Live).wav" WAVE
    INDEX 01 00:00:00
  TRACK 12 AUDIO
    TITLE "I'm Going Mad"
    PERFORMER "Scorpions"
    ISRC DEF087200010
    INDEX 00 05:26:13
FILE "12. I'm Going Mad.wav" WAVE
    INDEX 01 00:00:00
  TRACK 13 AUDIO
    TITLE "He's A Woman - She's A Man"
    PERFORMER "Scorpions"
    ISRC DEA349900684
    INDEX 00 04:52:23
FILE "13. He's A Woman - She's A Man.wav" WAVE
    INDEX 01 00:00:00
  TRACK 14 AUDIO
    TITLE "Love Is Blind (Previously Unreleased)"
    PERFORMER "Scorpions"
    ISRC DEA349900685
    INDEX 00 03:14:52
FILE "14. Love Is Blind (Previously Unreleased).wav" WAVE
    INDEX 01 00:00:00
  TRACK 15 AUDIO
    TITLE "Always Somewhere"
    PERFORMER "Scorpions"
    ISRC DEA349900686
    INDEX 00 03:52:25
FILE "15. Always Somewhere.wav" WAVE
    INDEX 01 00:00:00
  TRACK 16 AUDIO
    TITLE "Make It Real"
    PERFORMER "Scorpions"
    ISRC DEA349900687
    INDEX 00 04:56:02
FILE "16. Make It Real.wav" WAVE
    INDEX 01 00:00:00
  TRACK 17 AUDIO
    TITLE "Send Me An Angel"
    PERFORMER "Scorpions"
    INDEX 00 03:51:62
FILE "17. Send Me An Angel.wav" WAVE
    INDEX 01 00:00:00
--
[Профиль] [ЛС]
Кто просматривает тему:

Показать сообщения:    

Текущее время: Сегодня 02:24

Часовой пояс: GMT



Вы не можете начинать темы
Вы не можете отвечать на сообщения
Вы не можете редактировать свои сообщения
Вы не можете удалять свои сообщения
Вы не можете голосовать в опросах
Вы не можете прикреплять файлы к сообщениям
Вы не можете скачивать файлы