(Hard Rock) Scorpions - Animal Magnetism (50th Anniversary Deluxe Edition) - 2015 [FLAC, tracks+.cue, lossless]

 
Автор Сообщение

sergej644 ®

Пол:

Стаж: 4 года 11 месяцев

Сообщений: 6046

Откуда: Soviet Union



Награды: Нет

Торрент-статистика

Создавать темы 20-Дек-2015 08:19

[Цитировать]

-Scorpions / Animal Magnetism (50th Anniversary Deluxe Edition)-- Год / Год издания: 1980 / 2015
Страна: Germany
Жанр: Hard Rock
Продолжительность: 01:03:25-Лейбл издания: Bmg Rights Management (SPV)
Страна-выпуска диска: Germany
Номер по каталогу: 538159362
Формат: FLAC
Битрейт аудио: lossless
Тип рипа: tracks+.cue
Наличие сканов в содержимом раздачи: да
-

Трэклист

01.Make It Real (03:52)
02.Dont Make No Promises - Your Body Cant Keep (03:00)
03.Hold Me Tight (04:00)
04.Twentieth Century Man (03:05)
05.Lady Starlight (06:17)
06.Falling In Love (04:13)
07.Only A Man (03:38)
08.The Zoo (05:31)
09.Animal Magnetism (05:59)
10.Hey You - Vocals By Rudolf Schenker (03:50)
11.Animal Magnetism - Demo Version (04:32)
12.American Girls - Demo Version (03:31)
13.Get Your Love - Demo Version - Heroes Dont Cry (03:44)
14.Restless Man - Demo Version - Twentieth Century Man (03:20)
15.All Night Long - Demo Version (05:00)
-

Лог создания рипа

Exact Audio Copy V1.1 from 23. June 2015
EAC extraction logfile from 13. November 2015, 18:16
Scorpions / Animal Magnetism 50th Anniversary & Remasterd Deluxe Edition 2015
Used drive  : TSSTcorpCDDVDW SH-224DB   Adapter: 1  ID: 1
Read mode               : Secure
Utilize accurate stream : Yes
Defeat audio cache      : Yes
Make use of C2 pointers : No
Read offset correction                      : 6
Overread into Lead-In and Lead-Out          : No
Fill up missing offset samples with silence : Yes
Delete leading and trailing silent blocks   : No
Null samples used in CRC calculations       : Yes
Used interface                              : Native Win32 interface for Win NT & 2000
Gap handling                                : Appended to previous track
Used output format              : User Defined Encoder
Selected bitrate                : 896 kBit/s
Quality                         : High
Add ID3 tag                     : No
Command line compressor         : C:\Program Files\Exact Audio Copy\Flac\flac.exe
Additional command line options : -8 -V -T "ARTIST=%artist%" -T "TITLE=%title%" -T "ALBUM=%albumtitle%" -T "DATE=%year%" -T "TRACKNUMBER=%tracknr%" -T "TOTALTRACKS=%numtracks%" -T "GENRE=%genre%" -T "ALBUMARTIST=%albumartist%" -T "ALBUM ARTIST=%albumartist%" -T "COMMENT=EAC Secure Mode, Test & Copy, AccurateRip, FLAC -8" %source%
TOC of the extracted CD
     Track |   Start  |  Length  | Start sector | End sector
    ---------------------------------------------------------
        1  |  0:00.00 |  3:51.42 |         0    |    17366
        2  |  3:51.42 |  2:59.31 |     17367    |    30822
        3  |  6:50.73 |  3:59.40 |     30823    |    48787
        4  | 10:50.38 |  3:04.52 |     48788    |    62639
        5  | 13:55.15 |  6:16.69 |     62640    |    90908
        6  | 20:12.09 |  4:12.22 |     90909    |   109830
        7  | 24:24.31 |  3:37.31 |    109831    |   126136
        8  | 28:01.62 |  5:30.35 |    126137    |   150921
        9  | 33:32.22 |  5:58.63 |    150922    |   177834
       10  | 39:31.10 |  3:49.15 |    177835    |   195024
       11  | 43:20.25 |  4:31.46 |    195025    |   215395
       12  | 47:51.71 |  3:30.15 |    215396    |   231160
       13  | 51:22.11 |  3:43.45 |    231161    |   247930
       14  | 55:05.56 |  3:19.26 |    247931    |   262881
       15  | 58:25.07 |  4:59.44 |    262882    |   285350
Track  1
     Filename D:\Scorpions - Animal Magnetism (1980) [FLAC] {2015 Remasterd Edition Digipack}\01 - Make It Real.wav
     Pre-gap length  0:00:02.00
     Peak level 99.0 %
     Extraction speed 1.7 X
     Track quality 100.0 %
     Test CRC BC433389
     Copy CRC BC433389
     Track not present in AccurateRip database
     Copy OK
Track  2
     Filename D:\Scorpions - Animal Magnetism (1980) [FLAC] {2015 Remasterd Edition Digipack}\02 - Dont Make No Promises - Your Body Cant Keep.wav
     Pre-gap length  0:00:01.00
     Peak level 96.5 %
     Extraction speed 1.8 X
     Track quality 100.0 %
     Test CRC 31181A27
     Copy CRC 31181A27
     Track not present in AccurateRip database
     Copy OK
Track  3
     Filename D:\Scorpions - Animal Magnetism (1980) [FLAC] {2015 Remasterd Edition Digipack}\03 - Hold Me Tight.wav
     Pre-gap length  0:00:01.00
     Peak level 99.3 %
     Extraction speed 2.0 X
     Track quality 100.0 %
     Test CRC B29BA3EA
     Copy CRC B29BA3EA
     Track not present in AccurateRip database
     Copy OK
Track  4
     Filename D:\Scorpions - Animal Magnetism (1980) [FLAC] {2015 Remasterd Edition Digipack}\04 - Twentieth Century Man.wav
     Pre-gap length  0:00:01.00
     Peak level 99.3 %
     Extraction speed 2.1 X
     Track quality 100.0 %
     Test CRC 3CF175A6
     Copy CRC 3CF175A6
     Track not present in AccurateRip database
     Copy OK
Track  5
     Filename D:\Scorpions - Animal Magnetism (1980) [FLAC] {2015 Remasterd Edition Digipack}\05 - Lady Starlight.wav
     Pre-gap length  0:00:01.00
     Peak level 93.6 %
     Extraction speed 2.5 X
     Track quality 100.0 %
     Test CRC 1FC3700B
     Copy CRC 1FC3700B
     Track not present in AccurateRip database
     Copy OK
Track  6
     Filename D:\Scorpions - Animal Magnetism (1980) [FLAC] {2015 Remasterd Edition Digipack}\06 - Falling In Love.wav
     Pre-gap length  0:00:01.00
     Peak level 96.7 %
     Extraction speed 2.1 X
     Track quality 99.9 %
     Test CRC 7951C8E9
     Copy CRC 7951C8E9
     Track not present in AccurateRip database
     Copy OK
Track  7
     Filename D:\Scorpions - Animal Magnetism (1980) [FLAC] {2015 Remasterd Edition Digipack}\07 - Only A Man.wav
     Pre-gap length  0:00:01.00
     Peak level 96.7 %
     Extraction speed 2.6 X
     Track quality 100.0 %
     Test CRC C23AFF5E
     Copy CRC C23AFF5E
     Track not present in AccurateRip database
     Copy OK
Track  8
     Filename D:\Scorpions - Animal Magnetism (1980) [FLAC] {2015 Remasterd Edition Digipack}\08 - The Zoo.wav
     Pre-gap length  0:00:01.00
     Peak level 96.7 %
     Extraction speed 2.9 X
     Track quality 100.0 %
     Test CRC C4DE3AD5
     Copy CRC C4DE3AD5
     Track not present in AccurateRip database
     Copy OK
Track  9
     Filename D:\Scorpions - Animal Magnetism (1980) [FLAC] {2015 Remasterd Edition Digipack}\09 - Animal Magnetism.wav
     Pre-gap length  0:00:01.00
     Peak level 96.7 %
     Extraction speed 3.1 X
     Track quality 100.0 %
     Test CRC A257BAC3
     Copy CRC A257BAC3
     Track not present in AccurateRip database
     Copy OK
Track 10
     Filename D:\Scorpions - Animal Magnetism (1980) [FLAC] {2015 Remasterd Edition Digipack}\10 - Hey You - Vocals By Rudolf Schenker.wav
     Pre-gap length  0:00:01.00
     Peak level 98.8 %
     Extraction speed 3.1 X
     Track quality 100.0 %
     Test CRC AD099F09
     Copy CRC AD099F09
     Track not present in AccurateRip database
     Copy OK
Track 11
     Filename D:\Scorpions - Animal Magnetism (1980) [FLAC] {2015 Remasterd Edition Digipack}\11 - Animal Magnetism - Demo Version.wav
     Pre-gap length  0:00:01.00
     Peak level 98.8 %
     Extraction speed 3.2 X
     Track quality 100.0 %
     Test CRC DA3D3B11
     Copy CRC DA3D3B11
     Track not present in AccurateRip database
     Copy OK
Track 12
     Filename D:\Scorpions - Animal Magnetism (1980) [FLAC] {2015 Remasterd Edition Digipack}\12 - American Girls - Demo Version.wav
     Pre-gap length  0:00:01.00
     Peak level 98.8 %
     Extraction speed 3.2 X
     Track quality 100.0 %
     Test CRC BF830D4A
     Copy CRC BF830D4A
     Track not present in AccurateRip database
     Copy OK
Track 13
     Filename D:\Scorpions - Animal Magnetism (1980) [FLAC] {2015 Remasterd Edition Digipack}\13 - Get Your Love - Demo Version - Heroes Dont Cry.wav
     Pre-gap length  0:00:01.00
     Peak level 98.8 %
     Extraction speed 3.3 X
     Track quality 100.0 %
     Test CRC 3A9DB10E
     Copy CRC 3A9DB10E
     Track not present in AccurateRip database
     Copy OK
Track 14
     Filename D:\Scorpions - Animal Magnetism (1980) [FLAC] {2015 Remasterd Edition Digipack}\14 - Restless Man - Demo Version - Twentieth Century Man.wav
     Pre-gap length  0:00:01.00
     Peak level 98.8 %
     Extraction speed 3.4 X
     Track quality 100.0 %
     Test CRC 2B7B9B35
     Copy CRC 2B7B9B35
     Track not present in AccurateRip database
     Copy OK
Track 15
     Filename D:\Scorpions - Animal Magnetism (1980) [FLAC] {2015 Remasterd Edition Digipack}\15 - All Night Long - Demo Version.wav
     Pre-gap length  0:00:01.00
     Peak level 98.8 %
     Extraction speed 3.6 X
     Track quality 100.0 %
     Test CRC 73E8F8F1
     Copy CRC 73E8F8F1
     Track not present in AccurateRip database
     Copy OK
None of the tracks are present in the AccurateRip database
No errors occurred
End of status report
---- CUETools DB Plugin V2.1.6
[CTDB TOCID: P.7tjDLSsnvhKTUHs_bg5z54EIw-] found
Submit result: P.7tjDLSsnvhKTUHs_bg5z54EIw- has been confirmed
Track | CTDB Status
  1   | (5/5) Accurately ripped
  2   | (5/5) Accurately ripped
  3   | (5/5) Accurately ripped
  4   | (5/5) Accurately ripped
  5   | (5/5) Accurately ripped
  6   | (5/5) Accurately ripped
  7   | (5/5) Accurately ripped
  8   | (5/5) Accurately ripped
  9   | (5/5) Accurately ripped
10   | (5/5) Accurately ripped
11   | (5/5) Accurately ripped
12   | (5/5) Accurately ripped
13   | (5/5) Accurately ripped
14   | (5/5) Accurately ripped
15   | (5/5) Accurately ripped

Индексная карта (non-compilant .cue)

REM GENRE "Hard Rock"
REM DATE 1980
REM DISCID BA0EDC0F
REM COMMENT "ExactAudioCopy v1.1"
PERFORMER "Scorpions"
TITLE "Animal Magnetism 50th Anniversary & Remasterd Deluxe Edition 2015"
FILE "01 - Make It Real.wav" WAVE
  TRACK 01 AUDIO
    TITLE "Make It Real"
    PERFORMER "Scorpions"
    INDEX 01 00:00:00
  TRACK 02 AUDIO
    TITLE "Dont Make No Promises - Your Body Cant Keep"
    PERFORMER "Scorpions"
    INDEX 00 03:50:42
FILE "02 - Dont Make No Promises - Your Body Cant Keep.wav" WAVE
    INDEX 01 00:00:00
  TRACK 03 AUDIO
    TITLE "Hold Me Tight"
    PERFORMER "Scorpions"
    INDEX 00 02:58:31
FILE "03 - Hold Me Tight.wav" WAVE
    INDEX 01 00:00:00
  TRACK 04 AUDIO
    TITLE "Twentieth Century Man"
    PERFORMER "Scorpions"
    INDEX 00 03:58:40
FILE "04 - Twentieth Century Man.wav" WAVE
    INDEX 01 00:00:00
  TRACK 05 AUDIO
    TITLE "Lady Starlight"
    PERFORMER "Scorpions"
    INDEX 00 03:03:52
FILE "05 - Lady Starlight.wav" WAVE
    INDEX 01 00:00:00
  TRACK 06 AUDIO
    TITLE "Falling In Love"
    PERFORMER "Scorpions"
    INDEX 00 06:15:69
FILE "06 - Falling In Love.wav" WAVE
    INDEX 01 00:00:00
  TRACK 07 AUDIO
    TITLE "Only A Man"
    PERFORMER "Scorpions"
    INDEX 00 04:11:22
FILE "07 - Only A Man.wav" WAVE
    INDEX 01 00:00:00
  TRACK 08 AUDIO
    TITLE "The Zoo"
    PERFORMER "Scorpions"
    INDEX 00 03:36:31
FILE "08 - The Zoo.wav" WAVE
    INDEX 01 00:00:00
  TRACK 09 AUDIO
    TITLE "Animal Magnetism"
    PERFORMER "Scorpions"
    INDEX 00 05:29:35
FILE "09 - Animal Magnetism.wav" WAVE
    INDEX 01 00:00:00
  TRACK 10 AUDIO
    TITLE "Hey You - Vocals By Rudolf Schenker"
    PERFORMER "Scorpions"
    INDEX 00 05:57:63
FILE "10 - Hey You - Vocals By Rudolf Schenker.wav" WAVE
    INDEX 01 00:00:00
  TRACK 11 AUDIO
    TITLE "Animal Magnetism - Demo Version"
    PERFORMER "Scorpions"
    INDEX 00 03:48:15
FILE "11 - Animal Magnetism - Demo Version.wav" WAVE
    INDEX 01 00:00:00
  TRACK 12 AUDIO
    TITLE "American Girls - Demo Version"
    PERFORMER "Scorpions"
    INDEX 00 04:30:46
FILE "12 - American Girls - Demo Version.wav" WAVE
    INDEX 01 00:00:00
  TRACK 13 AUDIO
    TITLE "Get Your Love - Demo Version - Heroes Dont Cry"
    PERFORMER "Scorpions"
    INDEX 00 03:29:15
FILE "13 - Get Your Love - Demo Version - Heroes Dont Cry.wav" WAVE
    INDEX 01 00:00:00
  TRACK 14 AUDIO
    TITLE "Restless Man - Demo Version - Twentieth Century Man"
    PERFORMER "Scorpions"
    INDEX 00 03:42:45
FILE "14 - Restless Man - Demo Version - Twentieth Century Man.wav" WAVE
    INDEX 01 00:00:00
  TRACK 15 AUDIO
    TITLE "All Night Long - Demo Version"
    PERFORMER "Scorpions"
    INDEX 00 03:18:26
FILE "15 - All Night Long - Demo Version.wav" WAVE
    INDEX 01 00:00:00

Информация о релизе

НОВИНКА! Лимитированное коллекционное ремастированное и дополненное издание альбома "Animal Magnetism" выпущено к 50-ти летнему юбилею основания немецкой рок-группы Scorpions. Всего в коллекции восемь альбомов группы - шесть студийных и два концертных, выпущенных группой в 1977-1988 гг. "World Wide Live" - концертный альбом немецкой рок-группы "Scorpions", изданный в 1985 году и спродюсированный Дитером Дирксом. Диск получил платиновый статус в США и золотой - в Германии. В чарте The Billboard 200 диск поднялся до 17 места. Принадлежит к числу наиболее успешных концертных альбомов в истории рок-музыки.
--Не забываем говорить
[Профиль] [ЛС]
Показать сообщения:    

Текущее время: Сегодня 20:44

Часовой пояс: GMT



Вы не можете начинать темы
Вы не можете отвечать на сообщения
Вы не можете редактировать свои сообщения
Вы не можете удалять свои сообщения
Вы не можете голосовать в опросах
Вы не можете прикреплять файлы к сообщениям
Вы не можете скачивать файлы