(Rock,Hard Rock)Scorpions – 50th Anniversary Collection Deluxe Edition, Remastered (10 CDs) - 2015 [FLAC, image+cue, lossless]

 
Автор Сообщение

sergej644 ®

Пол:

Стаж: 4 года 11 месяцев

Сообщений: 6042

Откуда: Soviet Union



Награды: Нет

Торрент-статистика

Создавать темы 30-Июл-2016 09:51

[Цитировать]

-Scorpions – 50th Anniversary Collection Deluxe Edition
Год издания: 2015 | Страна: Germany | Жанр: Rock,Hard Rock | Продолжительность: 10:17:55 | Лейбл издания: Sony Music Ent. Germany GmbH, BMG Rights | Формат: FLAC | Битрейт аудио: Lossless | Тип рипа: image +.cue | Наличие сканов в содержимом раздачи: да
Лимитированное коллекционное ремастированное и дополненное издание выпущено к 50-ти летнему юбилею основания немецкой рок-группы Scorpions группы. В коллекции 8 альбомов группы - шесть студийных и два концертных, выпущенных группой в 1977-1988 гг. Scorpions не нуждаются абсолютно ни в какой рекламе. Со дня основания в 1965 году и по сегодняшний день, Скорпы (как называют их в России) выпустили более десятка золотых и платиновых пластинок, раз и навсегда завоевав признание миллионов людей во всем мире. На разогреве у Скорпионс выступали в свое время Def Leppard, Bon Jovi, Metallica, Iron Maiden. Легендарные немецкие рокеры Scorpions, попрощавшись со своими поклонниками компиляцией Comeblack, передумали уходить со сцены и возвратилиcь в этом году в мир музыки с юбилейным двадцатым студийным альбомом "Return to Forever".

1977 - Taken By Force (BMG 538159472) || 1:04:25

01. Steamrock Fever (3:40)
02. We'll Burn The Sky (6:31)
03. I've Got To Be Free (4:05)
04. The Riot Of Your Time (4:14)
05. The Sails Of Charon (5:12)
06. Your Light (4:35)
07. He's A Woman - She's A Man (3:19)
08. Born To Touch Your Feelings (7:45)
09. Suspender Love (Bonus Track) (3:24)
10. Busy Guys (Demo) (4:28)
11. Believe In Love (Demo Version) (3:46)
12. Midnight Blues Jam (Demo) (4:10)
13. Blue Dream (Unfinished Instrumental) (4:10)
14. Born To Touch Your Feelings ( Demo Version) (5:06)
-Personnel:
Klaus Meine – vocals
Ulrich Roth – lead guitars
Rudolf Schenker – rhythm guitars
Francis Buchholz – bass guitar
Herman Rarebell – drums, percussion
Guest / Session:
Leila - French Voice on #8
Junko - Japanese voice on #8
Mutsumi - Japanese voice on #8
Esther - Dutch voice on #8
Rosa - Italian vocals on #8
Susan - English voice on #8
-

Лог создания рипа

Exact Audio Copy V1.1 from 23. June 2015
EAC extraction logfile from 14. February 2016, 16:02
Scorpions / Taken By Force - 50th Anniversary Deluxe Edition
Used drive  : HP      DVD Writer 1170d   Adapter: 1  ID: 1
Read mode               : Secure
Utilize accurate stream : Yes
Defeat audio cache      : Yes
Make use of C2 pointers : No
Read offset correction                      : 6
Overread into Lead-In and Lead-Out          : No
Fill up missing offset samples with silence : Yes
Delete leading and trailing silent blocks   : No
Null samples used in CRC calculations       : Yes
Used interface                              : Native Win32 interface for Win NT & 2000
Used output format              : User Defined Encoder
Selected bitrate                : 1024 kBit/s
Quality                         : Low
Add ID3 tag                     : No
Command line compressor         : C:\Program Files (x86)\Exact Audio Copy\FLAC\FLAC.EXE
Additional command line options : -V -8 -T "Date=%year%" -T "Genre=%genre%" -T"COMMENT=Ripped by Ungern666" -8 -V %source%
TOC of the extracted CD
     Track |   Start  |  Length  | Start sector | End sector
    ---------------------------------------------------------
        1  |  0:00.00 |  3:39.74 |         0    |    16498
        2  |  3:39.74 |  6:31.04 |     16499    |    45827
        3  | 10:11.03 |  4:05.03 |     45828    |    64205
        4  | 14:16.06 |  4:13.68 |     64206    |    83248
        5  | 18:29.74 |  5:11.65 |     83249    |   106638
        6  | 23:41.64 |  4:35.06 |    106639    |   127269
        7  | 28:16.70 |  3:18.72 |    127270    |   142191
        8  | 31:35.67 |  7:44.38 |    142192    |   177029
        9  | 39:20.30 |  3:24.29 |    177030    |   192358
       10  | 42:44.59 |  4:27.69 |    192359    |   212452
       11  | 47:12.53 |  3:45.60 |    212453    |   229387
       12  | 50:58.38 |  4:10.29 |    229388    |   248166
       13  | 55:08.67 |  4:10.35 |    248167    |   266951
       14  | 59:19.27 |  5:05.54 |    266952    |   289880
Range status and errors
Selected range
     Filename C:\EAC\Ungern666\Scorpions - Taken By Force - 50th Anniversary Deluxe Edition.wav
     Peak level 99.4 %
     Extraction speed 7.5 X
     Range quality 100.0 %
     Test CRC 6F067A65
     Copy CRC 6F067A65
     Copy OK
No errors occurred
AccurateRip summary
Track  1  accurately ripped (confidence 2)  [E562C1AA]  (AR v2)
Track  2  accurately ripped (confidence 2)  [F6731FE6]  (AR v2)
Track  3  accurately ripped (confidence 2)  [D65D4804]  (AR v2)
Track  4  accurately ripped (confidence 2)  [DB4E6093]  (AR v2)
Track  5  accurately ripped (confidence 2)  [49895A1D]  (AR v2)
Track  6  accurately ripped (confidence 2)  [1083EE67]  (AR v2)
Track  7  accurately ripped (confidence 2)  [7542C2A7]  (AR v2)
Track  8  accurately ripped (confidence 2)  [D7343316]  (AR v2)
Track  9  accurately ripped (confidence 2)  [6077FA19]  (AR v2)
Track 10  accurately ripped (confidence 2)  [9B9856B7]  (AR v2)
Track 11  accurately ripped (confidence 2)  [C01658FE]  (AR v2)
Track 12  accurately ripped (confidence 2)  [5B072588]  (AR v2)
Track 13  accurately ripped (confidence 2)  [D26B098E]  (AR v2)
Track 14  accurately ripped (confidence 2)  [8E815159]  (AR v2)
All tracks accurately ripped
End of status report
---- CUETools DB Plugin V2.1.6
[CTDB TOCID: zpsJAybViUFpaxN_22m3Xyzvdpw-] found
Submit result: zpsJAybViUFpaxN_22m3Xyzvdpw- has been confirmed
Track | CTDB Status
  1   | (26/26) Accurately ripped
  2   | (26/26) Accurately ripped
  3   | (26/26) Accurately ripped
  4   | (26/26) Accurately ripped
  5   | (26/26) Accurately ripped
  6   | (26/26) Accurately ripped
  7   | (26/26) Accurately ripped
  8   | (23/26) Accurately ripped, or (3/26) differs in 102 samples @02:40:59
  9   | (26/26) Accurately ripped
10   | (26/26) Accurately ripped
11   | (26/26) Accurately ripped
12   | (26/26) Accurately ripped
13   | (26/26) Accurately ripped
14   | (26/26) Accurately ripped

Индексная карта (non-compilant .cue)

REM DATE 2015
REM DISCID B50F190E
REM COMMENT "ExactAudioCopy v1.1"
PERFORMER "Scorpions"
TITLE "Taken By Force - 50th Anniversary Deluxe Edition"
FILE "Scorpions - Taken By Force - 50th Anniversary Deluxe Edition.wav" WAVE
  TRACK 01 AUDIO
    TITLE "Steamrock Fever"
    PERFORMER "Scorpions"
    INDEX 01 00:00:00
  TRACK 02 AUDIO
    TITLE "We'll Burn The Sky"
    PERFORMER "Scorpions"
    INDEX 00 03:37:74
    INDEX 01 03:39:74
  TRACK 03 AUDIO
    TITLE "I've Got To Be Free"
    PERFORMER "Scorpions"
    INDEX 00 10:09:03
    INDEX 01 10:11:03
  TRACK 04 AUDIO
    TITLE "The Riot Of Your Time"
    PERFORMER "Scorpions"
    INDEX 00 14:14:06
    INDEX 01 14:16:06
  TRACK 05 AUDIO
    TITLE "The Sails Of Charon"
    PERFORMER "Scorpions"
    INDEX 00 18:27:74
    INDEX 01 18:29:74
  TRACK 06 AUDIO
    TITLE "Your Light"
    PERFORMER "Scorpions"
    INDEX 00 23:39:64
    INDEX 01 23:41:64
  TRACK 07 AUDIO
    TITLE "He's A Woman - She's A Man"
    PERFORMER "Scorpions"
    INDEX 00 28:14:70
    INDEX 01 28:16:70
  TRACK 08 AUDIO
    TITLE "Born To Touch Your Feelings"
    PERFORMER "Scorpions"
    INDEX 00 31:33:67
    INDEX 01 31:35:67
  TRACK 09 AUDIO
    TITLE "Suspender Love (Bonus Track)"
    PERFORMER "Scorpions"
    INDEX 00 39:18:30
    INDEX 01 39:20:30
  TRACK 10 AUDIO
    TITLE "Busy Guys (Demo)"
    PERFORMER "Scorpions"
    INDEX 00 42:42:59
    INDEX 01 42:44:59
  TRACK 11 AUDIO
    TITLE "Believe In Love (Demo Version) "
    PERFORMER "Scorpions"
    INDEX 00 47:10:53
    INDEX 01 47:12:53
  TRACK 12 AUDIO
    TITLE "Midnight Blues Jam (Demo)"
    PERFORMER "Scorpions"
    INDEX 00 50:56:38
    INDEX 01 50:58:38
  TRACK 13 AUDIO
    TITLE "Blue Dream (Unfinished Instrumental)"
    PERFORMER "Scorpions"
    INDEX 00 55:06:67
    INDEX 01 55:08:67
  TRACK 14 AUDIO
    TITLE "Born To Touch Your Feelings ( Demo Version)"
    PERFORMER "Scorpions"
    INDEX 00 59:17:27
    INDEX 01 59:19:27

1978 - Tokyo Tapes (BMG 538159542)

Disc 1 || 1:18:57

01. All Night Long (3:43)
02. Pictured Life (3:13)
03. Backstage Queen (3:40)
04. Polar Nights (7:01)
05. In Trance (5:27)
06. We'll Burn The Sky (8:07)
07. Suspender Love (3:41)
08. In Search Of The Peace Of Mind (3:02)
09. Fly To The Rainbow (9:38)
10. He's A Woman, She's A Man (5:22)
11. Speedy's Coming (3:39)
12. Top Of The Bill (6:47)
13. Hound Dog (1:14)
14. Long Tal Sally (2:50)
15. Steamrock Fever (3:41)
16. Dark Lady (4:38)
17. Kojo No Tsuki (3:14)
-Klaus Meine - Lead Vocals (except on "Polar Nights", "Dark Lady" & "Hell Cat")
Ulrich Jon Roth - Lead Guitar (except on "Steamrock Fever"), Lead Vocals on "Polar Nights", "Dark Lady" & "Hell Cat", Backing Vocals
Rudolf Schenker - Rhythm Guitar, Lead Guitar Intro on "He's a Woman - She's a Man" and Second Solo on "Long Tall Sally", Backing Vocals
Francis Buchholz - Bass
Herman Rarebell - Drums
Miscellaneous staff:
Hans G. Lehmann - Photography
Tamotsu Yoshida - Engineering, Recording
Dieter Dierks - Producer
Hendrik Ostrau - Mixing (Tracks 2-8 on Disc 2)
Martin Lanzerath - Reissue Producer (Tracks 2-8 on Disc 2)
-

Лог создания рипа

Exact Audio Copy V1.1 from 23. June 2015
EAC extraction logfile from 14. February 2016, 18:09
Scorpions / Tokyo Tapes - 50th Anniversary Deluxe Edition
Used drive  : HP      DVD Writer 1170d   Adapter: 1  ID: 1
Read mode               : Secure
Utilize accurate stream : Yes
Defeat audio cache      : Yes
Make use of C2 pointers : No
Read offset correction                      : 6
Overread into Lead-In and Lead-Out          : No
Fill up missing offset samples with silence : Yes
Delete leading and trailing silent blocks   : No
Null samples used in CRC calculations       : Yes
Used interface                              : Native Win32 interface for Win NT & 2000
Used output format              : User Defined Encoder
Selected bitrate                : 1024 kBit/s
Quality                         : Low
Add ID3 tag                     : No
Command line compressor         : C:\Program Files (x86)\Exact Audio Copy\FLAC\FLAC.EXE
Additional command line options : -V -8 -T "Date=%year%" -T "Genre=%genre%" -T"COMMENT=Ripped by Ungern666" -8 -V %source%
TOC of the extracted CD
     Track |   Start  |  Length  | Start sector | End sector
    ---------------------------------------------------------
        1  |  0:00.00 |  3:43.30 |         0    |    16754
        2  |  3:43.30 |  3:13.20 |     16755    |    31249
        3  |  6:56.50 |  3:39.49 |     31250    |    47723
        4  | 10:36.24 |  7:01.23 |     47724    |    79321
        5  | 17:37.47 |  5:26.57 |     79322    |   103828
        6  | 23:04.29 |  8:06.61 |    103829    |   140339
        7  | 31:11.15 |  3:40.41 |    140340    |   156880
        8  | 34:51.56 |  3:02.03 |    156881    |   170533
        9  | 37:53.59 |  9:38.31 |    170534    |   213914
       10  | 47:32.15 |  5:21.54 |    213915    |   238043
       11  | 52:53.69 |  3:39.13 |    238044    |   254481
       12  | 56:33.07 |  6:47.25 |    254482    |   285031
       13  | 63:20.32 |  1:14.19 |    285032    |   290600
       14  | 64:34.51 |  2:49.56 |    290601    |   303331
       15  | 67:24.32 |  3:41.06 |    303332    |   319912
       16  | 71:05.38 |  4:37.48 |    319913    |   340735
       17  | 75:43.11 |  3:14.01 |    340736    |   355286
Range status and errors
Selected range
     Filename C:\EAC\Ungern666\Scorpions - Tokyo Tapes - 50th Anniversary Deluxe Edition.wav
     Peak level 100.0 %
     Extraction speed 6.7 X
     Range quality 100.0 %
     Test CRC 9494FA21
     Copy CRC 9494FA21
     Copy OK
No errors occurred
AccurateRip summary
Track  1  accurately ripped (confidence 4)  [C95E00C5]  (AR v2)
Track  2  accurately ripped (confidence 4)  [A2E04BC9]  (AR v2)
Track  3  accurately ripped (confidence 4)  [55CB478D]  (AR v2)
Track  4  accurately ripped (confidence 4)  [7F689350]  (AR v2)
Track  5  accurately ripped (confidence 4)  [9A9E7FA4]  (AR v2)
Track  6  accurately ripped (confidence 4)  [A6FDE0AB]  (AR v2)
Track  7  accurately ripped (confidence 4)  [822F4ABE]  (AR v2)
Track  8  accurately ripped (confidence 4)  [DFB5ACEA]  (AR v2)
Track  9  accurately ripped (confidence 4)  [D608A3DA]  (AR v2)
Track 10  accurately ripped (confidence 4)  [26C9BD04]  (AR v2)
Track 11  accurately ripped (confidence 4)  [E1860F77]  (AR v2)
Track 12  accurately ripped (confidence 4)  [2B9B3E05]  (AR v2)
Track 13  accurately ripped (confidence 4)  [BC690C83]  (AR v2)
Track 14  accurately ripped (confidence 4)  [6402ADFE]  (AR v2)
Track 15  accurately ripped (confidence 4)  [DD4C518B]  (AR v2)
Track 16  accurately ripped (confidence 4)  [E4D2B2A6]  (AR v2)
Track 17  accurately ripped (confidence 4)  [773E6BA2]  (AR v2)
All tracks accurately ripped
End of status report
---- CUETools DB Plugin V2.1.6
[CTDB TOCID: yNDLhSNTkbuAvX1YoxmjkPrT3EY-] found
Submit result: yNDLhSNTkbuAvX1YoxmjkPrT3EY- has been confirmed
Track | CTDB Status
  1   | (33/33) Accurately ripped
  2   | (33/33) Accurately ripped
  3   | (33/33) Accurately ripped
  4   | (33/33) Accurately ripped
  5   | (33/33) Accurately ripped
  6   | (33/33) Accurately ripped
  7   | (33/33) Accurately ripped
  8   | (33/33) Accurately ripped
  9   | (33/33) Accurately ripped
10   | (33/33) Accurately ripped
11   | (33/33) Accurately ripped
12   | (33/33) Accurately ripped
13   | (33/33) Accurately ripped
14   | (33/33) Accurately ripped
15   | (33/33) Accurately ripped
16   | (33/33) Accurately ripped
17   | (24/33) Accurately ripped

Индексная карта (non-compilant .cue)

REM DATE 2015
REM DISCID 0B128111
REM COMMENT "ExactAudioCopy v1.1"
PERFORMER "Scorpions"
TITLE "Tokyo Tapes - 50th Anniversary Deluxe Edition"
FILE "Scorpions - Tokyo Tapes - 50th Anniversary Deluxe Edition.flac" WAVE
  TRACK 01 AUDIO
    TITLE "All Night Long"
    PERFORMER "Scorpions"
    INDEX 01 00:00:00
  TRACK 02 AUDIO
    TITLE "Pictured Life"
    PERFORMER "Scorpions"
    INDEX 01 03:43:30
  TRACK 03 AUDIO
    TITLE "Backstage Queen"
    PERFORMER "Scorpions"
    INDEX 01 06:56:50
  TRACK 04 AUDIO
    TITLE "Polar Nights"
    PERFORMER "Scorpions"
    INDEX 01 10:36:24
  TRACK 05 AUDIO
    TITLE "In Trance"
    PERFORMER "Scorpions"
    INDEX 01 17:37:47
  TRACK 06 AUDIO
    TITLE "We'll Burn The Sky"
    PERFORMER "Scorpions"
    INDEX 01 23:04:29
  TRACK 07 AUDIO
    TITLE "Suspender Love"
    PERFORMER "Scorpions"
    INDEX 01 31:11:15
  TRACK 08 AUDIO
    TITLE "In Search Of The Peace Of Mind"
    PERFORMER "Scorpions"
    INDEX 01 34:51:56
  TRACK 09 AUDIO
    TITLE "Fly To The Rainbow"
    PERFORMER "Scorpions"
    INDEX 01 37:53:59
  TRACK 10 AUDIO
    TITLE "He's A Woman, She's A Man"
    PERFORMER "Scorpions"
    INDEX 01 47:32:15
  TRACK 11 AUDIO
    TITLE "Speedy's Coming"
    PERFORMER "Scorpions"
    INDEX 01 52:53:69
  TRACK 12 AUDIO
    TITLE "Top Of The Bill"
    PERFORMER "Scorpions"
    INDEX 01 56:33:07
  TRACK 13 AUDIO
    TITLE "Hound Dog"
    PERFORMER "Scorpions"
    INDEX 01 63:20:32
  TRACK 14 AUDIO
    TITLE "Long Tal Sally"
    PERFORMER "Scorpions"
    INDEX 01 64:34:51
  TRACK 15 AUDIO
    TITLE "Steamrock Fever"
    PERFORMER "Scorpions"
    INDEX 01 67:24:32
  TRACK 16 AUDIO
    TITLE "Dark Lady"
    PERFORMER "Scorpions"
    INDEX 01 71:05:38
  TRACK 17 AUDIO
    TITLE "Kojo No Tsuki"
    PERFORMER "Scorpions"
    INDEX 01 75:43:11

Bonus CD || 00:52:15

01. Robot Man (5:50)
02. Hell Cat (9:47)
03. Catch Your Train (3:52)
04. Kimi Ga Yo ( Japanese National Anthem) (1:29)
05. Polar Nights (7:32)
06. He's A Woman, She's A Man (6:06)
07. Top Of The Bill (10:48)
08. Robot Man (6:49)

Лог создания рипа

Exact Audio Copy V1.1 from 23. June 2015
EAC extraction logfile from 14. February 2016, 18:47
Scorpions / Tokyo Tapes - 50th Anniversary Deluxe Edition Bonus CD
Used drive  : HP      DVD Writer 1170d   Adapter: 1  ID: 1
Read mode               : Secure
Utilize accurate stream : Yes
Defeat audio cache      : Yes
Make use of C2 pointers : No
Read offset correction                      : 6
Overread into Lead-In and Lead-Out          : No
Fill up missing offset samples with silence : Yes
Delete leading and trailing silent blocks   : No
Null samples used in CRC calculations       : Yes
Used interface                              : Native Win32 interface for Win NT & 2000
Used output format              : User Defined Encoder
Selected bitrate                : 1024 kBit/s
Quality                         : Low
Add ID3 tag                     : No
Command line compressor         : C:\Program Files (x86)\Exact Audio Copy\FLAC\FLAC.EXE
Additional command line options : -V -8 -T "Date=%year%" -T "Genre=%genre%" -T"COMMENT=Ripped by Ungern666" -8 -V %source%
TOC of the extracted CD
     Track |   Start  |  Length  | Start sector | End sector
    ---------------------------------------------------------
        1  |  0:00.00 |  5:50.14 |         0    |    26263
        2  |  5:50.14 |  9:47.16 |     26264    |    70304
        3  | 15:37.30 |  3:52.37 |     70305    |    87741
        4  | 19:29.67 |  1:29.05 |     87742    |    94421
        5  | 20:58.72 |  7:31.73 |     94422    |   128319
        6  | 28:30.70 |  6:06.16 |    128320    |   155785
        7  | 34:37.11 | 10:48.25 |    155786    |   204410
        8  | 45:25.36 |  6:49.31 |    204411    |   235116
Range status and errors
Selected range
     Filename C:\EAC\Ungern666\Scorpions - Tokyo Tapes - 50th Anniversary Deluxe Edition Bonus CD.wav
     Peak level 99.1 %
     Extraction speed 5.6 X
     Range quality 100.0 %
     Test CRC 9F341BC7
     Copy CRC 9F341BC7
     Copy OK
No errors occurred
AccurateRip summary
Track  1  accurately ripped (confidence 4)  [BF0A762B]  (AR v2)
Track  2  accurately ripped (confidence 4)  [9109DA0C]  (AR v2)
Track  3  accurately ripped (confidence 4)  [F05AA129]  (AR v2)
Track  4  accurately ripped (confidence 4)  [0FC7B398]  (AR v2)
Track  5  accurately ripped (confidence 4)  [54B9565A]  (AR v2)
Track  6  accurately ripped (confidence 4)  [F02DF2A5]  (AR v2)
Track  7  accurately ripped (confidence 4)  [3CFBBD8C]  (AR v2)
Track  8  accurately ripped (confidence 4)  [D312E89E]  (AR v2)
All tracks accurately ripped
End of status report
---- CUETools DB Plugin V2.1.6
[CTDB TOCID: nl1iugl0Mg8MdQMtfsbdqcBpZQk-] found
Submit result: nl1iugl0Mg8MdQMtfsbdqcBpZQk- has been confirmed
Track | CTDB Status
  1   | (25/25) Accurately ripped
  2   | (25/25) Accurately ripped
  3   | (25/25) Accurately ripped
  4   | (25/25) Accurately ripped
  5   | (25/25) Accurately ripped
  6   | (25/25) Accurately ripped
  7   | (25/25) Accurately ripped
  8   | (25/25) Accurately ripped

Индексная карта (non-compilant .cue)

REM DATE 2015
REM DISCID 630C3E08
REM COMMENT "ExactAudioCopy v1.1"
PERFORMER "Scorpions"
TITLE "Tokyo Tapes - 50th Anniversary Deluxe Edition Bonus CD"
FILE "Scorpions - Tokyo Tapes - 50th Anniversary Deluxe Edition Bonus CD.flac" WAVE
  TRACK 01 AUDIO
    TITLE "Robot Man"
    PERFORMER "Scorpions"
    INDEX 01 00:00:00
  TRACK 02 AUDIO
    TITLE "Hell Cat"
    PERFORMER "Scorpions"
    INDEX 00 05:49:14
    INDEX 01 05:50:14
  TRACK 03 AUDIO
    TITLE "Catch Your Train"
    PERFORMER "Scorpions"
    INDEX 00 15:36:30
    INDEX 01 15:37:30
  TRACK 04 AUDIO
    TITLE "Kimi Ga Yo ( Japanese National Anthem)"
    PERFORMER "Scorpions"
    INDEX 00 19:28:67
    INDEX 01 19:29:67
  TRACK 05 AUDIO
    TITLE "Polar Nights"
    PERFORMER "Scorpions"
    INDEX 00 20:57:72
    INDEX 01 20:58:72
  TRACK 06 AUDIO
    TITLE "He's A Woman, She's A Man"
    PERFORMER "Scorpions"
    INDEX 00 28:29:70
    INDEX 01 28:30:70
  TRACK 07 AUDIO
    TITLE "Top Of The Bill"
    PERFORMER "Scorpions"
    INDEX 00 34:36:11
    INDEX 01 34:37:11
  TRACK 08 AUDIO
    TITLE "Robot Man"
    PERFORMER "Scorpions"
    INDEX 00 45:24:36
    INDEX 01 45:25:36

1979 - Lovedrive (BMG 538159492) || 00:50:52

01. Loving You Sunday Morning (5:35)
02. Another Piece Of Meat (3:31)
03. Always Somewhere (4:56)
04. Coast To Coast (4:45)
05. Can't Get Enough (2:37)
06. Is There Anyboby There? (3:55)
07. Lovedrive (4:50)
08. Holiday (6:36)
09. Cause I Love You (Demo) (4:33)
10. Holiday (Demo) (9:34)
-Klaus Meine – lead vocals
Matthias Jabs – lead guitar
Michael Schenker - lead guitar on 2, 4, 7
Rudolf Schenker – rhythm guitar
Francis Buchholz – bass
Herman Rarebell – drums
Production:
Dieter Dierks - producer, engineer, mixing
Steve Fallone - mastering
-

Лог создания рипа

Отчёт EAC об извлечении, выполненном 7. января 2016, 13:45 для диска:
Scorpions / Lovedrive - 50th Anniversary Edition
Дисковод: HL-DT-STDVDRAM GP57EB40   Adapter: 10  ID: 1
Режим чтения: Достоверный (C2: нет, Точный поток: да, Отключение кэша: да)
Коррекция смещения при чтении: 667
Способность читать области Lead-in и Lead-out : Нет
Выходной формат: Внутренние WAV-операции
                     44.100 Гц; 16 бит; стерео
Другие параметры:
    Заполнение пропущенных сэмплов тишиной : Да
    Удаление блоков с тишиной в начале и конце : Нет
    Встроенный Win32-интерфейс для Win NT/2000
Характеристики диапазона извлечения и сообщения об ошибках
Выбранный диапазон
     Имя файла F:\Scorpions - Lovedrive - 50th Anniversary Edition.wav
     Пиковый уровень 99.3 %
     Качество диапазона 100.0 %
     CRC A24CB315
     Копирование... OK
Ошибок не произошло
Конец отчёта

Индексная карта (non-compilant .cue)

REM GENRE "Hard Rock"
REM DATE 2015
REM DISCID 790BEC0A
REM COMMENT "ExactAudioCopy v0.95b4"
PERFORMER "Scorpions"
TITLE "Lovedrive - 50th Anniversary Edition"
FILE "Scorpions - Lovedrive - 50th Anniversary Edition.flac" WAVE
  TRACK 01 AUDIO
    TITLE "Loving You Sunday Morning"
    PERFORMER "Scorpions"
    INDEX 01 00:00:00
  TRACK 02 AUDIO
    TITLE "Another Piece Of Meat"
    PERFORMER "Scorpions"
    INDEX 01 05:35:31
  TRACK 03 AUDIO
    TITLE "Always Somewhere"
    PERFORMER "Scorpions"
    INDEX 01 09:06:14
  TRACK 04 AUDIO
    TITLE "Coast To Coast"
    PERFORMER "Scorpions"
    INDEX 00 14:00:42
    INDEX 01 14:02:02
  TRACK 05 AUDIO
    TITLE "Can't Get Enough"
    PERFORMER "Scorpions"
    INDEX 00 18:42:28
    INDEX 01 18:46:56
  TRACK 06 AUDIO
    TITLE "Is There Anyboby There?"
    PERFORMER "Scorpions"
    INDEX 00 21:21:66
    INDEX 01 21:23:66
  TRACK 07 AUDIO
    TITLE "Lovedrive"
    PERFORMER "Scorpions"
    INDEX 01 25:19:25
  TRACK 08 AUDIO
    TITLE "Holiday"
    PERFORMER "Scorpions"
    INDEX 00 30:07:62
    INDEX 01 30:09:62
  TRACK 09 AUDIO
    TITLE "Cause I Love You (Demo)"
    PERFORMER "Scorpions"
    INDEX 00 36:40:44
    INDEX 01 36:45:44
  TRACK 10 AUDIO
    TITLE "Holiday (Demo)"
    PERFORMER "Scorpions"
    INDEX 00 41:16:26
    INDEX 01 41:18:26

1980 - Animal Magnetism (BMG GmbH. SICX 30015, Japan) || 01:03:25

01. Make It Real (3:52)
02. Don't Make No Promises (Your Body Can't Keep) (2:59)
03. Hold Me Tight (4:00)
04. Twentieth Century Man (3:05)
05. Lady Starlight (6:17)
06. Falling In Love (4:12)
07. Only A Man (3:37)
08. The Zoo (5:30)
09. Animal Magnetism (5:59)
10. Hey You (vocals by Rudolf Schenker) (3:49)
11. Animal Magnetism (Demo Version) (4:32)
12. American Girls (Demo Song) (3:30)
13. Get Your Love (Demo Version Of 'Heroes Don't Cry') (3:44)
14. Restless Man (Demo Version of 'Twentieth Century Man') (3:19)
15. All Night Long (Demo Song) (5:00)
- Klaus Meine – Lead Vocals
Matthias Jabs – Lead Guitars on 1,2,4,6,7,8, Slide Guitar on 9, Talk Box on 8
Rudolf Schenker – Rhythm Guitars, Lead Guitars on 3,4,5,9, Acoustic Guitar on 5
Francis Buchholz – Bass
Herman Rarebell – Drums
Additional musicians on "Lady Starlight":
Allan Macmillan – Strings and Horns Arrangements, Conductor
Adele Arman, Victoria Richard – Violins
Paul Arman – Viola
Richard Arman – Cello
Charles Elliot – Bass
Melvin Berman – Oboe
George Stimpson, Brad Wamaar – French Horns
-

Лог создания рипа

Exact Audio Copy V1.1 from 23. June 2015
EAC extraction logfile from 18. January 2016, 15:03
SCORPIONS / Animal Magnetism - Deluxe - Japan BSCD (SICX-30015)
Used drive  : HL-DT-STBD-RE  BH10LS30   Adapter: 1  ID: 2
Read mode               : Secure
Utilize accurate stream : Yes
Defeat audio cache      : Yes
Make use of C2 pointers : No
Read offset correction                      : 667
Overread into Lead-In and Lead-Out          : No
Fill up missing offset samples with silence : Yes
Delete leading and trailing silent blocks   : No
Null samples used in CRC calculations       : Yes
Used interface                              : Native Win32 interface for Win NT & 2000
Used output format              : User Defined Encoder
Selected bitrate                : 768 kBit/s
Quality                         : High
Add ID3 tag                     : No
Command line compressor         : C:\Program Files (x86)\Exact Audio Copy\FLAC\FLAC.EXE
Additional command line options : -6 -V %source%
TOC of the extracted CD
     Track |   Start  |  Length  | Start sector | End sector
    ---------------------------------------------------------
        1  |  0:00.00 |  3:51.42 |         0    |    17366
        2  |  3:51.42 |  2:59.31 |     17367    |    30822
        3  |  6:50.73 |  3:59.40 |     30823    |    48787
        4  | 10:50.38 |  3:04.52 |     48788    |    62639
        5  | 13:55.15 |  6:16.69 |     62640    |    90908
        6  | 20:12.09 |  4:12.22 |     90909    |   109830
        7  | 24:24.31 |  3:37.31 |    109831    |   126136
        8  | 28:01.62 |  5:30.35 |    126137    |   150921
        9  | 33:32.22 |  5:58.63 |    150922    |   177834
       10  | 39:31.10 |  3:49.15 |    177835    |   195024
       11  | 43:20.25 |  4:31.46 |    195025    |   215395
       12  | 47:51.71 |  3:30.15 |    215396    |   231160
       13  | 51:22.11 |  3:43.45 |    231161    |   247930
       14  | 55:05.56 |  3:19.26 |    247931    |   262881
       15  | 58:25.07 |  4:59.44 |    262882    |   285350
Range status and errors
Selected range
     Filename E:\Música\EAC\Scorpions\Animal Magnetism\SCORPIONS - Animal Magnetism - Deluxe - Japan BSCD (SICX-30015).wav
     Peak level 99.3 %
     Extraction speed 7.8 X
     Range quality 100.0 %
     Test CRC 3901EF47
     Copy CRC 3901EF47
     Copy OK
No errors occurred
AccurateRip summary
Track  1  cannot be verified as accurate (confidence 2)  [1920D431], AccurateRip returned [A0ACC279]  (AR v2)
Track  2  cannot be verified as accurate (confidence 2)  [7B289FC8], AccurateRip returned [2DEC65F9]  (AR v2)
Track  3  cannot be verified as accurate (confidence 2)  [C1F87CBB], AccurateRip returned [F2E0647D]  (AR v2)
Track  4  cannot be verified as accurate (confidence 2)  [E1DD4306], AccurateRip returned [608FB002]  (AR v2)
Track  5  cannot be verified as accurate (confidence 2)  [F44F15D7], AccurateRip returned [5BBFB046]  (AR v2)
Track  6  cannot be verified as accurate (confidence 2)  [2B630C94], AccurateRip returned [76CB5F6F]  (AR v2)
Track  7  cannot be verified as accurate (confidence 2)  [3AF9DB9A], AccurateRip returned [7C59F459]  (AR v2)
Track  8  cannot be verified as accurate (confidence 2)  [1A4BB968], AccurateRip returned [42B77ABB]  (AR v2)
Track  9  cannot be verified as accurate (confidence 2)  [035AD77D], AccurateRip returned [250AE7AE]  (AR v2)
Track 10  cannot be verified as accurate (confidence 2)  [0C6CC26A], AccurateRip returned [0DBA47DD]  (AR v2)
Track 11  cannot be verified as accurate (confidence 2)  [A6E2E937], AccurateRip returned [309B1B70]  (AR v2)
Track 12  cannot be verified as accurate (confidence 2)  [4E0E2906], AccurateRip returned [C8C95432]  (AR v2)
Track 13  cannot be verified as accurate (confidence 2)  [80A77B8C], AccurateRip returned [6BA7E4B9]  (AR v2)
Track 14  cannot be verified as accurate (confidence 2)  [184A793A], AccurateRip returned [6EF11F4B]  (AR v2)
Track 15  cannot be verified as accurate (confidence 2)  [F5837EB6], AccurateRip returned [DF29F656]  (AR v2)
No tracks could be verified as accurate
You may have a different pressing from the one(s) in the database
End of status report
---- CUETools DB Plugin V2.1.6
[CTDB TOCID: P.7tjDLSsnvhKTUHs_bg5z54EIw-] found
Submit result: P.7tjDLSsnvhKTUHs_bg5z54EIw- has been confirmed
Track | CTDB Status
  1   | (25/25) Accurately ripped
  2   | (25/25) Accurately ripped
  3   | (25/25) Accurately ripped
  4   | (25/25) Accurately ripped
  5   | (25/25) Accurately ripped
  6   | (25/25) Accurately ripped
  7   | (25/25) Accurately ripped
  8   | (25/25) Accurately ripped
  9   | (25/25) Accurately ripped
10   | (25/25) Accurately ripped
11   | (25/25) Accurately ripped
12   | (25/25) Accurately ripped
13   | (25/25) Accurately ripped
14   | (25/25) Accurately ripped
15   | (25/25) Accurately ripped

Индексная карта (non-compilant .cue)

REM GENRE "Heavy Metal"
REM DATE 2015
REM DISCID BA0EDC0F
REM COMMENT "ExactAudioCopy v1.1"
PERFORMER "SCORPIONS"
TITLE "Animal Magnetism - Deluxe - Japan BSCD (SICX-30015)"
FILE "SCORPIONS - Animal Magnetism - Deluxe - Japan BSCD (SICX-30015).flac" WAVE
  TRACK 01 AUDIO
    TITLE "Make It Real"
    PERFORMER "SCORPIONS"
    INDEX 01 00:00:00
  TRACK 02 AUDIO
    TITLE "Don't Make No Promises (Your Body Can't Keep)"
    PERFORMER "SCORPIONS"
    INDEX 00 03:50:42
    INDEX 01 03:51:42
  TRACK 03 AUDIO
    TITLE "Hold Me Tight"
    PERFORMER "SCORPIONS"
    INDEX 00 06:49:73
    INDEX 01 06:50:73
  TRACK 04 AUDIO
    TITLE "Twentieth Century Man"
    PERFORMER "SCORPIONS"
    INDEX 00 10:49:38
    INDEX 01 10:50:38
  TRACK 05 AUDIO
    TITLE "Lady Starlight"
    PERFORMER "SCORPIONS"
    INDEX 00 13:54:15
    INDEX 01 13:55:15
  TRACK 06 AUDIO
    TITLE "Falling In Love"
    PERFORMER "SCORPIONS"
    INDEX 00 20:11:09
    INDEX 01 20:12:09
  TRACK 07 AUDIO
    TITLE "Only A Man"
    PERFORMER "SCORPIONS"
    INDEX 00 24:23:31
    INDEX 01 24:24:31
  TRACK 08 AUDIO
    TITLE "The Zoo"
    PERFORMER "SCORPIONS"
    INDEX 00 28:00:62
    INDEX 01 28:01:62
  TRACK 09 AUDIO
    TITLE "Animal Magnetism"
    PERFORMER "SCORPIONS"
    INDEX 00 33:31:23
    INDEX 01 33:32:22
  TRACK 10 AUDIO
    TITLE "Hey You (vocals by Rudolf Schenker)"
    PERFORMER "SCORPIONS"
    INDEX 00 39:30:10
    INDEX 01 39:31:10
  TRACK 11 AUDIO
    TITLE "Animal Magnetism (Demo Version)"
    PERFORMER "SCORPIONS"
    INDEX 00 43:19:25
    INDEX 01 43:20:25
  TRACK 12 AUDIO
    TITLE "American Girls (Demo Song)"
    PERFORMER "SCORPIONS"
    INDEX 00 47:50:71
    INDEX 01 47:51:71
  TRACK 13 AUDIO
    TITLE "Get Your Love (Demo Version Of 'Heroes Don't Cry')"
    PERFORMER "SCORPIONS"
    INDEX 00 51:21:11
    INDEX 01 51:22:11
  TRACK 14 AUDIO
    TITLE "Restless Man (Demo Version of 'Twentieth Century Man')"
    PERFORMER "SCORPIONS"
    INDEX 00 55:04:56
    INDEX 01 55:05:56
  TRACK 15 AUDIO
    TITLE "All Night Long (Demo Song)"
    PERFORMER "SCORPIONS"
    INDEX 00 58:24:08
    INDEX 01 58:25:07

1982 - Blackout (BMG 538159322) || 00:53:40

01. Blackout (3:51)
02. Can't Live Without You (3:49)
03. No One Like You (3:59)
04. You Give Me All I Need (3:41)
05. Now! (2:36)
06. Dynamite (4:15)
07. Arizona (3:56)
08. China White (6:59)
09. When The Smoke Is Going Down (3:52)
10. Blackout (Demo Version) (4:06)
11. Running For The Plane (Demo Version) (4:11)
12. Sugar Man (Demo Version) (4:28)
13. Searching For The Raimbow (Demo Version) (3:59)
- Klaus Meine – lead vocals
Matthias Jabs – lead, rhythm, 6-string acoustics guitars
Rudolf Schenker – rhythm, 6+12-string acoustics, lead guitars on 4,8,9, backing vocals on 1,2,8
Francis Buchholz – bass
Herman Rarebell – drums
Don Dokken - vocals on demo songs
-

Лог создания рипа

Exact Audio Copy V1.1 from 23. June 2015
EAC extraction logfile from 24. November 2015, 22:01
SCORPIONS / Blackout - Deluxe 50TH Anniversary
Used drive  : HL-DT-STBD-RE  BH10LS30   Adapter: 1  ID: 2
Read mode               : Secure
Utilize accurate stream : Yes
Defeat audio cache      : Yes
Make use of C2 pointers : No
Read offset correction                      : 667
Overread into Lead-In and Lead-Out          : No
Fill up missing offset samples with silence : Yes
Delete leading and trailing silent blocks   : No
Null samples used in CRC calculations       : Yes
Used interface                              : Native Win32 interface for Win NT & 2000
Used output format              : User Defined Encoder
Selected bitrate                : 768 kBit/s
Quality                         : High
Add ID3 tag                     : No
Command line compressor         : C:\Program Files (x86)\Exact Audio Copy\FLAC\FLAC.EXE
Additional command line options : -6 -V %source%
TOC of the extracted CD
     Track |   Start  |  Length  | Start sector | End sector
    ---------------------------------------------------------
        1  |  0:00.00 |  3:50.63 |         0    |    17312
        2  |  3:50.63 |  3:48.49 |     17313    |    34461
        3  |  7:39.37 |  3:58.65 |     34462    |    52376
        4  | 11:38.27 |  3:40.63 |     52377    |    68939
        5  | 15:19.15 |  2:35.63 |     68940    |    80627
        6  | 17:55.03 |  4:14.47 |     80628    |    99724
        7  | 22:09.50 |  3:56.13 |     99725    |   117437
        8  | 26:05.63 |  6:59.04 |    117438    |   148866
        9  | 33:04.67 |  3:51.74 |    148867    |   166265
       10  | 36:56.66 |  4:05.52 |    166266    |   184692
       11  | 41:02.43 |  4:10.55 |    184693    |   203497
       12  | 45:13.23 |  4:27.73 |    203498    |   223595
       13  | 49:41.21 |  3:59.03 |    223596    |   241523
Range status and errors
Selected range
     Filename E:\Música\EAC\Scorpions\Blackout\SCORPIONS - Blackout - Deluxe 50TH Anniversary.wav
     Peak level 99.3 %
     Extraction speed 7.9 X
     Range quality 100.0 %
     Test CRC 2AF65FF6
     Copy CRC 2AF65FF6
     Copy OK
No errors occurred
AccurateRip summary
Track  1  accurately ripped (confidence 1)  [B73B73C1]  (AR v2)
Track  2  accurately ripped (confidence 1)  [794F082E]  (AR v2)
Track  3  accurately ripped (confidence 1)  [94AF3100]  (AR v2)
Track  4  accurately ripped (confidence 1)  [48B971F9]  (AR v2)
Track  5  accurately ripped (confidence 1)  [B2F3D5C8]  (AR v2)
Track  6  accurately ripped (confidence 1)  [89C7342F]  (AR v2)
Track  7  accurately ripped (confidence 1)  [A432E930]  (AR v2)
Track  8  accurately ripped (confidence 1)  [142B408B]  (AR v2)
Track  9  accurately ripped (confidence 1)  [F965B357]  (AR v2)
Track 10  accurately ripped (confidence 1)  [860D33BB]  (AR v2)
Track 11  accurately ripped (confidence 1)  [A66202F8]  (AR v2)
Track 12  accurately ripped (confidence 1)  [468CB931]  (AR v2)
Track 13  accurately ripped (confidence 1)  [EB5DF52E]  (AR v2)
All tracks accurately ripped
End of status report
---- CUETools DB Plugin V2.1.6
[CTDB TOCID: QMW.aaB8jx2ALU72M85lTveQJZQ-] found
Submit result: QMW.aaB8jx2ALU72M85lTveQJZQ- has been confirmed
Track | CTDB Status
  1   | (7/7) Accurately ripped
  2   | (7/7) Accurately ripped
  3   | (7/7) Accurately ripped
  4   | (7/7) Accurately ripped
  5   | (6/7) Accurately ripped
  6   | (6/7) Accurately ripped
  7   | (6/7) Accurately ripped
  8   | (6/7) Accurately ripped
  9   | (6/7) Accurately ripped
10   | (6/7) Accurately ripped
11   | (6/7) Accurately ripped
12   | (6/7) Accurately ripped
13   | (6/7) Accurately ripped

Индексная карта (non-compilant .cue)

REM GENRE Hard Rock
REM DATE 2015
REM DISCID AB0C940D
REM COMMENT ExactAudioCopy v1.1
PERFORMER "Scorpions"
TITLE "Blackout - Deluxe 50TH Anniversary"
FILE "SCORPIONS - Blackout - Deluxe 50TH Anniversary.flac" WAVE
  TRACK 01 AUDIO
    TITLE "Blackout"
    PERFORMER "Scorpions"
    INDEX 01 00:00:00
  TRACK 02 AUDIO
    TITLE "Can't Live Without You"
    PERFORMER "Scorpions"
    INDEX 00 03:49:63
    INDEX 01 03:50:63
  TRACK 03 AUDIO
    TITLE "No One Like You"
    PERFORMER "Scorpions"
    INDEX 00 07:38:37
    INDEX 01 07:39:37
  TRACK 04 AUDIO
    TITLE "You Give Me All I Need"
    PERFORMER "Scorpions"
    INDEX 00 11:37:27
    INDEX 01 11:38:27
  TRACK 05 AUDIO
    TITLE "Now!"
    PERFORMER "Scorpions"
    INDEX 00 15:18:15
    INDEX 01 15:19:15
  TRACK 06 AUDIO
    TITLE "Dynamite"
    PERFORMER "Scorpions"
    INDEX 00 17:54:03
    INDEX 01 17:55:03
  TRACK 07 AUDIO
    TITLE "Arizona"
    PERFORMER "Scorpions"
    INDEX 00 22:08:50
    INDEX 01 22:09:50
  TRACK 08 AUDIO
    TITLE "China White"
    PERFORMER "Scorpions"
    INDEX 00 26:04:63
    INDEX 01 26:05:63
  TRACK 09 AUDIO
    TITLE "When The Smoke Is Going Down"
    PERFORMER "Scorpions"
    INDEX 00 33:03:67
    INDEX 01 33:04:67
  TRACK 10 AUDIO
    TITLE "Blackout (Demo Version)"
    PERFORMER "Scorpions"
    INDEX 00 36:55:66
    INDEX 01 36:56:66
  TRACK 11 AUDIO
    TITLE "Running For The Plane (Demo Version)"
    PERFORMER "Scorpions"
    INDEX 00 41:01:43
    INDEX 01 41:02:43
  TRACK 12 AUDIO
    TITLE "Sugar Man (Demo Version)"
    PERFORMER "Scorpions"
    INDEX 00 45:12:23
    INDEX 01 45:13:23
  TRACK 13 AUDIO
    TITLE "Searching For The Raimbow (Demo Version)"
    PERFORMER "Scorpions"
    INDEX 00 49:40:02
    INDEX 01 49:41:21

1984 - Love At First Sting (BMG 538159342)

CD 1 || 01:01:29

01. Bad Boys Running Wild (3:57)
02. Rock You Like A Hurricane (4:14)
03. I'm Leaving You (4:17)
04. Coming Home (5:00)
05. The Same Thrill (3:34)
06. Big City Nights (4:09)
07. As Soon As The Good Times Roll (5:04)
08. Crossfire (4:32)
09. Still Loving You (6:29)
10. Coming Home (Demo Version) (3:23)
11. Living At Night (Demo Song) (4:16)
12. First Sting Jam (Demo) (1:28)
13. Anytime (You Want It) (Demo Song) (5:19)
14. Still Loving You (Demo Version) (5:48)
-Юбилейное переиздание на 2-х CD девятого студийного альбома, вышедшего в 1984 году и ставшего одним из самых успешных альбомов в истории группы, - в Америке диск стал платиновым.
Klaus Meine – lead vocals
Matthias Jabs – lead, rhythm guitars
Rudolf Schenker – rhythm, lead guitars on 6,7,9, backing vocals on 2,3,8
Francis Buchholz – bass, moog taurus
Herman Rarebell – drums
-

Лог создания рипа

Exact Audio Copy V1.1 from 23. June 2015
EAC extraction logfile from 26. November 2015, 12:42
SCORPIONS / Love At First Sting - Deluxe 50TH Anniversary - CD 1
Used drive  : HL-DT-STBD-RE  BH10LS30   Adapter: 1  ID: 2
Read mode               : Secure
Utilize accurate stream : Yes
Defeat audio cache      : Yes
Make use of C2 pointers : No
Read offset correction                      : 667
Overread into Lead-In and Lead-Out          : No
Fill up missing offset samples with silence : Yes
Delete leading and trailing silent blocks   : No
Null samples used in CRC calculations       : Yes
Used interface                              : Native Win32 interface for Win NT & 2000
Used output format              : User Defined Encoder
Selected bitrate                : 768 kBit/s
Quality                         : High
Add ID3 tag                     : No
Command line compressor         : C:\Program Files (x86)\Exact Audio Copy\FLAC\FLAC.EXE
Additional command line options : -6 -V %source%
TOC of the extracted CD
     Track |   Start  |  Length  | Start sector | End sector
    ---------------------------------------------------------
        1  |  0:00.00 |  3:56.39 |         0    |    17738
        2  |  3:56.39 |  4:13.50 |     17739    |    36763
        3  |  8:10.14 |  4:16.54 |     36764    |    56017
        4  | 12:26.68 |  4:59.64 |     56018    |    78506
        5  | 17:26.57 |  3:34.15 |     78507    |    94571
        6  | 21:00.72 |  4:09.11 |     94572    |   113257
        7  | 25:10.08 |  5:04.07 |    113258    |   136064
        8  | 30:14.15 |  4:32.27 |    136065    |   156491
        9  | 34:46.42 |  6:28.46 |    156492    |   185637
       10  | 41:15.13 |  3:22.73 |    185638    |   200860
       11  | 44:38.11 |  4:16.15 |    200861    |   220075
       12  | 48:54.26 |  1:27.65 |    220076    |   226665
       13  | 50:22.16 |  5:18.58 |    226666    |   250573
       14  | 55:40.74 |  5:47.46 |    250574    |   276644
Range status and errors
Selected range
     Filename E:\Música\EAC\Scorpions\Love At First Sting\SCORPIONS - Love At First Sting - Deluxe 50TH Anniversary - CD 1.wav
     Peak level 99.3 %
     Extraction speed 8.1 X
     Range quality 100.0 %
     Test CRC D8021AF9
     Copy CRC D8021AF9
     Copy OK
No errors occurred
AccurateRip summary
Track  1  not present in database
Track  2  not present in database
Track  3  not present in database
Track  4  not present in database
Track  5  not present in database
Track  6  not present in database
Track  7  not present in database
Track  8  not present in database
Track  9  not present in database
Track 10  not present in database
Track 11  not present in database
Track 12  not present in database
Track 13  not present in database
Track 14  not present in database
None of the tracks are present in the AccurateRip database
End of status report
---- CUETools DB Plugin V2.1.6
[CTDB TOCID: yTRGdjqSmxgwWFh5g5I2NOm4eKE-] found
Submit result: yTRGdjqSmxgwWFh5g5I2NOm4eKE- has been confirmed
Track | CTDB Status
  1   | (6/6) Accurately ripped
  2   | (6/6) Accurately ripped
  3   | (6/6) Accurately ripped
  4   | (6/6) Accurately ripped
  5   | (6/6) Accurately ripped
  6   | (6/6) Accurately ripped
  7   | (6/6) Accurately ripped
  8   | (6/6) Accurately ripped
  9   | (6/6) Accurately ripped
10   | (6/6) Accurately ripped
11   | (6/6) Accurately ripped
12   | (6/6) Accurately ripped
13   | (6/6) Accurately ripped
14   | (6/6) Accurately ripped

Индексная карта (non-compilant .cue)

REM GENRE "Hard Rock"
REM DATE 2015
REM DISCID C10E680E
REM COMMENT "ExactAudioCopy v1.1"
PERFORMER "SCORPIONS"
TITLE "Love At First Sting - Deluxe 50TH Anniversary - CD 1"
FILE "SCORPIONS - Love At First Sting - Deluxe 50TH Anniversary - CD 1.flac" WAVE
  TRACK 01 AUDIO
    TITLE "Bad Boys Running Wild"
    PERFORMER "SCORPIONS"
    INDEX 01 00:00:00
  TRACK 02 AUDIO
    TITLE "Rock You Like A Hurricane"
    PERFORMER "SCORPIONS"
    INDEX 00 03:56:01
    INDEX 01 03:56:39
  TRACK 03 AUDIO
    TITLE "I'm Leaving You"
    PERFORMER "SCORPIONS"
    INDEX 00 08:09:51
    INDEX 01 08:10:14
  TRACK 04 AUDIO
    TITLE "Coming Home"
    PERFORMER "SCORPIONS"
    INDEX 00 12:26:30
    INDEX 01 12:26:68
  TRACK 05 AUDIO
    TITLE "The Same Thrill"
    PERFORMER "SCORPIONS"
    INDEX 00 17:26:19
    INDEX 01 17:26:57
  TRACK 06 AUDIO
    TITLE "Big City Nights"
    PERFORMER "SCORPIONS"
    INDEX 00 21:00:34
    INDEX 01 21:00:72
  TRACK 07 AUDIO
    TITLE "As Soon As The Good Times Roll"
    PERFORMER "SCORPIONS"
    INDEX 00 25:09:45
    INDEX 01 25:10:08
  TRACK 08 AUDIO
    TITLE "Crossfire"
    PERFORMER "SCORPIONS"
    INDEX 00 30:13:52
    INDEX 01 30:14:15
  TRACK 09 AUDIO
    TITLE "Still Loving You"
    PERFORMER "SCORPIONS"
    INDEX 00 34:46:04
    INDEX 01 34:46:42
  TRACK 10 AUDIO
    TITLE "Coming Home (Demo Version)"
    PERFORMER "SCORPIONS"
    INDEX 00 41:14:50
    INDEX 01 41:15:13
  TRACK 11 AUDIO
    TITLE "Living At Night (Demo Song)"
    PERFORMER "SCORPIONS"
    INDEX 00 44:37:48
    INDEX 01 44:38:11
  TRACK 12 AUDIO
    TITLE "First Sting Jam (Demo)"
    PERFORMER "SCORPIONS"
    INDEX 00 48:53:63
    INDEX 01 48:54:26
  TRACK 13 AUDIO
    TITLE "Anytime (You Want It) (Demo Song)"
    PERFORMER "SCORPIONS"
    INDEX 00 50:21:53
    INDEX 01 50:22:16
  TRACK 14 AUDIO
    TITLE "Still Loving You (Demo Version)"
    PERFORMER "SCORPIONS"
    INDEX 00 55:40:36
    INDEX 01 55:40:74

Bonus CD || 00:53:08

01. Countdown (1:59)
02. Coming Home (3:11)
03. Blackout (3:48)
04. Bad Boys Running Wild (4:12)
05. Loving You Sunday Morning (4:45)
06. Big City Nights (5:14)
07. Coast To Coast (4:58)
08. Still Loving You (5:52)
09. Rock You Like A Hurricane (4:21)
10. The Zoo (8:06)
11. Dynamite (6:41)

Лог создания рипа

Exact Audio Copy V1.1 from 23. June 2015
EAC extraction logfile from 26. November 2015, 12:07
SCORPIONS / Love At First Sting - Deluxe 50TH Anniversary - Bonus CD. Live At The Madison Square Garden
Used drive  : HL-DT-STBD-RE  BH10LS30   Adapter: 1  ID: 2
Read mode               : Secure
Utilize accurate stream : Yes
Defeat audio cache      : Yes
Make use of C2 pointers : No
Read offset correction                      : 667
Overread into Lead-In and Lead-Out          : No
Fill up missing offset samples with silence : Yes
Delete leading and trailing silent blocks   : No
Null samples used in CRC calculations       : Yes
Used interface                              : Native Win32 interface for Win NT & 2000
Used output format              : User Defined Encoder
Selected bitrate                : 768 kBit/s
Quality                         : High
Add ID3 tag                     : No
Command line compressor         : C:\Program Files (x86)\Exact Audio Copy\FLAC\FLAC.EXE
Additional command line options : -6 -V %source%
TOC of the extracted CD
     Track |   Start  |  Length  | Start sector | End sector
    ---------------------------------------------------------
        1  |  0:00.00 |  1:58.67 |         0    |     8916
        2  |  1:58.67 |  3:11.34 |      8917    |    23275
        3  |  5:10.26 |  3:48.37 |     23276    |    40412
        4  |  8:58.63 |  4:11.62 |     40413    |    59299
        5  | 13:10.50 |  4:45.00 |     59300    |    80674
        6  | 17:55.50 |  5:14.08 |     80675    |   104232
        7  | 23:09.58 |  4:58.22 |    104233    |   126604
        8  | 28:08.05 |  5:52.28 |    126605    |   153032
        9  | 34:00.33 |  4:20.52 |    153033    |   172584
       10  | 38:21.10 |  8:05.67 |    172585    |   209026
       11  | 46:27.02 |  6:41.07 |    209027    |   239108
Range status and errors
Selected range
     Filename E:\Música\EAC\Scorpions\Love At First Sting\SCORPIONS - Love At First Sting - Deluxe 50TH Anniversary - Bonus CD. Live At The Madison Square Garden.wav
     Peak level 98.8 %
     Extraction speed 7.8 X
     Range quality 100.0 %
     Test CRC 865F4141
     Copy CRC 865F4141
     Copy OK
No errors occurred
AccurateRip summary
Track  1  not present in database
Track  2  not present in database
Track  3  not present in database
Track  4  not present in database
Track  5  not present in database
Track  6  not present in database
Track  7  not present in database
Track  8  not present in database
Track  9  not present in database
Track 10  not present in database
Track 11  not present in database
None of the tracks are present in the AccurateRip database
End of status report
---- CUETools DB Plugin V2.1.6
[CTDB TOCID: 1BJLkAtDqRVv6rM8YIz.byrTv4Y-] found
Submit result: 1BJLkAtDqRVv6rM8YIz.byrTv4Y- has been confirmed
Track | CTDB Status
  1   | (7/7) Accurately ripped
  2   | (7/7) Accurately ripped
  3   | (7/7) Accurately ripped
  4   | (7/7) Accurately ripped
  5   | (7/7) Accurately ripped
  6   | (7/7) Accurately ripped
  7   | (7/7) Accurately ripped
  8   | (7/7) Accurately ripped
  9   | (7/7) Accurately ripped
10   | (7/7) Accurately ripped
11   | (7/7) Accurately ripped

Индексная карта (non-compilant .cue)

REM GENRE "Hard Rock"
REM DATE 2015
REM DISCID 7D0C740B
REM COMMENT "ExactAudioCopy v1.1"
PERFORMER "SCORPIONS"
TITLE "Love At First Sting - Deluxe 50TH Anniversary - Bonus CD. Live At The Madison..."
FILE "SCORPIONS - Love At First Sting - Deluxe 50TH Anniversary - Bonus CD. Live At The Madison Square Garden.flac" WAVE
  TRACK 01 AUDIO
    TITLE "Countdown"
    PERFORMER "SCORPIONS"
    INDEX 01 00:00:00
  TRACK 02 AUDIO
    TITLE "Coming Home"
    PERFORMER "SCORPIONS"
    INDEX 01 01:58:67
  TRACK 03 AUDIO
    TITLE "Blackout"
    PERFORMER "SCORPIONS"
    INDEX 01 05:10:26
  TRACK 04 AUDIO
    TITLE "Bad Boys Running Wild"
    PERFORMER "SCORPIONS"
    INDEX 01 08:58:63
  TRACK 05 AUDIO
    TITLE "Loving You Sunday Morning"
    PERFORMER "SCORPIONS"
    INDEX 01 13:10:50
  TRACK 06 AUDIO
    TITLE "Big City Nights"
    PERFORMER "SCORPIONS"
    INDEX 01 17:55:50
  TRACK 07 AUDIO
    TITLE "Coast To Coast"
    PERFORMER "SCORPIONS"
    INDEX 01 23:09:58
  TRACK 08 AUDIO
    TITLE "Still Loving You"
    PERFORMER "SCORPIONS"
    INDEX 01 28:08:05
  TRACK 09 AUDIO
    TITLE "Rock You Like A Hurricane"
    PERFORMER "SCORPIONS"
    INDEX 01 34:00:33
  TRACK 10 AUDIO
    TITLE "The Zoo"
    PERFORMER "SCORPIONS"
    INDEX 01 38:21:10
  TRACK 11 AUDIO
    TITLE "Dynamite"
    PERFORMER "SCORPIONS"
    INDEX 01 46:27:02

1985 - World Wide Live (BMG 538159522) || 01:19:04

01. Countdown (0:41)
02. Coming Home (3:17)
03. Blackout (4:04)
04. Bad Boys Running Wild (3:53)
05. Loving You Sunday Morning (4:42)
06. Make It Real (3:49)
07. Big City Nights (4:59)
08. Coast To Coast (5:13)
09. Holiday (3:23)
10. Still Loving You (5:50)
11. Rock You Like A Hurricane (4:15)
12. Can't Live Without You (5:33)
13. Another Piece Of Meat (3:36)
14. Dynamite (7:18)
15. The Zoo (5:54)
16. No One Like You (4:10)
17. Can't Get Enough, Pt. 1 (2:17)
18. Six String Sting (4:16)
19. Can't Get Enough, Pt. 2 (1:55)
-Klaus Meine - lead vocals, rhythm guitar on track 8
Matthias Jabs - lead and rhythm guitars, voice-box, backing vocals
Rudolf Schenker - rhythm guitar, lead guitar on tracks 7, 8, 9, 10, backing vocals
Francis Buchholz - bass, backing vocals
Herman Rarebell - drums, percussion, backing vocals
-

Лог создания рипа

Exact Audio Copy V1.1 from 23. June 2015
EAC extraction logfile from 13. November 2015, 14:19
SCORPIONS / World Wide Live - Deluxe 50TH Anniversary
Used drive  : HL-DT-STBD-RE  BH10LS30   Adapter: 1  ID: 2
Read mode               : Secure
Utilize accurate stream : Yes
Defeat audio cache      : Yes
Make use of C2 pointers : No
Read offset correction                      : 667
Overread into Lead-In and Lead-Out          : No
Fill up missing offset samples with silence : Yes
Delete leading and trailing silent blocks   : No
Null samples used in CRC calculations       : Yes
Used interface                              : Native Win32 interface for Win NT & 2000
Used output format              : User Defined Encoder
Selected bitrate                : 768 kBit/s
Quality                         : High
Add ID3 tag                     : No
Command line compressor         : C:\Program Files (x86)\Exact Audio Copy\FLAC\FLAC.EXE
Additional command line options : -6 -V %source%
TOC of the extracted CD
     Track |   Start  |  Length  | Start sector | End sector
    ---------------------------------------------------------
        1  |  0:00.00 |  0:41.20 |         0    |     3094
        2  |  0:41.20 |  3:17.06 |      3095    |    17875
        3  |  3:58.26 |  4:04.29 |     17876    |    36204
        4  |  8:02.55 |  3:52.53 |     36205    |    53657
        5  | 11:55.33 |  4:41.39 |     53658    |    74771
        6  | 16:36.72 |  3:49.24 |     74772    |    91970
        7  | 20:26.21 |  4:58.54 |     91971    |   114374
        8  | 25:25.00 |  5:12.62 |    114375    |   137836
        9  | 30:37.62 |  3:23.09 |    137837    |   153070
       10  | 34:00.71 |  5:49.45 |    153071    |   179290
       11  | 39:50.41 |  4:15.18 |    179291    |   198433
       12  | 44:05.59 |  5:32.56 |    198434    |   223389
       13  | 49:38.40 |  3:36.33 |    223390    |   239622
       14  | 53:14.73 |  7:18.17 |    239623    |   272489
       15  | 60:33.15 |  5:53.59 |    272490    |   299023
       16  | 66:26.74 |  4:09.39 |    299024    |   317737
       17  | 70:36.38 |  2:16.58 |    317738    |   327995
       18  | 72:53.21 |  4:15.66 |    327996    |   347186
       19  | 77:09.12 |  1:55.21 |    347187    |   355832
Range status and errors
Selected range
     Filename E:\Música\EAC\Scorpions\World Wide Live\SCORPIONS - World Wide Live - Deluxe 50TH Anniversary.wav
     Peak level 100.0 %
     Extraction speed 8.2 X
     Range quality 100.0 %
     Test CRC 74CAB081
     Copy CRC 74CAB081
     Copy OK
No errors occurred
AccurateRip summary
Track  1  not present in database
Track  2  not present in database
Track  3  not present in database
Track  4  not present in database
Track  5  not present in database
Track  6  not present in database
Track  7  not present in database
Track  8  not present in database
Track  9  not present in database
Track 10  not present in database
Track 11  not present in database
Track 12  not present in database
Track 13  not present in database
Track 14  not present in database
Track 15  not present in database
Track 16  not present in database
Track 17  not present in database
Track 18  not present in database
Track 19  not present in database
None of the tracks are present in the AccurateRip database
End of status report
---- CUETools DB Plugin V2.1.6
[CTDB TOCID: DArHWEY7tTfoYefQOZIztoFLbvo-] found
Submit result: DArHWEY7tTfoYefQOZIztoFLbvo- has been confirmed
Track | CTDB Status
  1   | (5/5) Accurately ripped
  2   | (5/5) Accurately ripped
  3   | (5/5) Accurately ripped
  4   | (5/5) Accurately ripped
  5   | (5/5) Accurately ripped
  6   | (5/5) Accurately ripped
  7   | (5/5) Accurately ripped
  8   | (5/5) Accurately ripped
  9   | (5/5) Accurately ripped
10   | (5/5) Accurately ripped
11   | (5/5) Accurately ripped
12   | (5/5) Accurately ripped
13   | (5/5) Accurately ripped
14   | (5/5) Accurately ripped
15   | (5/5) Accurately ripped
16   | (5/5) Accurately ripped
17   | (5/5) Accurately ripped
18   | (5/5) Accurately ripped
19   | (5/5) Accurately ripped

Индексная карта (non-compilant .cue)

REM GENRE "Hard Rock"
REM DATE 1986
REM DISCID 2A128813
REM COMMENT "ExactAudioCopy v1.1"
PERFORMER "SCORPIONS"
TITLE "World Wide Live - Deluxe 50TH Anniversary"
FILE "SCORPIONS - World Wide Live - Deluxe 50TH Anniversary.flac" WAVE
  TRACK 01 AUDIO
    TITLE "Countdown"
    PERFORMER "SCORPIONS"
    INDEX 01 00:00:00
  TRACK 02 AUDIO
    TITLE "Coming Home"
    PERFORMER "SCORPIONS"
    INDEX 01 00:41:20
  TRACK 03 AUDIO
    TITLE "Blackout"
    PERFORMER "SCORPIONS"
    INDEX 01 03:58:26
  TRACK 04 AUDIO
    TITLE "Bad Boys Running Wild"
    PERFORMER "SCORPIONS"
    INDEX 01 08:02:55
  TRACK 05 AUDIO
    TITLE "Loving You Sunday Morning"
    PERFORMER "SCORPIONS"
    INDEX 01 11:55:33
  TRACK 06 AUDIO
    TITLE "Make It Real"
    PERFORMER "SCORPIONS"
    INDEX 01 16:36:72
  TRACK 07 AUDIO
    TITLE "Big City Nights"
    PERFORMER "SCORPIONS"
    INDEX 01 20:26:21
  TRACK 08 AUDIO
    TITLE "Coast To Coast"
    PERFORMER "SCORPIONS"
    INDEX 01 25:25:00
  TRACK 09 AUDIO
    TITLE "Holiday"
    PERFORMER "SCORPIONS"
    INDEX 01 30:37:62
  TRACK 10 AUDIO
    TITLE "Still Loving You"
    PERFORMER "SCORPIONS"
    INDEX 01 34:00:71
  TRACK 11 AUDIO
    TITLE "Rock You Like A Hurricane"
    PERFORMER "SCORPIONS"
    INDEX 01 39:50:41
  TRACK 12 AUDIO
    TITLE "Can't Live Without You"
    PERFORMER "SCORPIONS"
    INDEX 01 44:05:59
  TRACK 13 AUDIO
    TITLE "Another Piece Of Meat"
    PERFORMER "SCORPIONS"
    INDEX 01 49:38:40
  TRACK 14 AUDIO
    TITLE "Dynamite"
    PERFORMER "SCORPIONS"
    INDEX 01 53:14:73
  TRACK 15 AUDIO
    TITLE "The Zoo"
    PERFORMER "SCORPIONS"
    INDEX 01 60:33:15
  TRACK 16 AUDIO
    TITLE "No One Like You"
    PERFORMER "SCORPIONS"
    INDEX 01 66:26:74
  TRACK 17 AUDIO
    TITLE "Can't Get Enough, Pt. 1"
    PERFORMER "SCORPIONS"
    INDEX 01 70:36:38
  TRACK 18 AUDIO
    TITLE "Six String Sting"
    PERFORMER "SCORPIONS"
    INDEX 01 72:53:21
  TRACK 19 AUDIO
    TITLE "Can't Get Enough, Pt. 2"
    PERFORMER "SCORPIONS"
    INDEX 01 77:09:12

1988 - Savage Amusement (BMG 538159432) || 01:00:40

01. Don't Top At The Top (4:03)
02. Rhythm Of Love (3:51)
03. Passion Rules The Game (4:00)
04. Media Overkill (3:34)
05. Walking On The Edge (5:09)
06. We Let It Rock.. You Let It Roll (3:41)
07. Every Minute Every Day (4:23)
08. Love On The Run (3:39)
09. Believe In Love (5:24)
10. Taste Of Love (Demo Song) (4:38)
11. Edge Of Time (Demo Version) (3:42)
12. Fast And Furious (Demo) (3:11)
13. Dancing With The Moonlight (Demo Song Version) (3:09)
14. Living For Tomorrow (Demo Song) (3:39)
15. I Can't Explain (4:37)
-Klaus Meine - lead & backing vocals
Matthias Jabs - lead, rhythm & acoustic guitars, voice-box
Rudolf Schenker - rhythm, lead, slide & acoustic guitars, backing vocals
Francis Buchholz - bass
Herman Rarebell - drums
-

Лог создания рипа

Exact Audio Copy V1.0 beta 3 from 29. August 2011
Отчёт EAC об извлечении, выполненном 20. ноября 2015, 16:02
Scorpions / Savage Amusement(50th Anniversary Deluxe Edition)
Дисковод: hp      DVD-RAM UJ8B1   Adapter: 0  ID: 0
Режим чтения                 : Достоверность
Использование точного потока : Да
Отключение кэша аудио        : Да
Использование указателей C2  : Нет
Коррекция смещения при чтении                     : 6
Способность читать области Lead-in и Lead-out     : Нет
Заполнение пропущенных сэмплов тишиной            : Да
Удаление блоков с тишиной в начале и конце        : Нет
При вычислениях CRC использовались нулевые сэмплы : Да
Интерфейс                                         : Встроенный Win32-интерфейс для Win NT/2000
Выходной формат          : Пользовательский кодировщик
Выбранный битрейт        : 128 kBit/s
Качество                 : Высокий
Добавление ID3-тега      : Нет
Утилита сжатия           : C:\Program Files (x86)\Exact Audio Copy\Flac\flac.exe
Дополнительные параметры : -V -8 -T "Date=%year%" -T "Genre=%genre%" %source%
TOC извлечённого CD
     Трек |   Старт  | Длительность | Начальный сектор | Конечный сектор
    ---------------------------------------------------------------------
       1  |  0:00.00 |    4:03.28   |           0      |      18252
       2  |  4:03.28 |    3:50.51   |       18253      |      35553
       3  |  7:54.04 |    4:00.02   |       35554      |      53555
       4  | 11:54.06 |    3:34.20   |       53556      |      69625
       5  | 15:28.26 |    5:09.27   |       69626      |      92827
       6  | 20:37.53 |    3:40.43   |       92828      |     109370
       7  | 24:18.21 |    4:23.24   |      109371      |     129119
       8  | 28:41.45 |    3:39.10   |      129120      |     145554
       9  | 32:20.55 |    5:23.46   |      145555      |     169825
      10  | 37:44.26 |    4:37.57   |      169826      |     190657
      11  | 42:22.08 |    3:42.04   |      190658      |     207311
      12  | 46:04.12 |    3:11.16   |      207312      |     221652
      13  | 49:15.28 |    3:09.20   |      221653      |     235847
      14  | 52:24.48 |    3:38.44   |      235848      |     252241
      15  | 56:03.17 |    4:36.61   |      252242      |     273002
Характеристики диапазона извлечения и сообщения об ошибках
Выбранный диапазон
     Имя файла E:\РАЗДАЧИ\Папки\Scorpions - Savage Amusement\Scorpions - Savage Amusement(50th Anniversary Deluxe Edition).wav
     Пиковый уровень 99.3 %
     Скорость извлечения 2.0 X
     Качество диапазона 99.9 %
     CRC теста DCF03B18
     CRC копии DCF03B18
     Копирование... OK
Ошибок не произошло
AccurateRip: сводка
Трек  1  отсутствует в базе данных
Трек  2  отсутствует в базе данных
Трек  3  отсутствует в базе данных
Трек  4  отсутствует в базе данных
Трек  5  отсутствует в базе данных
Трек  6  отсутствует в базе данных
Трек  7  отсутствует в базе данных
Трек  8  отсутствует в базе данных
Трек  9  отсутствует в базе данных
Трек 10  отсутствует в базе данных
Трек 11  отсутствует в базе данных
Трек 12  отсутствует в базе данных
Трек 13  отсутствует в базе данных
Трек 14  отсутствует в базе данных
Трек 15  отсутствует в базе данных
Ни одного трека нет в базе AccurateRip
Конец отчёта

Индексная карта (non-compilant .cue)

REM GENRE "Hard Rock"
REM DATE 2015
REM DISCID D90E380F
REM COMMENT "ExactAudioCopy v1.0b3"
PERFORMER "Scorpions"
TITLE "Savage Amusement(50th Anniversary Deluxe Edition)"
FILE "Scorpions - Savage Amusement(50th Anniversary Deluxe Edition).flac" WAVE
  TRACK 01 AUDIO
    TITLE "Don't Top At The Top"
    PERFORMER "Scorpions"
    INDEX 01 00:00:00
  TRACK 02 AUDIO
    TITLE "Rhythm Of Love"
    PERFORMER "Scorpions"
    INDEX 00 04:02:65
    INDEX 01 04:03:28
  TRACK 03 AUDIO
    TITLE "Passion Rules The Game"
    PERFORMER "Scorpions"
    INDEX 00 07:53:41
    INDEX 01 07:54:04
  TRACK 04 AUDIO
    TITLE "Media Overkill"
    PERFORMER "Scorpions"
    INDEX 00 11:53:43
    INDEX 01 11:54:06
  TRACK 05 AUDIO
    TITLE "Walking On The Edge"
    PERFORMER "Scorpions"
    INDEX 00 15:27:63
    INDEX 01 15:28:26
  TRACK 06 AUDIO
    TITLE "We Let It Rock.. You Let It Roll"
    PERFORMER "Scorpions"
    INDEX 00 20:37:15
    INDEX 01 20:37:53
  TRACK 07 AUDIO
    TITLE "Every Minute Every Day"
    PERFORMER "Scorpions"
    INDEX 00 24:17:58
    INDEX 01 24:18:21
  TRACK 08 AUDIO
    TITLE "Love On The Run"
    PERFORMER "Scorpions"
    INDEX 00 28:41:07
    INDEX 01 28:41:45
  TRACK 09 AUDIO
    TITLE "Believe In Love"
    PERFORMER "Scorpions"
    INDEX 00 32:20:17
    INDEX 01 32:20:55
  TRACK 10 AUDIO
    TITLE "Taste Of Love (Demo Song)"
    PERFORMER "Scorpions"
    INDEX 00 37:43:63
    INDEX 01 37:44:26
  TRACK 11 AUDIO
    TITLE "Edge Of Time (Demo Version)"
    PERFORMER "Scorpions"
    INDEX 00 42:21:45
    INDEX 01 42:22:08
  TRACK 12 AUDIO
    TITLE "Fast And Furious (Demo)"
    PERFORMER "Scorpions"
    INDEX 00 46:03:49
    INDEX 01 46:04:12
  TRACK 13 AUDIO
    TITLE "Dancing With The Moonlight (Demo Song Version)"
    PERFORMER "Scorpions"
    INDEX 00 49:14:65
    INDEX 01 49:15:28
  TRACK 14 AUDIO
    TITLE "Living For Tomorrow (Demo Song)"
    PERFORMER "Scorpions"
    INDEX 00 52:24:10
    INDEX 01 52:24:48
  TRACK 15 AUDIO
    TITLE "I Can't Explain"
    PERFORMER "Scorpions"
    INDEX 00 56:02:54
    INDEX 01 56:03:17
--
[Профиль] [ЛС]
Показать сообщения:    

Текущее время: Сегодня 16:21

Часовой пояс: GMT



Вы не можете начинать темы
Вы не можете отвечать на сообщения
Вы не можете редактировать свои сообщения
Вы не можете удалять свои сообщения
Вы не можете голосовать в опросах
Вы не можете прикреплять файлы к сообщениям
Вы не можете скачивать файлы