(Heavy Metal) Saxon - The Eagle Has Landed 40 Live (3CD) - 2019 [FLAC, image +.cue, lossless]

 
Author Message

sergej644 ®

Gender:

Longevity: 7 years 9 months

Posts: 7281

Location: Klaipeda



: 9 ()

Top Seeder 5 (1) Mega Seeder 4 (1) Mega Seeder 1 (1)
Торрент-статистика

Post 14-Sep-2019 16:52

[Quote]

-Saxon - The Eagle Has Landed 40 Live (3CD)--
Год издания: 2019
Страна: UK
Жанр: Heavy Metal
Продолжительность: 03:06:38-Лейбл издания: Silver Lining Music
Страна-выпуска диска: EU
Номер по каталогу: SLM076P02-Формат: FLAC
Битрейт аудио: Lossless
Тип рипа: image +.cue
Наличие сканов в содержимом раздачи: да
-

Трэклист

CD 1 | 01:14:10


01. State of Grace (Berlin 2007) (5:19)
02. Red Star Falling (Berlin 2007) (6:18)
03. Attila the Hun (Berlin 2007) (8:14)
04. If I Was You (Sheffield 2007) (3:15)
05. Witchfinder General (Berlin 2009) (4:21)
06. Demon Sweeney Todd (Berlin 2009) (3:59)
07. The Letter + Valley of the Kings (London 2009) (6:05)
08. Machine Gun (London 2009) (3:38)
09. Live to Rock (Berlin 2009) (4:29)
10. Hammer of the Gods (Berlin 2011) (4:16)
11. Back in '79 (Berlin 2011) (3:10)
12. I've Got to Rock (To Stay Alive) (Berlin 2011) (4:34)
13. Call to Arms (Berlin 2011) (4:26)
14. Rock 'n' Roll Gypsy (Berlin 2011) (4:34)
15. Chasing the Bullet (Berlin 2011) (4:26)
16. Play It Loud (Berlin 2011) (3:04)

CD 2 | 00:59:30


01. Sacrifice (BYH Balingen 2013) (4:09)
02. Night of the Wolf (BYH Balingen 2013) (3:39)
03. Conquistador + Drum Solo (BYH Balingen 2013) (7:31)
04. Stand Up and Fight (BYH Balingen 2013) (4:23)
05. Crusader (Wacken Open Air 2014) (7:56)
06. Battalions of Steel (Wacken Open Air 2014) (4:24)
07. The Eagle Has Landed (Wacken Open Air 2014) (6:27)
08. Power and the Glory (Wacken Open Air 2014) (4:59)
09. Dallas 1pm (Wacken Open Air 2014) (6:20)
10. Princess of the Night (Wacken Open Air 2014) (3:58)
11. Denim and Leather (Wacken Open Air 2014) (5:45)

CD 3 | 00:52:58


01. Eye of the Storm (Zoetemeer 2015) (3:38)
02. 747 (Strangers in the Night) (Helsinki 2015) (5:26)
03. Killing Ground (London 2016) (4:16)
04. Ace of Spades (London 2016) (3:05)
05. 20,000 FT (San Antonio 2018) (3:39)
06. Thunderbolt (San Antonio 2018) (4:36)
07. Sons of Odin (Los Angeles 2018) (3:29)
08. This Town Rocks (Los Angeles 2018) (4:14)
09. Nosferatu (The Vampire's Waltz) (Manchester 2018) (4:17)
10. Predator (Manchester 2018) (3:17)
11. They Played Rock and Roll (Stockholm 2018) (3:42)
12. The Secret of Flight (London 2018) (4:29)
13. Battering Ram (London 2018) (4:49)
-

Лог создания рипа

CD 1

Exact Audio Copy V1.3 from 2. September 2016
EAC extraction logfile from 23. August 2019, 12:32
SAXON / The Eagle Has Landed 40 Live CD1
Used drive  : ASUS    DRW-24D5MT   Adapter: 1  ID: 0
Read mode               : Secure
Utilize accurate stream : Yes
Defeat audio cache      : Yes
Make use of C2 pointers : No
Read offset correction                      : 6
Overread into Lead-In and Lead-Out          : No
Fill up missing offset samples with silence : Yes
Delete leading and trailing silent blocks   : No
Null samples used in CRC calculations       : Yes
Used interface                              : Native Win32 interface for Win NT & 2000
Used output format              : User Defined Encoder
Selected bitrate                : 768 kBit/s
Quality                         : High
Add ID3 tag                     : No
Command line compressor         : C:\Program Files (x86)\Exact Audio Copy\FLAC\FLAC.EXE
Additional command line options : -6 -V -T "ARTIST=%artist%" -T "TITLE=%title%" -T "ALBUM=%albumtitle%" -T "DATE=%year%" -T "TRACKNUMBER=%tracknr%" -T "GENRE=%genre%" -T "COMMENT=%comment%" -T "BAND=%albuminterpret%" -T "ALBUMARTIST=%albuminterpret%" -T "COMPOSER=%composer%" %haslyrics%--tag-from-file=LYRICS="%lyricsfile%"%haslyrics% -T "DISCNUMBER=%cdnumber%" -T "TOTALDISCS=%totalcds%" -T "TOTALTRACKS=%numtracks%" %hascover%--picture="%coverfile%"%hascover% %source% -o %dest%
TOC of the extracted CD
     Track |   Start  |  Length  | Start sector | End sector
    ---------------------------------------------------------
        1  |  0:00.00 |  5:18.71 |         0    |    23920
        2  |  5:18.71 |  6:17.60 |     23921    |    52255
        3  | 11:36.56 |  8:14.27 |     52256    |    89332
        4  | 19:51.08 |  3:15.21 |     89333    |   103978
        5  | 23:06.29 |  4:21.32 |    103979    |   123585
        6  | 27:27.61 |  3:58.39 |    123586    |   141474
        7  | 31:26.25 |  6:04.61 |    141475    |   168835
        8  | 37:31.11 |  3:38.21 |    168836    |   185206
        9  | 41:09.32 |  4:29.21 |    185207    |   205402
       10  | 45:38.53 |  4:16.20 |    205403    |   224622
       11  | 49:54.73 |  3:10.25 |    224623    |   238897
       12  | 53:05.23 |  4:34.27 |    238898    |   259474
       13  | 57:39.50 |  4:26.34 |    259475    |   279458
       14  | 62:06.09 |  4:34.12 |    279459    |   300020
       15  | 66:40.21 |  4:26.32 |    300021    |   320002
       16  | 71:06.53 |  3:03.44 |    320003    |   333771
Range status and errors
Selected range
     Filename E:\Música\EAC\Saxon\SAXON - The Eagle Has Landed 40 Live CD1.wav
     Peak level 100.0 %
     Extraction speed 2.1 X
     Range quality 100.0 %
     Test CRC 15B788B2
     Copy CRC 15B788B2
     Copy OK
No errors occurred
AccurateRip summary
Track  1  not present in database
Track  2  not present in database
Track  3  not present in database
Track  4  not present in database
Track  5  not present in database
Track  6  not present in database
Track  7  not present in database
Track  8  not present in database
Track  9  not present in database
Track 10  not present in database
Track 11  not present in database
Track 12  not present in database
Track 13  not present in database
Track 14  not present in database
Track 15  not present in database
Track 16  not present in database
None of the tracks are present in the AccurateRip database
End of status report

CD 2

Exact Audio Copy V1.3 from 2. September 2016
EAC extraction logfile from 23. August 2019, 10:54
SAXON / The Eagle Has Landed 40 Live CD2
Used drive  : ASUS    DRW-24D5MT   Adapter: 1  ID: 0
Read mode               : Secure
Utilize accurate stream : Yes
Defeat audio cache      : Yes
Make use of C2 pointers : No
Read offset correction                      : 6
Overread into Lead-In and Lead-Out          : No
Fill up missing offset samples with silence : Yes
Delete leading and trailing silent blocks   : No
Null samples used in CRC calculations       : Yes
Used interface                              : Native Win32 interface for Win NT & 2000
Used output format              : User Defined Encoder
Selected bitrate                : 768 kBit/s
Quality                         : High
Add ID3 tag                     : No
Command line compressor         : C:\Program Files (x86)\Exact Audio Copy\FLAC\FLAC.EXE
Additional command line options : -6 -V -T "ARTIST=%artist%" -T "TITLE=%title%" -T "ALBUM=%albumtitle%" -T "DATE=%year%" -T "TRACKNUMBER=%tracknr%" -T "GENRE=%genre%" -T "COMMENT=%comment%" -T "BAND=%albuminterpret%" -T "ALBUMARTIST=%albuminterpret%" -T "COMPOSER=%composer%" %haslyrics%--tag-from-file=LYRICS="%lyricsfile%"%haslyrics% -T "DISCNUMBER=%cdnumber%" -T "TOTALDISCS=%totalcds%" -T "TOTALTRACKS=%numtracks%" %hascover%--picture="%coverfile%"%hascover% %source% -o %dest%
TOC of the extracted CD
     Track |   Start  |  Length  | Start sector | End sector
    ---------------------------------------------------------
        1  |  0:00.00 |  4:08.48 |         0    |    18647
        2  |  4:08.48 |  3:39.32 |     18648    |    35104
        3  |  7:48.05 |  7:30.70 |     35105    |    68924
        4  | 15:19.00 |  4:22.59 |     68925    |    88633
        5  | 19:41.59 |  7:55.41 |     88634    |   124299
        6  | 27:37.25 |  4:24.27 |    124300    |   144126
        7  | 32:01.52 |  6:26.72 |    144127    |   173148
        8  | 38:28.49 |  4:58.63 |    173149    |   195561
        9  | 43:27.37 |  6:19.48 |    195562    |   224034
       10  | 49:47.10 |  3:58.28 |    224035    |   241912
       11  | 53:45.38 |  5:44.64 |    241913    |   267776
Range status and errors
Selected range
     Filename E:\Música\EAC\Saxon\SAXON - The Eagle Has Landed 40 Live CD2.wav
     Peak level 100.0 %
     Extraction speed 7.1 X
     Range quality 99.9 %
     Test CRC 5A615F22
     Copy CRC 5A615F22
     Copy OK
No errors occurred
AccurateRip summary
Track  1  not present in database
Track  2  not present in database
Track  3  not present in database
Track  4  not present in database
Track  5  not present in database
Track  6  not present in database
Track  7  not present in database
Track  8  not present in database
Track  9  not present in database
Track 10  not present in database
Track 11  not present in database
None of the tracks are present in the AccurateRip database
End of status report

CD 3

Exact Audio Copy V1.3 from 2. September 2016
EAC extraction logfile from 23. August 2019, 11:41
SAXON / The Eagle Has Landed 40 Live CD3
Used drive  : ASUS    DRW-24D5MT   Adapter: 1  ID: 0
Read mode               : Secure
Utilize accurate stream : Yes
Defeat audio cache      : Yes
Make use of C2 pointers : No
Read offset correction                      : 6
Overread into Lead-In and Lead-Out          : No
Fill up missing offset samples with silence : Yes
Delete leading and trailing silent blocks   : No
Null samples used in CRC calculations       : Yes
Used interface                              : Native Win32 interface for Win NT & 2000
Used output format              : User Defined Encoder
Selected bitrate                : 768 kBit/s
Quality                         : High
Add ID3 tag                     : No
Command line compressor         : C:\Program Files (x86)\Exact Audio Copy\FLAC\FLAC.EXE
Additional command line options : -6 -V -T "ARTIST=%artist%" -T "TITLE=%title%" -T "ALBUM=%albumtitle%" -T "DATE=%year%" -T "TRACKNUMBER=%tracknr%" -T "GENRE=%genre%" -T "COMMENT=%comment%" -T "BAND=%albuminterpret%" -T "ALBUMARTIST=%albuminterpret%" -T "COMPOSER=%composer%" %haslyrics%--tag-from-file=LYRICS="%lyricsfile%"%haslyrics% -T "DISCNUMBER=%cdnumber%" -T "TOTALDISCS=%totalcds%" -T "TOTALTRACKS=%numtracks%" %hascover%--picture="%coverfile%"%hascover% %source% -o %dest%
TOC of the extracted CD
     Track |   Start  |  Length  | Start sector | End sector
    ---------------------------------------------------------
        1  |  0:00.00 |  3:38.14 |         0    |    16363
        2  |  3:38.14 |  5:26.19 |     16364    |    40832
        3  |  9:04.33 |  4:16.28 |     40833    |    60060
        4  | 13:20.61 |  3:04.64 |     60061    |    73924
        5  | 16:25.50 |  3:39.29 |     73925    |    90378
        6  | 20:05.04 |  4:36.32 |     90379    |   111110
        7  | 24:41.36 |  3:28.70 |    111111    |   126780
        8  | 28:10.31 |  4:13.65 |    126781    |   145820
        9  | 32:24.21 |  4:17.35 |    145821    |   165130
       10  | 36:41.56 |  3:16.56 |    165131    |   179886
       11  | 39:58.37 |  3:41.70 |    179887    |   196531
       12  | 43:40.32 |  4:28.44 |    196532    |   216675
       13  | 48:09.01 |  4:48.51 |    216676    |   238326
Range status and errors
Selected range
     Filename E:\Música\EAC\Saxon\SAXON - The Eagle Has Landed 40 Live CD3.wav
     Peak level 100.0 %
     Extraction speed 1.7 X
     Range quality 100.0 %
     Test CRC 48E54F91
     Copy CRC 48E54F91
     Copy OK
No errors occurred
AccurateRip summary
Track  1  not present in database
Track  2  not present in database
Track  3  not present in database
Track  4  not present in database
Track  5  not present in database
Track  6  not present in database
Track  7  not present in database
Track  8  not present in database
Track  9  not present in database
Track 10  not present in database
Track 11  not present in database
Track 12  not present in database
Track 13  not present in database
None of the tracks are present in the AccurateRip database
End of status report

Индексная карта (non-compilant .cue)

CD 1

REM GENRE "Heavy Metal"
REM DATE 2019-08-02
REM DISCID FD116210
REM COMMENT "ExactAudioCopy v1.3"
PERFORMER "SAXON"
TITLE "The Eagle Has Landed 40 Live CD1"
REM COMPOSER ""
FILE "SAXON - The Eagle Has Landed 40 Live CD1.flac" WAVE
  TRACK 01 AUDIO
    TITLE "State of Grace (Berlin 2007)"
    PERFORMER "SAXON"
    REM COMPOSER ""
    INDEX 01 00:00:00
  TRACK 02 AUDIO
    TITLE "Red Star Falling (Berlin 2007)"
    PERFORMER "SAXON"
    REM COMPOSER ""
    INDEX 01 05:18:71
  TRACK 03 AUDIO
    TITLE "Attila the Hun (Berlin 2007)"
    PERFORMER "SAXON"
    REM COMPOSER ""
    INDEX 01 11:36:56
  TRACK 04 AUDIO
    TITLE "If I Was You (Sheffield 2007)"
    PERFORMER "SAXON"
    REM COMPOSER ""
    INDEX 01 19:51:08
  TRACK 05 AUDIO
    TITLE "Witchfinder General (Berlin 2009)"
    PERFORMER "SAXON"
    REM COMPOSER ""
    INDEX 01 23:06:29
  TRACK 06 AUDIO
    TITLE "Demon Sweeney Todd (Berlin 2009)"
    PERFORMER "SAXON"
    REM COMPOSER ""
    INDEX 01 27:27:61
  TRACK 07 AUDIO
    TITLE "The Letter + Valley of the Kings (London 2009)"
    PERFORMER "SAXON"
    REM COMPOSER ""
    INDEX 01 31:26:25
  TRACK 08 AUDIO
    TITLE "Machine Gun (London 2009)"
    PERFORMER "SAXON"
    REM COMPOSER ""
    INDEX 01 37:31:11
  TRACK 09 AUDIO
    TITLE "Live to Rock (Berlin 2009)"
    PERFORMER "SAXON"
    REM COMPOSER ""
    INDEX 01 41:09:32
  TRACK 10 AUDIO
    TITLE "Hammer of the Gods (Berlin 2011)"
    PERFORMER "SAXON"
    REM COMPOSER ""
    INDEX 01 45:38:53
  TRACK 11 AUDIO
    TITLE "Back in '79 (Berlin 2011)"
    PERFORMER "SAXON"
    REM COMPOSER ""
    INDEX 01 49:54:73
  TRACK 12 AUDIO
    TITLE "I've Got to Rock (To Stay Alive) [Berlin 2011]"
    PERFORMER "SAXON"
    REM COMPOSER ""
    INDEX 01 53:05:23
  TRACK 13 AUDIO
    TITLE "Call to Arms (Berlin 2011)"
    PERFORMER "SAXON"
    REM COMPOSER ""
    INDEX 01 57:39:50
  TRACK 14 AUDIO
    TITLE "Rock 'n' Roll Gypsy (Berlin 2011)"
    PERFORMER "SAXON"
    REM COMPOSER ""
    INDEX 01 62:06:09
  TRACK 15 AUDIO
    TITLE "Chasing the Bullet (Berlin 2011)"
    PERFORMER "SAXON"
    REM COMPOSER ""
    INDEX 01 66:40:21
  TRACK 16 AUDIO
    TITLE "Play It Loud (Berlin 2011)"
    PERFORMER "SAXON"
    REM COMPOSER ""
    INDEX 01 71:06:53

CD 2

REM GENRE "Heavy Metal"
REM DATE 2019-08-02
REM DISCID 920DF20B
REM COMMENT "ExactAudioCopy v1.3"
PERFORMER "SAXON"
TITLE "The Eagle Has Landed 40 Live CD2"
REM COMPOSER ""
FILE "SAXON - The Eagle Has Landed 40 Live CD2.flac" WAVE
  TRACK 01 AUDIO
    TITLE "Sacrifice (BYH Balingen 2013)"
    PERFORMER "SAXON"
    REM COMPOSER ""
    INDEX 01 00:00:00
  TRACK 02 AUDIO
    TITLE "Night of the Wolf (BYH Balingen 2013)"
    PERFORMER "SAXON"
    REM COMPOSER ""
    INDEX 01 04:08:48
  TRACK 03 AUDIO
    TITLE "Conquistador + Drum Solo (BYH Balingen 2013)"
    PERFORMER "SAXON"
    REM COMPOSER ""
    INDEX 01 07:48:05
  TRACK 04 AUDIO
    TITLE "Stand Up and Fight (BYH Balingen 2013)"
    PERFORMER "SAXON"
    REM COMPOSER ""
    INDEX 01 15:19:00
  TRACK 05 AUDIO
    TITLE "Crusader (Wacken Open Air 2014)"
    PERFORMER "SAXON"
    REM COMPOSER ""
    INDEX 01 19:41:59
  TRACK 06 AUDIO
    TITLE "Battalions of Steel (Wacken Open Air 2014)"
    PERFORMER "SAXON"
    REM COMPOSER ""
    INDEX 01 27:37:25
  TRACK 07 AUDIO
    TITLE "The Eagle Has Landed (Wacken Open Air 2014)"
    PERFORMER "SAXON"
    REM COMPOSER ""
    INDEX 01 32:01:52
  TRACK 08 AUDIO
    TITLE "Power and the Glory (Wacken Open Air 2014)"
    PERFORMER "SAXON"
    REM COMPOSER ""
    INDEX 01 38:28:49
  TRACK 09 AUDIO
    TITLE "Dallas 1pm (Wacken Open Air 2014)"
    PERFORMER "SAXON"
    REM COMPOSER ""
    INDEX 01 43:27:37
  TRACK 10 AUDIO
    TITLE "Princess of the Night (Wacken Open Air 2014)"
    PERFORMER "SAXON"
    REM COMPOSER ""
    INDEX 01 49:47:10
  TRACK 11 AUDIO
    TITLE "Denim and Leather (Wacken Open Air 2014)"
    PERFORMER "SAXON"
    REM COMPOSER ""
    INDEX 01 53:45:38

CD 3

REM GENRE "Heavy Metal"
REM DATE 2019-08-02
REM DISCID A40C690D
REM COMMENT "ExactAudioCopy v1.3"
PERFORMER "SAXON"
TITLE "The Eagle Has Landed 40 Live CD3"
REM COMPOSER ""
FILE "SAXON - The Eagle Has Landed 40 Live CD3.flac" WAVE
  TRACK 01 AUDIO
    TITLE "Eye of the Storm (Zoetemeer 2015)"
    PERFORMER "SAXON"
    REM COMPOSER ""
    INDEX 01 00:00:00
  TRACK 02 AUDIO
    TITLE "747 (Strangers in the Night) (Helsinki 2015)"
    PERFORMER "SAXON"
    REM COMPOSER ""
    INDEX 01 03:38:14
  TRACK 03 AUDIO
    TITLE "Killing Ground (London 2016)"
    PERFORMER "SAXON"
    REM COMPOSER ""
    INDEX 01 09:04:33
  TRACK 04 AUDIO
    TITLE "Ace of Spades (London 2016)"
    PERFORMER "SAXON"
    REM COMPOSER ""
    INDEX 01 13:20:61
  TRACK 05 AUDIO
    TITLE "20,000 FT (San Antonio 2018)"
    PERFORMER "SAXON"
    REM COMPOSER ""
    INDEX 01 16:25:50
  TRACK 06 AUDIO
    TITLE "Thunderbolt (San Antonio 2018)"
    PERFORMER "SAXON"
    REM COMPOSER ""
    INDEX 01 20:05:04
  TRACK 07 AUDIO
    TITLE "Sons of Odin (Los Angeles 2018)"
    PERFORMER "SAXON"
    REM COMPOSER ""
    INDEX 01 24:41:36
  TRACK 08 AUDIO
    TITLE "This Town Rocks (Los Angeles 2018)"
    PERFORMER "SAXON"
    REM COMPOSER ""
    INDEX 01 28:10:31
  TRACK 09 AUDIO
    TITLE "Nosferatu (The Vampire's Waltz) (Manchester 2018)"
    PERFORMER "SAXON"
    REM COMPOSER ""
    INDEX 01 32:24:21
  TRACK 10 AUDIO
    TITLE "Predator (Manchester 2018)"
    PERFORMER "SAXON"
    REM COMPOSER ""
    INDEX 01 36:41:56
  TRACK 11 AUDIO
    TITLE "They Played Rock and Roll (Stockholm 2018)"
    PERFORMER "SAXON"
    REM COMPOSER ""
    INDEX 01 39:58:37
  TRACK 12 AUDIO
    TITLE "The Secret of Flight (London 2018)"
    PERFORMER "SAXON"
    REM COMPOSER ""
    INDEX 01 43:40:32
  TRACK 13 AUDIO
    TITLE "Battering Ram (London 2018)"
    PERFORMER "SAXON"
    REM COMPOSER ""
    INDEX 01 48:09:01
--
[Profile] [PM]
Display posts from previous:    

The time now is: Today 05:31

All times are GMT



You cannot post new topics in this forum
You cannot reply to topics in this forum
You cannot edit your posts in this forum
You cannot delete your posts in this forum
You cannot vote in polls in this forum
You cannot attach files in this forum
You cannot download files in this forum