(Italo-Disco) Savage - Tonight - 2009, FLAC (image+.cue), lossless

 
Автор Сообщение

sergej644 ®

Пол:

Стаж: 4 года 11 месяцев

Сообщений: 6046

Откуда: Soviet Union



Награды: Нет

Торрент-статистика

Создавать темы 22-Дек-2014 22:53

[Цитировать]

Savage - Tonight
Жанр: italo-disco
Год выпуска диска: 2009
Производитель диска: www.klub80.pl
Битрейт аудио: lossless
Аудио кодек: FLAC
Тип рипа: image+.cue
Продолжительность: 62:38
Доп. информация: в комплекте сканы на 600dpi .tiff бокс + буклет
Трэклист:
1 Radio 6:02
2 A Love Again 5:30
3 Fugitive 4:56
4 Tonight 3:40
5 Only You 3:51
6 Turn Around 3:54
7 Don't Cry Tonight 3:58
8 Computerized Love 3:38
9 A Love Again (Remix) 6:34
10 Fugitive (12" Version) 6:43
11 Only You (12" Version) 7:00
12 Don't Cry Tonight (12" Version) 6:54

отчет EAC

Exact Audio Copy V0.99 prebeta 5 from 4. May 2009
Отчёт EAC об извлечении, выполненном 17. февраля 2010, 21:47
Savage / Tonight
Дисковод: PLEXTOR DVDR PX-860A Adapter: 2 ID: 1
Режим чтения : Достоверность
Использование точного потока : Да
Отключение кэша аудио : Да
Использование указателей C2 : Нет
Коррекция смещения при чтении : 96
Способность читать области Lead-in и Lead-out : Нет
Заполнение пропущенных сэмплов тишиной : Да
Удаление блоков с тишиной в начале и конце : Нет
При вычислениях CRC использовались нулевые сэмплы : Да
Интерфейс : Встроенный Win32-интерфейс для Win NT/2000
Выходной формат : Пользовательский кодировщик
Выбранный битрейт : 128 kBit/s
Качество : Высокий
Добавление ID3-тэга : Нет
Утилита сжатия : C:\Program Files\Exact Audio Copy\Flac\flac.exe
Дополнительные параметры : -8 -V %s
TOC извлечённого CD
Трек | Старт | Длительность | Начальный сектор | Конечный сектор
---------------------------------------------------------------------
1 | 0:00.00 | 6:01.74 | 0 | 27148
2 | 6:01.74 | 5:29.74 | 27149 | 51897
3 | 11:31.73 | 4:55.74 | 51898 | 74096
4 | 16:27.72 | 3:39.74 | 74097 | 90595
5 | 20:07.71 | 3:50.74 | 90596 | 107919
6 | 23:58.70 | 3:53.74 | 107920 | 125468
7 | 27:52.69 | 3:57.74 | 125469 | 143317
8 | 31:50.68 | 3:37.74 | 143318 | 159666
9 | 35:28.67 | 6:33.74 | 159667 | 189215
10 | 42:02.66 | 6:42.74 | 189216 | 219439
11 | 48:45.65 | 6:59.74 | 219440 | 250938
12 | 55:45.64 | 6:53.74 | 250939 | 281987
Характеристики диапазона извлечения и сообщения об ошибках
Выбранный диапазон
Имя файла D:\!!! Torrents !!!\Savage - Tonight.wav
Пиковый уровень 97.1 %
Качество диапазона 99.9 %
CRC теста B1920940
CRC копии B1920940
Копирование... OK
Ошибок не произошло
AccurateRip: сводка
Трек 1 нет в базе данных
Трек 2 нет в базе данных
Трек 3 нет в базе данных
Трек 4 нет в базе данных
Трек 5 нет в базе данных
Трек 6 нет в базе данных
Трек 7 нет в базе данных
Трек 8 нет в базе данных
Трек 9 нет в базе данных
Трек 10 нет в базе данных
Трек 11 нет в базе данных
Трек 12 нет в базе данных
Ни одного трека нет в базе AccurateRip
Конец отчёта
[Профиль] [ЛС]

Создавать темы 13-Авг-2015 10:44 (спустя 7 месяцев 22 дня)

Топик был перенесен из форума Зарубежная в форум Technopop, Eurodance, Disco
sergej644
 
Показать сообщения:    

Текущее время: Сегодня 08:18

Часовой пояс: GMT



Вы не можете начинать темы
Вы не можете отвечать на сообщения
Вы не можете редактировать свои сообщения
Вы не можете удалять свои сообщения
Вы не можете голосовать в опросах
Вы не можете прикреплять файлы к сообщениям
Вы не можете скачивать файлы