Savage - MTV Music History (2001) [FLAC|Lossless]<Italo Disco, Pop>

 
Автор Сообщение

sergej644 ®

Пол:

Стаж: 4 года 11 месяцев

Сообщений: 6041

Откуда: Soviet Union



Награды: Нет

Торрент-статистика

Создавать темы 24-Дек-2014 22:50

[Цитировать]

-Savage - MTV Music History (2001)- Год: 2001
Жанр: Italo Disco, Pop
Издатель: Halahup Records
Каталожный №: HAL 609
Продолжительность: 01:20:46
Кодек: FLAC
Битрейт: Lossless
Тип рипа: image+.cue
Треклист:
01. Ten Years Ago (00:40)
02. Goodbye (04:34)
03. I Just Died In Your Arms (03:23)
04. Only You (03:36)
05. Don't Cry Tonight (03:49)
06. Jane (04:03)
07. I'm Loosing You (03:22)
08. Strange Love (03:22)
09. Don't Leave Me (04:36)
10. Still I'm Loving You (03:32)
11. So Close (03:24)
12. Something More Than This (04:48)
13. Ten Years Ago (03:22)
14. A Love Again (Remix) (05:29)

Продолжение треклиста&#58;

15. Radio (04:37)
16. Time (04:37)
17. Love Is Death (03:40)
18. Don't Cry Tonight (Rap Remix) (04:08)
19. Tonight (03:26)
20. Eyes On The Moon (04:16)
21. Celebrate (03:01)
22. Ten Years Ago (00:51)

Отчёт ЕАС&#58;

Exact Audio Copy V0.99 prebeta 4 from 23. January 2008
Отчёт EAC об извлечении, выполненном 26. февраля 2010, 16:36
Savage / MTV Music History
Дисковод: SONY    DVD RW DRU-820A   Adapter: 3  ID: 0
Режим чтения                 : Достоверность
Использование точного потока : Да
Отключение кэша аудио        : Да
Использование указателей C2  : Нет
Коррекция смещения при чтении                     : 102
Способность читать области Lead-in и Lead-out     : Нет
Заполнение пропущенных сэмплов тишиной            : Да
Удаление блоков с тишиной в начале и конце        : Нет
При вычислениях CRC использовались нулевые сэмплы : Да
Интерфейс                                         : Встроенный Win32-интерфейс для Win NT/2000
Выходной формат : Внутренние WAV-операции
Формат сэмплов  : 44.100 Гц; 16 бит; стерео
TOC извлечённого CD
     Трек |   Старт  | Длительность | Начальный сектор | Конечный сектор
    ---------------------------------------------------------------------
       1  |  0:00.00 |    0:40.09   |           0      |       3008
       2  |  0:40.09 |    4:34.55   |        3009      |      23613
       3  |  5:14.64 |    3:23.72   |       23614      |      38910
       4  |  8:38.61 |    3:36.07   |       38911      |      55117
       5  | 12:14.68 |    3:49.38   |       55118      |      72330
       6  | 16:04.31 |    4:03.01   |       72331      |      90556
       7  | 20:07.32 |    3:22.05   |       90557      |     105711
       8  | 23:29.37 |    3:22.57   |      105712      |     120918
       9  | 26:52.19 |    4:36.72   |      120919      |     141690
      10  | 31:29.16 |    3:32.36   |      141691      |     157626
      11  | 35:01.52 |    3:24.10   |      157627      |     172936
      12  | 38:25.62 |    4:48.30   |      172937      |     194566
      13  | 43:14.17 |    3:22.28   |      194567      |     209744
      14  | 46:36.45 |    5:29.01   |      209745      |     234420
      15  | 52:05.46 |    4:37.59   |      234421      |     255254
      16  | 56:43.30 |    4:37.71   |      255255      |     276100
      17  | 61:21.26 |    3:40.39   |      276101      |     292639
      18  | 65:01.65 |    4:08.24   |      292640      |     311263
      19  | 69:10.14 |    3:26.50   |      311264      |     326763
      20  | 72:36.64 |    4:16.18   |      326764      |     345981
      21  | 76:53.07 |    3:01.70   |      345982      |     359626
      22  | 79:55.02 |    0:51.12   |      359627      |     363463
Характеристики диапазона извлечения и сообщения об ошибках
Выбранный диапазон
     Имя файла E:\Torrents\Savage - MTV Music History.wav
     Пиковый уровень 99.7 %
     Качество диапазона 99.9 %
     CRC теста 770993CF
     CRC копии 770993CF
     Копирование... OK
Ошибок не произошло
AccurateRip: сводка
Трек  1  нет в базе данных
Трек  2  нет в базе данных
Трек  3  нет в базе данных
Трек  4  нет в базе данных
Трек  5  нет в базе данных
Трек  6  нет в базе данных
Трек  7  нет в базе данных
Трек  8  нет в базе данных
Трек  9  нет в базе данных
Трек 10  нет в базе данных
Трек 11  нет в базе данных
Трек 12  нет в базе данных
Трек 13  нет в базе данных
Трек 14  нет в базе данных
Трек 15  нет в базе данных
Трек 16  нет в базе данных
Трек 17  нет в базе данных
Трек 18  нет в базе данных
Трек 19  нет в базе данных
Трек 20  нет в базе данных
Трек 21  нет в базе данных
Трек 22  нет в базе данных
Ни одного трека нет в базе AccurateRip
Конец отчёта

Отчёт auCDtect Task manager&#58;

-----------------------
DON'T MODIFY THIS FILE
-----------------------
PERFORMER: auCDtect Task Manager, ver. 1.6.0 RC1 build 1.6.0.1
Copyright (c) 2008-2010 y-soft. All rights reserved
http://y-soft.org
ANALYZER: auCDtect: CD records authenticity detector, version 0.8.2
Copyright (c) 2004 Oleg Berngardt. All rights reserved.
Copyright (c) 2004 Alexander Djourik. All rights reserved.
FILE: Savage - MTV Music History.flac
  Size: 529320504 Hash: 2BC6E26A5B7CDE95B68D57D30D8CE936 Accuracy: -m0
  Conclusion: CDDA 100%
  Signature: 36D61122EB970EA1DA18E6FA40AD48D1136BAC39

Содержание индексной карты (cue&#41;&#58;

REM DISCID 3A12EE16
REM COMMENT "ExactAudioCopy v0.99pb4"
PERFORMER "Savage"
TITLE "MTV Music History"
FILE "Savage - MTV Music History.flac" WAVE
  TRACK 01 AUDIO
    TITLE "Ten Years Ago"
    PERFORMER "Savage"
    FLAGS DCP
    INDEX 01 00:00:00
  TRACK 02 AUDIO
    TITLE "Goodbye"
    PERFORMER "Savage"
    FLAGS DCP
    INDEX 01 00:40:09
  TRACK 03 AUDIO
    TITLE "I Just Died In Your Arms"
    PERFORMER "Savage"
    FLAGS DCP
    INDEX 01 05:14:64
  TRACK 04 AUDIO
    TITLE "Only You"
    PERFORMER "Savage"
    FLAGS DCP
    INDEX 01 08:38:61
  TRACK 05 AUDIO
    TITLE "Don't Cry Tonight"
    PERFORMER "Savage"
    FLAGS DCP
    INDEX 01 12:14:68
  TRACK 06 AUDIO
    TITLE "Jane"
    PERFORMER "Savage"
    FLAGS DCP
    INDEX 01 16:04:31
  TRACK 07 AUDIO
    TITLE "I'm Loosing You"
    PERFORMER "Savage"
    FLAGS DCP
    INDEX 01 20:07:32
  TRACK 08 AUDIO
    TITLE "Strange Love"
    PERFORMER "Savage"
    FLAGS DCP
    INDEX 01 23:29:37
  TRACK 09 AUDIO
    TITLE "Don't Leave Me"
    PERFORMER "Savage"
    FLAGS DCP
    INDEX 01 26:52:19
  TRACK 10 AUDIO
    TITLE "Still I'm Loving You"
    PERFORMER "Savage"
    FLAGS DCP
    INDEX 01 31:29:16
  TRACK 11 AUDIO
    TITLE "So Close"
    PERFORMER "Savage"
    FLAGS DCP
    INDEX 01 35:01:52
  TRACK 12 AUDIO
    TITLE "Something More Then This"
    PERFORMER "Savage"
    FLAGS DCP
    INDEX 01 38:25:62
  TRACK 13 AUDIO
    TITLE "Ten Years Ago"
    PERFORMER "Savage"
    FLAGS DCP
    INDEX 01 43:14:17
  TRACK 14 AUDIO
    TITLE "A Love Again (Remix)"
    PERFORMER "Savage"
    FLAGS DCP
    INDEX 01 46:36:45
  TRACK 15 AUDIO
    TITLE "Radio"
    PERFORMER "Savage"
    FLAGS DCP
    INDEX 01 52:05:46
  TRACK 16 AUDIO
    TITLE "Time"
    PERFORMER "Savage"
    FLAGS DCP
    INDEX 01 56:43:30
  TRACK 17 AUDIO
    TITLE "Love Is Death"
    PERFORMER "Savage"
    FLAGS DCP
    INDEX 01 61:21:26
  TRACK 18 AUDIO
    TITLE "Don't Cry Tonight (Rap Remix)"
    PERFORMER "Savage"
    FLAGS DCP
    INDEX 01 65:01:65
  TRACK 19 AUDIO
    TITLE "Tonight"
    PERFORMER "Savage"
    FLAGS DCP
    INDEX 01 69:10:14
  TRACK 20 AUDIO
    TITLE "Eyes On The Moon"
    PERFORMER "Savage"
    FLAGS DCP
    INDEX 01 72:36:64
  TRACK 21 AUDIO
    TITLE "Celebrate"
    PERFORMER "Savage"
    FLAGS DCP
    INDEX 01 76:53:07
  TRACK 22 AUDIO
    TITLE "Ten Years Ago"
    PERFORMER "Savage"
    FLAGS DCP
    INDEX 01 79:55:02
Время раздачи: до устойчивого сидирования-

Поглощение/вытеснение
Только с согласия релизера

Pashketan
[Профиль] [ЛС]

Создавать темы 13-Авг-2015 10:41 (спустя 7 месяцев 20 дней)

Топик был перенесен из форума Зарубежная в форум Technopop, Eurodance, Disco
sergej644
 
Кто просматривает тему:

Показать сообщения:    

Текущее время: Сегодня 01:10

Часовой пояс: GMT



Вы не можете начинать темы
Вы не можете отвечать на сообщения
Вы не можете редактировать свои сообщения
Вы не можете удалять свои сообщения
Вы не можете голосовать в опросах
Вы не можете прикреплять файлы к сообщениям
Вы не можете скачивать файлы