(Italo-Disco) Savage - Greatest Hits And More - 1995, APE (image + .cue), lossless

 
Автор Сообщение

sergej644 ®

Пол:

Стаж: 4 года 11 месяцев

Сообщений: 6040

Откуда: Soviet Union



Награды: Нет

Торрент-статистика

Создавать темы 22-Дек-2014 23:03

[Цитировать]

Savage - Greatest Hits And More
Страна: Италия
Лейбл: First Town Records / Cat# IS-CD-001
Жанр: Italo-Disco
Год выпуска: 1995
Формат: APE (image + .cue)
Битрейт аудио: lossless
Продолжительность: 66:12
Трэклист:
01. Ten Years Ago [0:00:43.21]
02. I'm Loosing You [0:03:29.44]
03. Goodbye [0:04:38.27]
04. Jane [0:04:12.51]
05. I Just Died in Your Arms [0:03:27.72]
06. Still I'm Loving You [0:03:34.10]
07. So Close [0:03:25.36]
08. Ten Years Ago [0:03:28.62]
09. A Love Again (remix) [0:05:36.17]
10. Don't Cry Tonight [0:03:54.25]
11. Radio [0:04:42.44]
12. Only You [0:03:42.51]
13. Time [0:04:46.50]
14. Love Is Death [0:03:52.34]
15. Don't Cry Tonight [0:04:10.09]
16. Tonight [0:03:42.23]
17. Don't Leave Me [0:04:44.15]
Доп. информация:

Отчёт EAC об извлечении

Отчёт EAC об извлечении, выполненном 23. февраля 2008, 23:42
Savage / Greatest Hits And More
Дисковод: _NEC DVD_RW ND-3520AW Adapter: 0 ID: 1
Режим чтения : Достоверность
Использование точного потока : Да
Отключение кэша аудио : Да
Использование указателей C2 : Нет
Коррекция смещения при чтении : 48
Способность читать области Lead-in и Lead-out : Нет
Заполнение пропущенных сэмплов тишиной : Да
Удаление блоков с тишиной в начале и конце : Нет
При вычислениях CRC использовались нулевые сэмплы : Нет
Интерфейс : Установленный внешний ASPI-интерфейс
Выходной формат : Monkey's Audio (без потерь)
Выбранный битрейт : Extra High Lossless Compression
Качество : Высокий
Добавление ID3-тэга : Да
Утилита сжатия : D:\Program Files\Exact Audio Copy\PACK\MAC.exe
TOC извлечённого CD
Трек | Старт | Длительность | Начальный сектор | Конечный сектор
---------------------------------------------------------------------
1 | 0:00.30 | 0:43.21 | 30 | 3275
2 | 0:43.51 | 3:29.44 | 3276 | 18994
3 | 4:13.20 | 4:38.27 | 18995 | 39871
4 | 8:51.47 | 4:12.51 | 39872 | 58822
5 | 13:04.23 | 3:27.72 | 58823 | 74419
6 | 16:32.20 | 3:34.10 | 74420 | 90479
7 | 20:06.30 | 3:25.36 | 90480 | 105890
8 | 23:31.66 | 3:28.62 | 105891 | 121552
9 | 27:00.53 | 5:36.17 | 121553 | 146769
10 | 32:36.70 | 3:54.25 | 146770 | 164344
11 | 36:31.20 | 4:42.44 | 164345 | 185538
12 | 41:13.64 | 3:42.51 | 185539 | 202239
13 | 44:56.40 | 4:46.50 | 202240 | 223739
14 | 49:43.15 | 3:52.34 | 223740 | 241173
15 | 53:35.49 | 4:10.09 | 241174 | 259932
16 | 57:45.58 | 3:42.23 | 259933 | 276605
17 | 61:28.06 | 4:44.15 | 276606 | 297920
Характеристики диапазона извлечения и сообщения об ошибках
Выбранный диапазон
Имя файла H:\Music\Torrents\Savage - Greatest Hits And More\Greatest Hits And More.wav
Пиковый уровень 100.0 %
Качество диапазона 99.9 %
CRC копии 16BEA15A
Копирование... OK
Ошибок не произошло
Конец отчёта

Лог Audiochecker

-----------------------------------------------------------
Started at: понедельник, 03. 11. 2008. - 19:36.25
1 file found
1 -===- G:\Music\Torrents\Savage - Greatest Hits And More[torrentfilm.net]\Greatest Hits And More.ape
Extracted successfully
Conclusion: this track is CDDA with probability 100%
Tempfile successfully deleted.
Finished at: понедельник, 03. 11. 2008. - 19:43.02 (operation time: 0:06.37)

проверка Tau Analyzer

Скрины

[Профиль] [ЛС]

Создавать темы 13-Авг-2015 10:44 (спустя 7 месяцев 21 день)

Топик был перенесен из форума Зарубежная в форум Technopop, Eurodance, Disco
sergej644
 
Показать сообщения:    

Текущее время: Сегодня 10:52

Часовой пояс: GMT



Вы не можете начинать темы
Вы не можете отвечать на сообщения
Вы не можете редактировать свои сообщения
Вы не можете удалять свои сообщения
Вы не можете голосовать в опросах
Вы не можете прикреплять файлы к сообщениям
Вы не можете скачивать файлы