(Italo-Disco) Savage - Greatest Hits - 1998, FLAC (image+.cue), lossless

 
Автор Сообщение

sergej644 ®

Пол:

Стаж: 4 года 11 месяцев

Сообщений: 6040

Откуда: Soviet Union



Награды: Нет

Торрент-статистика

Создавать темы 22-Дек-2014 22:49

[Цитировать]

Savage - Greatest Hits-Жанр: Italo-Disco
Страна-производитель диска: Россия
Год издания: 1998
Страна исполнителя: Италия
Аудиокодек: FLAC (*.flac)
Тип рипа: image+.cue
Битрейт аудио: lossless
Продолжительность: 69:27
Наличие сканов в содержимом раздачи: да
Треклист:

Треклист

01. Don't Cry Tonight (3:54)
02. Fugitive (Remix) (6:43)
03. Computerized Love (3:37)
04. Radio (4:43)
05. Only You (3:43)
06. I'm Losing You (3:30)
07. Goodbye (4:38)
08. I Just Died In Your Arms (3:28)
09. Love Is Death (3:54)
10. Only You (Remix) (6:56)
11. Jane (4:13)
12. Still I'm Loving You (3:34)
13. So Close (3:25)
14. Tonight (3:42)
15. A Love Again (Remix) (5:36)
16. Don't You Want Me (3:51)
-

Лог создания рипа

Exact Audio Copy V1.0 beta 3 from 29. August 2011
EAC extraction logfile from 16. August 2014, 17:33
Savage / Savage - Greatest Hits 1998
Used drive  : HL-DT-STDVD-RAM GH22NP20   Adapter: 0  ID: 0
Read mode               : Secure
Utilize accurate stream : Yes
Defeat audio cache      : Yes
Make use of C2 pointers : No
Read offset correction                      : 102
Overread into Lead-In and Lead-Out          : No
Fill up missing offset samples with silence : Yes
Delete leading and trailing silent blocks   : No
Null samples used in CRC calculations       : Yes
Used interface                              : Native Win32 interface for Win NT & 2000
Used output format              : User Defined Encoder
Selected bitrate                : 128 kBit/s
Quality                         : High
Add ID3 tag                     : No
Command line compressor         : C:\Program Files\Exact Audio Copy\Flac\flac.exe
Additional command line options : -V -8 %source%
TOC of the extracted CD
     Track |   Start  |  Length  | Start sector | End sector
    ---------------------------------------------------------
        1  |  0:00.00 |  3:54.25 |         0    |    17574
        2  |  3:54.25 |  6:42.65 |     17575    |    47789
        3  | 10:37.15 |  3:36.47 |     47790    |    64036
        4  | 14:13.62 |  4:42.44 |     64037    |    85230
        5  | 18:56.31 |  3:42.51 |     85231    |   101931
        6  | 22:39.07 |  3:29.44 |    101932    |   117650
        7  | 26:08.51 |  4:38.27 |    117651    |   138527
        8  | 30:47.03 |  3:27.72 |    138528    |   154124
        9  | 34:15.00 |  3:54.34 |    154125    |   171708
       10  | 38:09.34 |  6:55.45 |    171709    |   202878
       11  | 45:05.04 |  4:12.51 |    202879    |   221829
       12  | 49:17.55 |  3:34.10 |    221830    |   237889
       13  | 52:51.65 |  3:25.36 |    237890    |   253300
       14  | 56:17.26 |  3:42.23 |    253301    |   269973
       15  | 59:59.49 |  5:36.17 |    269974    |   295190
       16  | 65:35.66 |  3:51.23 |    295191    |   312538
Range status and errors
Selected range
     Filename D:\Новая папка\Savage - Savage - Greatest Hits 1998.wav
     Peak level 100.0 %
     Extraction speed 3.1 X
     Range quality 100.0 %
     Test CRC 9193A3C5
     Copy CRC 9193A3C5
     Copy OK
No errors occurred
End of status report
==== Log checksum 0595D432E14FB3EB5AA4923C0D9BB5265FBC27CE9A227B4722DB95CBC9C858D8 ====

Содержание индексной карты (.CUE)

REM GENRE "Italo Disco"
REM DATE 1998
REM DISCID F5104710
REM COMMENT "ExactAudioCopy v1.0b3"
PERFORMER "Savage"
TITLE "Savage - Greatest Hits 1998"
FILE "Savage - Savage - Greatest Hits 1998.flac" WAVE
  TRACK 01 AUDIO
    TITLE "Don't Cry Tonight"
    PERFORMER "Savage"
    FLAGS DCP
    INDEX 01 00:00:00
  TRACK 02 AUDIO
    TITLE "Fugitive (Remix)"
    PERFORMER "Savage"
    FLAGS DCP
    INDEX 01 03:54:25
  TRACK 03 AUDIO
    TITLE "Computerized Love"
    PERFORMER "Savage"
    FLAGS DCP
    INDEX 01 10:37:15
  TRACK 04 AUDIO
    TITLE "Radio"
    PERFORMER "Savage"
    FLAGS DCP
    INDEX 01 14:13:62
  TRACK 05 AUDIO
    TITLE "Only You"
    PERFORMER "Savage"
    FLAGS DCP
    INDEX 01 18:56:31
  TRACK 06 AUDIO
    TITLE "I'm Losing You"
    PERFORMER "Savage"
    FLAGS DCP
    INDEX 01 22:39:07
  TRACK 07 AUDIO
    TITLE "Goodbye"
    PERFORMER "Savage"
    FLAGS DCP
    INDEX 01 26:08:51
  TRACK 08 AUDIO
    TITLE "I Just Died In Your Arms"
    PERFORMER "Savage"
    FLAGS DCP
    INDEX 01 30:47:03
  TRACK 09 AUDIO
    TITLE "Love Is Death"
    PERFORMER "Savage"
    FLAGS DCP
    INDEX 01 34:15:00
  TRACK 10 AUDIO
    TITLE "Only You (Remix)"
    PERFORMER "Savage"
    FLAGS DCP
    INDEX 01 38:09:34
  TRACK 11 AUDIO
    TITLE "Jane"
    PERFORMER "Savage"
    FLAGS DCP
    INDEX 01 45:05:04
  TRACK 12 AUDIO
    TITLE "Still I'm Loving You"
    PERFORMER "Savage"
    FLAGS DCP
    INDEX 01 49:17:55
  TRACK 13 AUDIO
    TITLE "So Close"
    PERFORMER "Savage"
    FLAGS DCP
    INDEX 01 52:51:65
  TRACK 14 AUDIO
    TITLE "Tonight"
    PERFORMER "Savage"
    FLAGS DCP
    INDEX 01 56:17:26
  TRACK 15 AUDIO
    TITLE "A Love Again (Remix)"
    PERFORMER "Savage"
    FLAGS DCP
    INDEX 01 59:59:49
  TRACK 16 AUDIO
    TITLE "Don't You Want Me"
    PERFORMER "Savage"
    FLAGS DCP
    INDEX 01 65:35:66
-
[Профиль] [ЛС]

Создавать темы 13-Авг-2015 10:44 (спустя 7 месяцев 22 дня)

Топик был перенесен из форума Зарубежная в форум Technopop, Eurodance, Disco
sergej644
 
Показать сообщения:    

Текущее время: Сегодня 20:41

Часовой пояс: GMT



Вы не можете начинать темы
Вы не можете отвечать на сообщения
Вы не можете редактировать свои сообщения
Вы не можете удалять свои сообщения
Вы не можете голосовать в опросах
Вы не можете прикреплять файлы к сообщениям
Вы не можете скачивать файлы