Savage - Golden Disco Hits (2002) [FLAC|Lossless]<Italo-Disco>

 
Автор Сообщение

sergej644 ®

Пол:

Стаж: 4 года 11 месяцев

Сообщений: 6046

Откуда: Soviet Union



Награды: Нет

Торрент-статистика

Создавать темы 25-Дек-2014 00:13

[Цитировать]

-Savage - Golden Disco Hits (2002)- Год: 2013
Издание: Winner Music
Каталог№: V333
Жанр: Italo-Disco
Источник(Релизёр) : Bigbeer
Сканы: Есть
Продолжительность: 01:19:31
Кодек: FLAC
Тип рипа: Image+.cue
Метод сжатия: Lossless
Official DR value: DR10-Треклист:
01. Only you (3:42)
02. I just died in your arms (3:27)
03. Computerized love (3:37)
04. I'm loozing you (3:26)
05. Don't cry tonight (3:53)
06. A love again (4:31)
07. Radio (4:42)
08. Still I'm loving you (3:35)
09. Time (4:45)
10. Don't you want me (3:51)
11. Don't leave me (4:41)
12. Eyes of the Moon (4:20)
13. Love is death (3:54)
14. Fugitive (6:40)
15. A love again (remix) (5:34)
16. Strangelove (3:24)
17. Tonight (3:40)
18. Celebrate (3:12)
19. Goodbye (4:36)
-

Youtube

Содержимое индексной карты&#58;

REM GENRE Disco
REM DATE 2002
REM DISCID 1712A313
REM COMMENT "ExactAudioCopy v1.0b3"
PERFORMER "Savage"
TITLE "Golden Disco Hits"
FILE "Savage - Golden Disco Hits.flac" WAVE
  TRACK 01 AUDIO
    TITLE "Only you"
    PERFORMER "Savage"
    INDEX 01 00:00:00
  TRACK 02 AUDIO
    TITLE "I just died in your arms"
    PERFORMER "Savage"
    INDEX 00 03:39:59
    INDEX 01 03:41:59
  TRACK 03 AUDIO
    TITLE "Computerized love"
    PERFORMER "Savage"
    INDEX 00 07:07:11
    INDEX 01 07:09:11
  TRACK 04 AUDIO
    TITLE "I'm loozing you"
    PERFORMER "Savage"
    INDEX 00 10:43:58
    INDEX 01 10:45:58
  TRACK 05 AUDIO
    TITLE "Don't cry tonight"
    PERFORMER "Savage"
    INDEX 00 14:09:63
    INDEX 01 14:11:63
  TRACK 06 AUDIO
    TITLE "A love again"
    PERFORMER "Savage"
    INDEX 00 18:03:21
    INDEX 01 18:05:21
  TRACK 07 AUDIO
    TITLE "Radio"
    PERFORMER "Savage"
    INDEX 00 22:33:71
    INDEX 01 22:35:71
  TRACK 08 AUDIO
    TITLE "Still I'm loving you"
    PERFORMER "Savage"
    INDEX 00 27:15:55
    INDEX 01 27:17:55
  TRACK 09 AUDIO
    TITLE "Time"
    PERFORMER "Savage"
    INDEX 00 30:50:39
    INDEX 01 30:52:39
  TRACK 10 AUDIO
    TITLE "Don't you want me"
    PERFORMER "Savage"
    INDEX 00 35:35:37
    INDEX 01 35:37:37
  TRACK 11 AUDIO
    TITLE "Don't leave me"
    PERFORMER "Savage"
    INDEX 00 39:26:60
    INDEX 01 39:28:60
  TRACK 12 AUDIO
    TITLE "Eyes of the Moon"
    PERFORMER "Savage"
    INDEX 00 44:07:30
    INDEX 01 44:09:30
  TRACK 13 AUDIO
    TITLE "Love is death"
    PERFORMER "Savage"
    INDEX 00 48:27:60
    INDEX 01 48:29:60
  TRACK 14 AUDIO
    TITLE "Fugitive"
    PERFORMER "Savage"
    INDEX 00 52:22:19
    INDEX 01 52:24:19
  TRACK 15 AUDIO
    TITLE "A love again (remix)"
    PERFORMER "Savage"
    INDEX 00 59:02:52
    INDEX 01 59:04:52
  TRACK 16 AUDIO
    TITLE "Strangelove"
    PERFORMER "Savage"
    INDEX 00 64:37:01
    INDEX 01 64:39:01
  TRACK 17 AUDIO
    TITLE "Tonight"
    PERFORMER "Savage"
    INDEX 00 68:01:24
    INDEX 01 68:03:24
  TRACK 18 AUDIO
    TITLE "Celebrate"
    PERFORMER "Savage"
    INDEX 00 71:41:21
    INDEX 01 71:43:21
  TRACK 19 AUDIO
    TITLE "Goodbye"
    PERFORMER "Savage"
    INDEX 00 74:53:33
    INDEX 01 74:55:33

Отчёт ЕАС&#58;

Exact Audio Copy V1.0 beta 3 from 29. August 2011
EAC extraction logfile from 6. October 2013, 19:47
Savage / Golden Disco Hits
Used drive  : Optiarc DVD RW AD-7243S   Adapter: 4  ID: 0
Read mode               : Secure
Utilize accurate stream : Yes
Defeat audio cache      : Yes
Make use of C2 pointers : No
Read offset correction                      : 48
Overread into Lead-In and Lead-Out          : No
Fill up missing offset samples with silence : Yes
Delete leading and trailing silent blocks   : No
Null samples used in CRC calculations       : Yes
Used interface                              : Native Win32 interface for Win NT & 2000
Used output format              : User Defined Encoder
Selected bitrate                : 1024 kBit/s
Quality                         : High
Add ID3 tag                     : No
Command line compressor         : C:\Program Files (x86)\Exact Audio Copy\Flac\flac.exe
Additional command line options : -8 -V -T "ARTIST=%artist%" -T "TITLE=%title%" -T "ALBUM=%albumtitle%" -T "DATE=%year%" -T "TRACKNUMBER=%tracknr1%" -T "GENRE=%genre%" -T "PERFORMER=%albuminterpret%" -T "COMPOSER=%composer%" %haslyrics%--tag-from-file=LYRICS="%lyricsfile%"%haslyrics% -T "ALBUMARTIST=%albumartist%" -T "DISCNUMBER=%cdnumber%" -T "TOTALDISCS=%totalcds%" -T "TOTALTRACKS=%numtracks%" -T "COMMENT=%comment%" %source% -o %dest%
TOC of the extracted CD
     Track |   Start  |  Length  | Start sector | End sector
    ---------------------------------------------------------
        1  |  0:00.00 |  3:41.59 |         0    |    16633
        2  |  3:41.59 |  3:27.27 |     16634    |    32185
        3  |  7:09.11 |  3:36.47 |     32186    |    48432
        4  | 10:45.58 |  3:26.05 |     48433    |    63887
        5  | 14:11.63 |  3:53.33 |     63888    |    81395
        6  | 18:05.21 |  4:30.50 |     81396    |   101695
        7  | 22:35.71 |  4:41.59 |    101696    |   122829
        8  | 27:17.55 |  3:34.59 |    122830    |   138938
        9  | 30:52.39 |  4:44.73 |    138939    |   160311
       10  | 35:37.37 |  3:51.23 |    160312    |   177659
       11  | 39:28.60 |  4:40.45 |    177660    |   198704
       12  | 44:09.30 |  4:20.30 |    198705    |   218234
       13  | 48:29.60 |  3:54.34 |    218235    |   235818
       14  | 52:24.19 |  6:40.33 |    235819    |   265851
       15  | 59:04.52 |  5:34.24 |    265852    |   290925
       16  | 64:39.01 |  3:24.23 |    290926    |   306248
       17  | 68:03.24 |  3:39.72 |    306249    |   322745
       18  | 71:43.21 |  3:12.12 |    322746    |   337157
       19  | 74:55.33 |  4:35.46 |    337158    |   357828
Range status and errors
Selected range
     Filename E:\Музыка\Lossless\Savage-Golden Disco Hits (2002)\Savage - Golden Disco Hits.wav
     Peak level 96.6 %
     Extraction speed 3.8 X
     Range quality 99.9 %
     Test CRC 1C0781B5
     Copy CRC 1C0781B5
     Copy OK
No errors occurred
AccurateRip summary
Track  1  accurately ripped (confidence 1)  [D470F836]  (AR v1)
Track  2  accurately ripped (confidence 1)  [3FF4D65A]  (AR v1)
Track  3  accurately ripped (confidence 1)  [B29C50C9]  (AR v1)
Track  4  accurately ripped (confidence 1)  [A2677FD2]  (AR v1)
Track  5  accurately ripped (confidence 1)  [FB5B5EDA]  (AR v1)
Track  6  accurately ripped (confidence 1)  [726C6435]  (AR v1)
Track  7  accurately ripped (confidence 1)  [CFE9161B]  (AR v1)
Track  8  accurately ripped (confidence 1)  [B0974D84]  (AR v1)
Track  9  accurately ripped (confidence 1)  [27FC4E89]  (AR v1)
Track 10  accurately ripped (confidence 1)  [AFF0301D]  (AR v1)
Track 11  accurately ripped (confidence 1)  [5FCD7C30]  (AR v1)
Track 12  accurately ripped (confidence 1)  [4A9547DA]  (AR v1)
Track 13  accurately ripped (confidence 1)  [AB4A5AA7]  (AR v1)
Track 14  accurately ripped (confidence 1)  [FE388967]  (AR v1)
Track 15  accurately ripped (confidence 1)  [53DF16E3]  (AR v1)
Track 16  accurately ripped (confidence 1)  [244D7A20]  (AR v1)
Track 17  accurately ripped (confidence 1)  [E78F882D]  (AR v1)
Track 18  accurately ripped (confidence 1)  [866404E2]  (AR v1)
Track 19  accurately ripped (confidence 1)  [769E9A59]  (AR v1)
All tracks accurately ripped
End of status report
---- CUETools DB Plugin V2.1.3
[CTDB TOCID: JrHx5br81NhES7XQAH4AT9Dlgkc-] disk not present in database, Submit result: JrHx5br81NhES7XQAH4AT9Dlgkc- has been uploaded
==== Log checksum 81EA90A9E20C34AD6AB3D788CC41E4362D302CDDA3C0C09C6BA2699D676A6EA5 ====

Отчёт auCDtect Task manager&#58;

-----------------------
DON'T MODIFY THIS FILE
-----------------------
PERFORMER: auCDtect Task Manager, ver. 1.6.0 RC1 build 1.6.0.1
Copyright (c) 2008-2010 y-soft. All rights reserved
http://y-soft.org
ANALYZER: auCDtect: CD records authenticity detector, version 0.8.2
Copyright (c) 2004 Oleg Berngardt. All rights reserved.
Copyright (c) 2004 Alexander Djourik. All rights reserved.
FILE: Savage - Golden Disco Hits.flac
  Size: 544824385 Hash: AADB86851CE83DC51C0518A64EB24AD8 Accuracy: -m0
  Conclusion: CDDA 99%
  Signature: 0D6C4F287C7B2068E6EC9C677652D5C894870A59
[Профиль] [ЛС]

Создавать темы 13-Авг-2015 10:41 (спустя 7 месяцев 19 дней)

Топик был перенесен из форума Зарубежная в форум Technopop, Eurodance, Disco
sergej644
 
Показать сообщения:    

Текущее время: Сегодня 11:08

Часовой пояс: GMT



Вы не можете начинать темы
Вы не можете отвечать на сообщения
Вы не можете редактировать свои сообщения
Вы не можете удалять свои сообщения
Вы не можете голосовать в опросах
Вы не можете прикреплять файлы к сообщениям
Вы не можете скачивать файлы