Saphir - Perfect Combination (2006) Limited Edition [APE|Lossless]<Italo-Disco>

 
Автор Сообщение

sergej644 ®

Пол:

Стаж: 4 года 11 месяцев

Сообщений: 6045

Откуда: Soviet Union



Награды: Нет

Торрент-статистика

Создавать темы 24-Дек-2014 22:32

[Цитировать]

-Saphir - Perfect Combination (2006)- Год: 2006
Лейбл: ESonCD
Каталог #: 200611-2
Жанр: Italo-Disco
Продолжительность: 01:14:29
Кодек: APE
Битрейт: Lossless
Тип битрейта: image +.cue
Треклист:
01. I Feel Good (I Feel Fine) 4:51
02. The Witch-Queen Of New-Orleans 3:31
03. Little Rock 4:06
04. Frough Your Eyes 4:07
05. Shot In The Night 4:21
06. Perfect Combination 3:12
07. Never Give Up 4:00
08. Storms Of Love 3:56
09. Stand Up 3:47
10. I Am Alive 4:00
Bonus Tracks:
11. The Witch-Queen Of New-Orleans (Special Witch-Mix) 6:05
12. Shot In The Night (Extended Remix) 5:56
13. I Am Alive (Extended Remix) 5:29
14. Shot In The Night (Instrumental) 6:06
15. I Am Alive (Instrumental) 5:28
16. I Feel Good (I Feel Fine) (Instrumental) 4:56

Отчёт ЕАС&#58;

Exact Audio Copy V0.99 prebeta 5 from 4. May 2009
Отчёт EAC об извлечении, выполненном 5. сентября 2009, 11:00
Saphir / Perfect Combination
Дисковод: Optiarc DVD RW AD-5200A Adapter: 0 ID: 0
Режим чтения : Достоверность
Использование точного потока : Да
Отключение кэша аудио : Да
Использование указателей C2 : Нет
Коррекция смещения при чтении : 48
Способность читать области Lead-in и Lead-out : Нет
Заполнение пропущенных сэмплов тишиной : Да
Удаление блоков с тишиной в начале и конце : Нет
При вычислениях CRC использовались нулевые сэмплы : Да
Интерфейс : Установленный внешний ASPI-интерфейс
Выходной формат : Внутренние WAV-операции
Формат сэмплов : 44.100 Гц; 16 бит; стерео
TOC извлечённого CD
Трек | Старт | Длительность | Начальный сектор | Конечный сектор
---------------------------------------------------------------------
1 | 0:00.00 | 4:53.73 | 0 | 22047
2 | 4:53.73 | 3:33.44 | 22048 | 38066
3 | 8:27.42 | 4:08.24 | 38067 | 56690
4 | 12:35.66 | 4:09.58 | 56691 | 75423
5 | 16:45.49 | 4:23.25 | 75424 | 95173
6 | 21:08.74 | 3:14.66 | 95174 | 109789
7 | 24:23.65 | 4:02.43 | 109790 | 127982
8 | 28:26.33 | 3:58.35 | 127983 | 145867
9 | 32:24.68 | 3:49.09 | 145868 | 163051
10 | 36:14.02 | 4:02.29 | 163052 | 181230
11 | 40:16.31 | 6:07.47 | 181231 | 208802
12 | 46:24.03 | 5:58.15 | 208803 | 235667
13 | 52:22.18 | 5:31.54 | 235668 | 260546
14 | 57:53.72 | 6:08.71 | 260547 | 288217
15 | 64:02.68 | 5:30.09 | 288218 | 312976
16 | 69:33.02 | 4:56.71 | 312977 | 335247
Характеристики диапазона извлечения и сообщения об ошибках
Выбранный диапазон
Имя файла E:\Saphir - Perfect Combination\Saphir - Perfect Combination.wav
Пиковый уровень 100.0 %
Качество диапазона 100.0 %
CRC теста 0399FC83
CRC копии 0399FC83
Копирование... OK
Ошибок не произошло
AccurateRip: сводка
Трек 1 точное извлечение (доверие 1) [87D878A7]
Трек 2 точное извлечение (доверие 1) [59CFF468]
Трек 3 точное извлечение (доверие 1) [8EC5185F]
Трек 4 точное извлечение (доверие 1) [EB56B3B2]
Трек 5 точное извлечение (доверие 1) [B4CC76CA]
Трек 6 точное извлечение (доверие 1) [2BA9295D]
Трек 7 точное извлечение (доверие 1) [AD46B07D]
Трек 8 точное извлечение (доверие 1) [81491119]
Трек 9 точное извлечение (доверие 1) [388A02CF]
Трек 10 точное извлечение (доверие 1) [0A7CF03B]
Трек 11 точное извлечение (доверие 1) [B8521A16]
Трек 12 точное извлечение (доверие 1) [C020BD07]
Трек 13 точное извлечение (доверие 1) [3AC3C81D]
Трек 14 точное извлечение (доверие 1) [6CED5267]
Трек 15 точное извлечение (доверие 1) [08E4ACB2]
Трек 16 точное извлечение (доверие 1) [E5C716A8]
Все треки извлечены точно
Конец отчёта

Отчёт auCDtect Task manager&#58;

-----------------------
DON'T MODIFY THIS FILE
-----------------------
PERFORMER: auCDtect Task Manager, ver. 1.5.1RC4 build 1.5.1.5
Copyright (c) 2008-2010 y-soft. All rights reserved
http://y-soft.org
ANALYZER: auCDtect: CD records authenticity detector, version 0.8.2
Copyright (c) 2004 Oleg Berngardt. All rights reserved.
Copyright (c) 2004 Alexander Djourik. All rights reserved.
FILE: Saphir - Perfect Combination.ape
  Size: 533962736 Hash: F4D0BEBB6ED6821E21B4B8F3276D4A09 Accuracy: -m0
  Conclusion: CDDA 100%
  Signature: 70DDD4ACBD6F1583072DD8317F76D269F862CAA1

Содержание индексной карты (.CUE&#41;&#58;

REM GENRE Italo-Disco
REM DATE 2006
REM DISCID F2117510
REM COMMENT "ExactAudioCopy v0.99pb5"
PERFORMER "Saphir"
TITLE "Perfect Combination"
FILE "Saphir - Perfect Combination.ape" WAVE
  TRACK 01 AUDIO
    TITLE "I Feel Good (I Feel Fine)"
    PERFORMER "Saphir"
    FLAGS DCP
    INDEX 01 00:00:00
    INDEX 02 02:39:53
  TRACK 02 AUDIO
    TITLE "The Witch-Queen Of New-Orleans"
    PERFORMER "Saphir"
    FLAGS DCP
    INDEX 00 04:51:73
    INDEX 01 04:53:73
  TRACK 03 AUDIO
    TITLE "Little Rock"
    PERFORMER "Saphir"
    FLAGS DCP
    INDEX 00 08:25:42
    INDEX 01 08:27:42
    INDEX 02 08:31:19
    INDEX 03 08:31:20
    INDEX 04 11:27:24
    INDEX 05 12:26:46
  TRACK 04 AUDIO
    TITLE "Frough Your Eyes"
    PERFORMER "Saphir"
    FLAGS DCP
    INDEX 00 12:33:66
    INDEX 01 12:35:66
  TRACK 05 AUDIO
    TITLE "Shot In The Night"
    PERFORMER "Saphir"
    FLAGS DCP
    INDEX 00 16:43:49
    INDEX 01 16:45:49
  TRACK 06 AUDIO
    TITLE "Perfect Combination"
    PERFORMER "Saphir"
    FLAGS DCP
    INDEX 00 21:06:74
    INDEX 01 21:08:74
  TRACK 07 AUDIO
    TITLE "Never Give Up"
    PERFORMER "Saphir"
    FLAGS DCP
    INDEX 00 24:21:65
    INDEX 01 24:23:65
  TRACK 08 AUDIO
    TITLE "Storms Of Love"
    PERFORMER "Saphir"
    FLAGS DCP
    INDEX 00 28:24:33
    INDEX 01 28:26:33
  TRACK 09 AUDIO
    TITLE "Stand Up"
    PERFORMER "Saphir"
    FLAGS DCP
    INDEX 00 32:22:68
    INDEX 01 32:24:68
  TRACK 10 AUDIO
    TITLE "I Am Alive"
    PERFORMER "Saphir"
    FLAGS DCP
    INDEX 00 36:12:02
    INDEX 01 36:14:02
  TRACK 11 AUDIO
    TITLE "Bonus Track - The Witch-Queen Of New-Orleans (Special Witch-Mix)"
    PERFORMER "Saphir"
    FLAGS DCP
    INDEX 00 40:14:31
    INDEX 01 40:16:31
  TRACK 12 AUDIO
    TITLE "Bonus Track - Shot In The Night (Extended Remix)"
    PERFORMER "Saphir"
    FLAGS DCP
    INDEX 00 46:22:03
    INDEX 01 46:24:03
  TRACK 13 AUDIO
    TITLE "Bonus Track - I Am Alive (Extended Remix)"
    PERFORMER "Saphir"
    FLAGS DCP
    INDEX 00 52:20:18
    INDEX 01 52:22:18
  TRACK 14 AUDIO
    TITLE "Bonus Track - Shot In The Night (Instrumental)"
    PERFORMER "Saphir"
    FLAGS DCP
    INDEX 00 57:51:72
    INDEX 01 57:53:72
  TRACK 15 AUDIO
    TITLE "Bonus Track - I Am Alive (Instrumental)"
    PERFORMER "Saphir"
    FLAGS DCP
    INDEX 00 64:00:68
    INDEX 01 64:02:68
  TRACK 16 AUDIO
    TITLE "Bonus Track - I Feel Good (I Feel Fine) (Instrumental)"
    PERFORMER "Saphir"
    FLAGS DCP
    INDEX 00 69:31:02
    INDEX 01 69:33:02
[Профиль] [ЛС]

Создавать темы 13-Авг-2015 10:44 (спустя 7 месяцев 20 дней)

Топик был перенесен из форума Зарубежная в форум Technopop, Eurodance, Disco
sergej644
 
Кто просматривает тему:

Показать сообщения:    

Текущее время: Сегодня 11:52

Часовой пояс: GMT



Вы не можете начинать темы
Вы не можете отвечать на сообщения
Вы не можете редактировать свои сообщения
Вы не можете удалять свои сообщения
Вы не можете голосовать в опросах
Вы не можете прикреплять файлы к сообщениям
Вы не можете скачивать файлы