Santa Claus & D'Jingle Bells - That's Eurobeat Christmas (1993) [FLAC|Lossless]<Electronic, Italo-Disco, Hi NRG>

 
Автор Сообщение

sergej644 ®

Пол:

Стаж: 4 года 11 месяцев

Сообщений: 6046

Откуда: Soviet Union



Награды: Нет

Торрент-статистика

Создавать темы 24-Дек-2014 23:51

[Цитировать]

-Santa Claus & D'Jingle Bells - That's Eurobeat Christmas (1993)- Страна: Italy
Страна-производитель диска: Japan
Жанр: Electronic, Italo-Disco, Hi NRG
Год издания: 1993
Издатель (лейбл): Alfa International
Номер по каталогу: ALCE-0014
-Аудиокодек: FLAC (*.flac)
Тип рипа: image+.cue
Битрейт аудио: lossless
Источник (релизер): cashdan
Наличие сканов в содержимом раздачи: Yes, full
Продолжительность: 00:49:22
Описание: Думаю, что почти 50 минут непрерывных танцев в Новогоднюю Ночь Вам обеспечено под этот диск. И не смотрите, что он издан аж в 1993 году - Новый Год он и через 10 лет будет Новым Годом. Счастливо повеселиться!
Треклист:
01. Happy Christmas (3:16)
02. My Chica (3:33)
03. Jingle Bells (2:45)
04. How Many Times (2:44)
05. White Christmas (3:27)
06. Christmas Theme (Dec 25th Mix) (14:43)
07. Give Me A Chance (3:14)
08. Rock Me Babe (3:03)
09. My Sweet Lord (4:27)
10. Silent Christmas (4:36)
11. Christmas Time (3:33)

Содержание индексной карты (.CUE&#41;&#58;

REM GENRE Electronic
REM DATE 1996
REM DISCID 870B910B
REM COMMENT "ExactAudioCopy v0.99pb5"
PERFORMER "Santa Claus & D'Jingle Bells"
TITLE "That's Eurobeat Christmas"
FILE "Santa Claus & D'Jingle Bells - That's Eurobeat Christmas.flac" WAVE
  TRACK 01 AUDIO
    TITLE "Happy Christmas"
    PERFORMER "Santa Claus & D'Jingle Bells"
    INDEX 01 00:00:00
  TRACK 02 AUDIO
    TITLE "My Chica"
    PERFORMER "Santa Claus & D'Jingle Bells"
    INDEX 01 03:16:25
  TRACK 03 AUDIO
    TITLE "Jingle Bells"
    PERFORMER "Santa Claus & D'Jingle Bells"
    INDEX 01 06:49:52
  TRACK 04 AUDIO
    TITLE "How Many Times"
    PERFORMER "Santa Claus & D'Jingle Bells"
    INDEX 01 09:34:20
  TRACK 05 AUDIO
    TITLE "White Christmas"
    PERFORMER "Santa Claus & D'Jingle Bells"
    INDEX 00 12:17:10
    INDEX 01 12:18:10
  TRACK 06 AUDIO
    TITLE "Christmas Theme (Dec 25th Mix)"
    PERFORMER "Santa Claus & D'Jingle Bells"
    INDEX 00 15:43:67
    INDEX 01 15:44:67
  TRACK 07 AUDIO
    TITLE "Give Me A Chance"
    PERFORMER "Santa Claus & D'Jingle Bells"
    INDEX 01 30:28:20
  TRACK 08 AUDIO
    TITLE "Rock Me Babe"
    PERFORMER "Santa Claus & D'Jingle Bells"
    INDEX 01 33:41:70
  TRACK 09 AUDIO
    TITLE "My Sweet Lord"
    PERFORMER "Santa Claus & D'Jingle Bells"
    INDEX 01 36:45:00
  TRACK 10 AUDIO
    TITLE "Silent Christmas"
    PERFORMER "Santa Claus & D'Jingle Bells"
    INDEX 00 41:11:17
    INDEX 01 41:12:17
  TRACK 11 AUDIO
    TITLE "Christmas Time"
    PERFORMER "Santa Claus & D'Jingle Bells"
    INDEX 00 45:47:17
    INDEX 01 45:48:17

Отчёт ЕАС&#58;

Exact Audio Copy V0.99 prebeta 5 from 4. May 2009
Отчёт EAC об извлечении, выполненном 11. ноября 2011, 16:45
Santa Claus & D'Jingle Bells / That's Eurobeat Christmas
Дисковод: HL-DT-STDVD-RAM GH22NP20   Adapter: 0  ID: 0
Режим чтения                 : Достоверность
Использование точного потока : Да
Отключение кэша аудио        : Да
Использование указателей C2  : Нет
Коррекция смещения при чтении                     : 102
Способность читать области Lead-in и Lead-out     : Нет
Заполнение пропущенных сэмплов тишиной            : Да
Удаление блоков с тишиной в начале и конце        : Нет
При вычислениях CRC использовались нулевые сэмплы : Да
Интерфейс                                         : Встроенный Win32-интерфейс для Win NT/2000
Выходной формат : Внутренние WAV-операции
Формат сэмплов  : 44.100 Гц; 16 бит; стерео
TOC извлечённого CD
     Трек |   Старт  | Длительность | Начальный сектор | Конечный сектор
    ---------------------------------------------------------------------
       1  |  0:00.00 |    3:16.25   |           0      |      14724
       2  |  3:16.25 |    3:33.27   |       14725      |      30726
       3  |  6:49.52 |    2:44.43   |       30727      |      43069
       4  |  9:34.20 |    2:43.65   |       43070      |      55359
       5  | 12:18.10 |    3:26.57   |       55360      |      70866
       6  | 15:44.67 |   14:43.28   |       70867      |     137119
       7  | 30:28.20 |    3:13.50   |      137120      |     151644
       8  | 33:41.70 |    3:03.05   |      151645      |     165374
       9  | 36:45.00 |    4:27.17   |      165375      |     185416
      10  | 41:12.17 |    4:36.00   |      185417      |     206116
      11  | 45:48.17 |    3:33.30   |      206117      |     222121
Характеристики диапазона извлечения и сообщения об ошибках
Выбранный диапазон
     Имя файла D:\Music\Santa Claus & D'Jingle Bells\1996. That's Eurobeat Christmas\Santa Claus & D'Jingle Bells - That's Eurobeat Christmas.wav
     Пиковый уровень 100.0 %
     Качество диапазона 100.0 %
     CRC теста C03B6A91
     CRC копии C03B6A91
     Копирование... OK
Ошибок не произошло
AccurateRip: сводка
Трек  1  нет в базе данных
Трек  2  нет в базе данных
Трек  3  нет в базе данных
Трек  4  нет в базе данных
Трек  5  нет в базе данных
Трек  6  нет в базе данных
Трек  7  нет в базе данных
Трек  8  нет в базе данных
Трек  9  нет в базе данных
Трек 10  нет в базе данных
Трек 11  нет в базе данных
Ни одного трека нет в базе AccurateRip
Конец отчёта

Отчёт auCDtect Task manager&#58;

-----------------------
DON'T MODIFY THIS FILE
-----------------------
PERFORMER: auCDtect Task Manager, ver. 1.6.0 RC1 build 1.6.0.1
Copyright (c) 2008-2010 y-soft. All rights reserved
http://y-soft.org
ANALYZER: auCDtect: CD records authenticity detector, version 0.8.2
Copyright (c) 2004 Oleg Berngardt. All rights reserved.
Copyright (c) 2004 Alexander Djourik. All rights reserved.
FILE: Santa Claus & D'Jingle Bells - That's Eurobeat Christmas.flac
  Size: 376562070 Hash: 3029F47DC9C363C87E5285682866F4D6 Accuracy: -m0
  Conclusion: CDDA 99%
  Signature: 3271CADAE56C1BBD19A491B3BC7DE3DD506E9F38
[Профиль] [ЛС]

Создавать темы 13-Авг-2015 10:41 (спустя 7 месяцев 19 дней)

Топик был перенесен из форума Зарубежная в форум Technopop, Eurodance, Disco
sergej644
 
Показать сообщения:    

Текущее время: Сегодня 06:25

Часовой пояс: GMT



Вы не можете начинать темы
Вы не можете отвечать на сообщения
Вы не можете редактировать свои сообщения
Вы не можете удалять свои сообщения
Вы не можете голосовать в опросах
Вы не можете прикреплять файлы к сообщениям
Вы не можете скачивать файлы