(Pop, Disco, Eurodance) Sandra - The Platinum Collection (3CD Box Set) - 2009 [FLAC, tracks +.cue, lossless]

 
Автор Сообщение

sergej644 ®

Пол:

Стаж: 4 года 11 месяцев

Сообщений: 6045

Откуда: Soviet Union



Награды: Нет

Торрент-статистика

Создавать темы 16-Фев-2016 14:53

[Цитировать]

-Sandra - The Platinum Collection (3CD Box Set)--
Год издания: 2009
Страна: Germany
Жанр: Pop, Disco, Eurodance
Продолжительность: 03:45:26-Лейбл издания: Virgin/EMI
Страна-выпуска диска: EU
Номер по каталогу: 457 3462-Формат: FLAC
Битрейт аудио: Lossless
Тип рипа: tracks +.cue
Наличие сканов в содержимом раздачи: да
-

Трэклист

CD 1 1985-1992 / 01:16:46


01. (I'll Never Be) Maria Magdalena (Single Version) (03:57)
02. In The Heat Of The Night (Single Version) (04:01)
03. Little Girl (03:09)
04. Sisters And Brothers (03:22)
05. Innocent Love (Single Version) (03:50)
06. Hi! Hi! Hi! (Single Version) (03:32)
07. Loreen (04:13)
08. Midnight Man (Single Version) (03:04)
09. Everlasting Love (03:43)
10. Stop For A Minute (Single Version) (03:49)
11. Heaven Can Wait (Single Version) (04:06)
12. Secret Land (Single Version) (04:03)
13. Celebrate Your Life (03:26)
14. We'll Be Together (Single Remix) (03:48)
15. Around My Heart (Single Version) (03:10)
16. Hiroshima (Single Version) (04:15)
17. (Life May Be) A Big Insanity (04:30)
18. One More Night (Single Version) (03:42)
19. Lovelight In Your Eyes (05:27)
20. Johnny Wanna Live (Single Remix) (03:48)

CD 2 1992-2009 / 01:15:11


01. Don't Be Aggressive (Radio Edit) (04:23)
02. I Need Love (Radio Edit) (03:20)
03. Steady Me (03:56)
04. Mirrored In Your Eyes (03:25)
05. Maria Magdalena '93 (04:03)
06. Nights In White Satin (Radio Edit) (03:34)
07. Won't Run Away (04:13)
08. Secret Land '99 (Ultra Violet Radio Edit) (03:43)
09. Forever (03:46)
10. Such A Shame (04:18)
11. Forgive Me (Radio Edit) (03:59)
12. I Close My Eyes (04:03)
13. Secrets Of Love (With Dj Bobo) (03:20)
14. The Way I Am (03:31)
15. What Is It About Me (Radio Edit) (03:12)
16. All You Zombies (05:00)
17. In A Heartbeat (03:38)
18. The Night Is Still Young (With Thomas Anders) (03:21)
19. What If (02:51)
20. Tete A Tete (03:45)

CD 3 The Best 12'' Versions / 01:13:29


01. Maria Magdalena (Extended Version) (07:08)
02. In The Heat of the Night (Extended Version) (07:22)
03. Little Girl (Entended Version) (05:18)
04. Innocent Love (Extended Version) (06:44)
05. Hi! Hi! Hi! (Extended Version) (06:10)
06. Midnight Man (Extended Version) (05:27)
07. Everlasting Love (Extended Version) (07:17)
08. Stop for a Minute (Extended Version) (06:18)
09. Heaven Can Wait (Extended Version) (07:37)
10. Secret Land (Extended Version) (06:31)
11. Everlasting Love (PWL 12' Remix) (07:42)
-

Лог создания рипа

CD 1

Exact Audio Copy V1.1 from 23. June 2015
EAC extraction logfile from 4. February 2016, 1:52
Sandra / The Platinum Collection
Used drive  : PLEXTOR DVDR   PX-891SA   Adapter: 1  ID: 1
Read mode               : Secure
Utilize accurate stream : Yes
Defeat audio cache      : Yes
Make use of C2 pointers : No
Read offset correction                      : 6
Overread into Lead-In and Lead-Out          : No
Fill up missing offset samples with silence : Yes
Delete leading and trailing silent blocks   : No
Null samples used in CRC calculations       : Yes
Used interface                              : Native Win32 interface for Win NT & 2000
Gap handling                                : Appended to previous track
Used output format              : User Defined Encoder
Selected bitrate                : 1024 kBit/s
Quality                         : High
Add ID3 tag                     : No
Command line compressor         : C:\Program Files (x86)\Exact Audio Copy\Flac\flac.exe
Additional command line options : -0 -V -T "ARTIST=%artist%" -T "TITLE=%title%" -T "ALBUM=%albumtitle%" -T "DATE=%year%" -T "TRACKNUMBER=%tracknr%" -T "TOTALTRACKS=%numtracks%" -T "GENRE=%genre%" -T "COMMENT=Naftamusic Release!" %source%
TOC of the extracted CD
     Track |   Start  |  Length  | Start sector | End sector
    ---------------------------------------------------------
        1  |  0:00.00 |  3:56.53 |         0    |    17752
        2  |  3:56.53 |  4:00.69 |     17753    |    35821
        3  |  7:57.47 |  3:08.59 |     35822    |    49980
        4  | 11:06.31 |  3:21.65 |     49981    |    65120
        5  | 14:28.21 |  3:49.12 |     65121    |    82307
        6  | 18:17.33 |  3:31.27 |     82308    |    98159
        7  | 21:48.60 |  4:12.21 |     98160    |   117080
        8  | 26:01.06 |  3:03.35 |    117081    |   130840
        9  | 29:04.41 |  3:42.10 |    130841    |   147500
       10  | 32:46.51 |  3:48.51 |    147501    |   164651
       11  | 36:35.27 |  4:05.66 |    164652    |   183092
       12  | 40:41.18 |  4:02.46 |    183093    |   201288
       13  | 44:43.64 |  3:25.60 |    201289    |   216723
       14  | 48:09.49 |  3:47.04 |    216724    |   233752
       15  | 51:56.53 |  3:09.28 |    233753    |   247955
       16  | 55:06.06 |  4:14.59 |    247956    |   267064
       17  | 59:20.65 |  4:29.08 |    267065    |   287247
       18  | 63:49.73 |  3:41.46 |    287248    |   303868
       19  | 67:31.44 |  5:26.35 |    303869    |   328353
       20  | 72:58.04 |  3:47.42 |    328354    |   345420
Track  1
     Filename E:\Nafta Releases\Sandra - The Platinum Collection (3 CD Box Set 2009)[FLAC] - Naftamusic\CD 1\01 - (I'll Never Be) Maria Magdalena (Single Version).wav
     Pre-gap length  0:00:02.00
     Peak level 99.8 %
     Extraction speed 1.6 X
     Track quality 99.9 %
     Test CRC 01832B94
     Copy CRC 01832B94
     Cannot be verified as accurate (confidence 21)  [FDCB7A2B], AccurateRip returned [6219BBE1]  (AR v2)
     Copy OK
Track  2
     Filename E:\Nafta Releases\Sandra - The Platinum Collection (3 CD Box Set 2009)[FLAC] - Naftamusic\CD 1\02 - In The Heat Of The Night (Single Version).wav
     Pre-gap length  0:00:00.26
     Peak level 99.8 %
     Extraction speed 2.3 X
     Track quality 100.0 %
     Test CRC DEB606FA
     Copy CRC DEB606FA
     Cannot be verified as accurate (confidence 22)  [E59E66C1], AccurateRip returned [79212E9D]  (AR v2)
     Copy OK
Track  3
     Filename E:\Nafta Releases\Sandra - The Platinum Collection (3 CD Box Set 2009)[FLAC] - Naftamusic\CD 1\03 - Little Girl.wav
     Pre-gap length  0:00:00.21
     Peak level 99.8 %
     Extraction speed 2.4 X
     Track quality 100.0 %
     Test CRC 4785B3EC
     Copy CRC 4785B3EC
     Cannot be verified as accurate (confidence 22)  [16DEFB39], AccurateRip returned [47B7AECB]  (AR v2)
     Copy OK
Track  4
     Filename E:\Nafta Releases\Sandra - The Platinum Collection (3 CD Box Set 2009)[FLAC] - Naftamusic\CD 1\04 - Sisters And Brothers.wav
     Pre-gap length  0:00:00.45
     Peak level 99.8 %
     Extraction speed 1.8 X
     Track quality 99.9 %
     Test CRC 80085236
     Copy CRC 80085236
     Cannot be verified as accurate (confidence 22)  [E2491DAB], AccurateRip returned [A41C8B9B]  (AR v2)
     Copy OK
Track  5
     Filename E:\Nafta Releases\Sandra - The Platinum Collection (3 CD Box Set 2009)[FLAC] - Naftamusic\CD 1\05 - Innocent Love (Single Version).wav
     Pre-gap length  0:00:00.45
     Peak level 99.8 %
     Extraction speed 2.8 X
     Track quality 100.0 %
     Test CRC D5567471
     Copy CRC D5567471
     Cannot be verified as accurate (confidence 22)  [B46FDDD0], AccurateRip returned [FBFA33BD]  (AR v2)
     Copy OK
Track  6
     Filename E:\Nafta Releases\Sandra - The Platinum Collection (3 CD Box Set 2009)[FLAC] - Naftamusic\CD 1\06 - Hi! Hi! Hi! (Single Version).wav
     Pre-gap length  0:00:00.39
     Peak level 99.8 %
     Extraction speed 2.9 X
     Track quality 100.0 %
     Test CRC 2B4D017D
     Copy CRC 2B4D017D
     Cannot be verified as accurate (confidence 22)  [84E95EF5], AccurateRip returned [AB534BEC]  (AR v2)
     Copy OK
Track  7
     Filename E:\Nafta Releases\Sandra - The Platinum Collection (3 CD Box Set 2009)[FLAC] - Naftamusic\CD 1\07 - Loreen.wav
     Pre-gap length  0:00:01.12
     Peak level 99.8 %
     Extraction speed 3.1 X
     Track quality 100.0 %
     Test CRC 17582D10
     Copy CRC 17582D10
     Cannot be verified as accurate (confidence 22)  [F30F8540], AccurateRip returned [14BA2815]  (AR v2)
     Copy OK
Track  8
     Filename E:\Nafta Releases\Sandra - The Platinum Collection (3 CD Box Set 2009)[FLAC] - Naftamusic\CD 1\08 - Midnight Man (Single Version).wav
     Pre-gap length  0:00:00.64
     Peak level 99.8 %
     Extraction speed 3.0 X
     Track quality 100.0 %
     Test CRC 52FC21D5
     Copy CRC 52FC21D5
     Cannot be verified as accurate (confidence 22)  [3BD36B5F], AccurateRip returned [F4305CB5]  (AR v2)
     Copy OK
Track  9
     Filename E:\Nafta Releases\Sandra - The Platinum Collection (3 CD Box Set 2009)[FLAC] - Naftamusic\CD 1\09 - Everlasting Love.wav
     Pre-gap length  0:00:00.74
     Peak level 99.8 %
     Extraction speed 3.2 X
     Track quality 100.0 %
     Test CRC CA365BA4
     Copy CRC CA365BA4
     Cannot be verified as accurate (confidence 22)  [1BD32426], AccurateRip returned [F61D845D]  (AR v2)
     Copy OK
Track 10
     Filename E:\Nafta Releases\Sandra - The Platinum Collection (3 CD Box Set 2009)[FLAC] - Naftamusic\CD 1\10 - Stop For A Minute (Single Version).wav
     Pre-gap length  0:00:00.67
     Peak level 99.8 %
     Extraction speed 3.4 X
     Track quality 100.0 %
     Test CRC 7FE867D8
     Copy CRC 7FE867D8
     Cannot be verified as accurate (confidence 22)  [5891C240], AccurateRip returned [B747D53C]  (AR v2)
     Copy OK
Track 11
     Filename E:\Nafta Releases\Sandra - The Platinum Collection (3 CD Box Set 2009)[FLAC] - Naftamusic\CD 1\11 - Heaven Can Wait (Single Version).wav
     Pre-gap length  0:00:00.46
     Peak level 99.8 %
     Extraction speed 3.6 X
     Track quality 100.0 %
     Test CRC FF953C7B
     Copy CRC FF953C7B
     Cannot be verified as accurate (confidence 22)  [BCDF3C20], AccurateRip returned [D9A9DFD4]  (AR v2)
     Copy OK
Track 12
     Filename E:\Nafta Releases\Sandra - The Platinum Collection (3 CD Box Set 2009)[FLAC] - Naftamusic\CD 1\12 - Secret Land (Single Version).wav
     Pre-gap length  0:00:01.02
     Peak level 99.8 %
     Extraction speed 3.7 X
     Track quality 100.0 %
     Test CRC 58013D49
     Copy CRC 58013D49
     Cannot be verified as accurate (confidence 22)  [488A9791], AccurateRip returned [66CF705F]  (AR v2)
     Copy OK
Track 13
     Filename E:\Nafta Releases\Sandra - The Platinum Collection (3 CD Box Set 2009)[FLAC] - Naftamusic\CD 1\13 - Celebrate Your Life.wav
     Pre-gap length  0:00:00.74
     Peak level 99.8 %
     Extraction speed 3.7 X
     Track quality 100.0 %
     Test CRC 597030AF
     Copy CRC 597030AF
     Cannot be verified as accurate (confidence 22)  [500DD3D1], AccurateRip returned [F3919A51]  (AR v2)
     Copy OK
Track 14
     Filename E:\Nafta Releases\Sandra - The Platinum Collection (3 CD Box Set 2009)[FLAC] - Naftamusic\CD 1\14 - We'll Be Together (Single Remix).wav
     Pre-gap length  0:00:00.31
     Peak level 99.8 %
     Extraction speed 2.8 X
     Track quality 99.9 %
     Test CRC 8420FC4C
     Copy CRC 8420FC4C
     Cannot be verified as accurate (confidence 22)  [BEE7C929], AccurateRip returned [CE81A49C]  (AR v2)
     Copy OK
Track 15
     Filename E:\Nafta Releases\Sandra - The Platinum Collection (3 CD Box Set 2009)[FLAC] - Naftamusic\CD 1\15 - Around My Heart (Single Version).wav
     Pre-gap length  0:00:00.44
     Peak level 99.8 %
     Extraction speed 3.8 X
     Track quality 100.0 %
     Test CRC 12EC5DA5
     Copy CRC 12EC5DA5
     Cannot be verified as accurate (confidence 22)  [84978053], AccurateRip returned [D9AE083C]  (AR v2)
     Copy OK
Track 16
     Filename E:\Nafta Releases\Sandra - The Platinum Collection (3 CD Box Set 2009)[FLAC] - Naftamusic\CD 1\16 - Hiroshima (Single Version).wav
     Pre-gap length  0:00:00.43
     Peak level 99.8 %
     Extraction speed 4.1 X
     Track quality 100.0 %
     Test CRC B687144D
     Copy CRC B687144D
     Cannot be verified as accurate (confidence 21)  [2F193D30], AccurateRip returned [1C9E497A]  (AR v2)
     Copy OK
Track 17
     Filename E:\Nafta Releases\Sandra - The Platinum Collection (3 CD Box Set 2009)[FLAC] - Naftamusic\CD 1\17 - (Life May Be) A Big Insanity.wav
     Pre-gap length  0:00:00.55
     Peak level 99.8 %
     Extraction speed 4.2 X
     Track quality 100.0 %
     Test CRC 89EBC0C8
     Copy CRC 89EBC0C8
     Cannot be verified as accurate (confidence 22)  [D5F1DE3D], AccurateRip returned [6FEE4B7E]  (AR v2)
     Copy OK
Track 18
     Filename E:\Nafta Releases\Sandra - The Platinum Collection (3 CD Box Set 2009)[FLAC] - Naftamusic\CD 1\18 - One More Night (Single Version).wav
     Pre-gap length  0:00:00.30
     Peak level 99.8 %
     Extraction speed 4.2 X
     Track quality 100.0 %
     Test CRC 2AB9A660
     Copy CRC 2AB9A660
     Cannot be verified as accurate (confidence 22)  [18EEB9A5], AccurateRip returned [C692B329]  (AR v2)
     Copy OK
Track 19
     Filename E:\Nafta Releases\Sandra - The Platinum Collection (3 CD Box Set 2009)[FLAC] - Naftamusic\CD 1\19 - Lovelight In Your Eyes.wav
     Pre-gap length  0:00:00.50
     Peak level 99.8 %
     Extraction speed 4.5 X
     Track quality 100.0 %
     Test CRC 7100F66F
     Copy CRC 7100F66F
     Cannot be verified as accurate (confidence 22)  [775CF205], AccurateRip returned [25068CA6]  (AR v2)
     Copy OK
Track 20
     Filename E:\Nafta Releases\Sandra - The Platinum Collection (3 CD Box Set 2009)[FLAC] - Naftamusic\CD 1\20 - Johnny Wanna Live (Single Remix).wav
     Pre-gap length  0:00:00.13
     Peak level 99.8 %
     Extraction speed 4.4 X
     Track quality 100.0 %
     Test CRC 767EC26F
     Copy CRC 767EC26F
     Cannot be verified as accurate (confidence 22)  [A7A5DA26], AccurateRip returned [E6EBEE3E]  (AR v2)
     Copy OK
No tracks could be verified as accurate
You may have a different pressing from the one(s) in the database
No errors occurred
End of status report

CD 2

Exact Audio Copy V1.1 from 23. June 2015
EAC extraction logfile from 4. February 2016, 19:18
Sandra / The Platinum Collection
Used drive  : PLEXTOR DVDR   PX-891SA   Adapter: 1  ID: 1
Read mode               : Secure
Utilize accurate stream : Yes
Defeat audio cache      : Yes
Make use of C2 pointers : No
Read offset correction                      : 6
Overread into Lead-In and Lead-Out          : No
Fill up missing offset samples with silence : Yes
Delete leading and trailing silent blocks   : No
Null samples used in CRC calculations       : Yes
Used interface                              : Native Win32 interface for Win NT & 2000
Gap handling                                : Appended to previous track
Used output format              : User Defined Encoder
Selected bitrate                : 1024 kBit/s
Quality                         : High
Add ID3 tag                     : No
Command line compressor         : C:\Program Files (x86)\Exact Audio Copy\Flac\flac.exe
Additional command line options : -0 -V -T "ARTIST=%artist%" -T "TITLE=%title%" -T "ALBUM=%albumtitle%" -T "DATE=%year%" -T "TRACKNUMBER=%tracknr%" -T "TOTALTRACKS=%numtracks%" -T "GENRE=%genre%" -T "COMMENT=Naftamusic Release!" %source%
TOC of the extracted CD
     Track |   Start  |  Length  | Start sector | End sector
    ---------------------------------------------------------
        1  |  0:00.00 |  4:22.72 |         0    |    19721
        2  |  4:22.72 |  3:19.56 |     19722    |    34702
        3  |  7:42.53 |  3:55.43 |     34703    |    52370
        4  | 11:38.21 |  3:24.23 |     52371    |    67693
        5  | 15:02.44 |  4:02.64 |     67694    |    85907
        6  | 19:05.33 |  3:33.24 |     85908    |   101906
        7  | 22:38.57 |  4:12.21 |    101907    |   120827
        8  | 26:51.03 |  3:42.23 |    120828    |   137500
        9  | 30:33.26 |  3:45.15 |    137501    |   154390
       10  | 34:18.41 |  4:17.59 |    154391    |   173724
       11  | 38:36.25 |  3:58.55 |    173725    |   191629
       12  | 42:35.05 |  4:02.29 |    191630    |   209808
       13  | 46:37.34 |  3:19.43 |    209809    |   224776
       14  | 49:57.02 |  3:30.03 |    224777    |   240529
       15  | 53:27.05 |  3:11.15 |    240530    |   254869
       16  | 56:38.20 |  4:59.52 |    254870    |   277346
       17  | 61:37.72 |  3:37.71 |    277347    |   293692
       18  | 65:15.68 |  3:20.30 |    293693    |   308722
       19  | 68:36.23 |  2:50.06 |    308723    |   321478
       20  | 71:26.29 |  3:44.19 |    321479    |   338297
Track  1
     Filename E:\Nafta Releases\Sandra - The Platinum Collection (3 CD Box Set 2009)[FLAC] - Naftamusic\CD 2\01 - Don't Be Aggressive (Radio Edit).wav
     Pre-gap length  0:00:02.00
     Peak level 99.8 %
     Extraction speed 1.6 X
     Track quality 99.9 %
     Test CRC 8DD5001A
     Copy CRC 8DD5001A
     Cannot be verified as accurate (confidence 24)  [B1BB03AF], AccurateRip returned [C03C9B05]  (AR v2)
     Copy OK
Track  2
     Filename E:\Nafta Releases\Sandra - The Platinum Collection (3 CD Box Set 2009)[FLAC] - Naftamusic\CD 2\02 - I Need Love (Radio Edit).wav
     Pre-gap length  0:00:00.62
     Peak level 99.8 %
     Extraction speed 2.2 X
     Track quality 100.0 %
     Test CRC 5A15D763
     Copy CRC 5A15D763
     Cannot be verified as accurate (confidence 24)  [5C66EB71], AccurateRip returned [DB0EA0FD]  (AR v2)
     Copy OK
Track  3
     Filename E:\Nafta Releases\Sandra - The Platinum Collection (3 CD Box Set 2009)[FLAC] - Naftamusic\CD 2\03 - Steady Me.wav
     Pre-gap length  0:00:01.36
     Peak level 99.8 %
     Extraction speed 2.5 X
     Track quality 100.0 %
     Test CRC 127A0834
     Copy CRC 127A0834
     Cannot be verified as accurate (confidence 24)  [2B2FAEA9], AccurateRip returned [1BF42F65]  (AR v2)
     Copy OK
Track  4
     Filename E:\Nafta Releases\Sandra - The Platinum Collection (3 CD Box Set 2009)[FLAC] - Naftamusic\CD 2\04 - Mirrored In Your Eyes.wav
     Pre-gap length  0:00:00.50
     Peak level 99.8 %
     Extraction speed 2.6 X
     Track quality 100.0 %
     Test CRC C8ADD632
     Copy CRC C8ADD632
     Cannot be verified as accurate (confidence 24)  [5CF5842C], AccurateRip returned [F70D781F]  (AR v2)
     Copy OK
Track  5
     Filename E:\Nafta Releases\Sandra - The Platinum Collection (3 CD Box Set 2009)[FLAC] - Naftamusic\CD 2\05 - Maria Magdalena '93.wav
     Pre-gap length  0:00:00.43
     Peak level 99.8 %
     Extraction speed 2.8 X
     Track quality 100.0 %
     Test CRC 78157D86
     Copy CRC 78157D86
     Cannot be verified as accurate (confidence 24)  [B69BF4B3], AccurateRip returned [A9E2D5B8]  (AR v2)
     Copy OK
Track  6
     Filename E:\Nafta Releases\Sandra - The Platinum Collection (3 CD Box Set 2009)[FLAC] - Naftamusic\CD 2\06 - Nights In White Satin (Radio Edit).wav
     Pre-gap length  0:00:00.34
     Peak level 99.8 %
     Extraction speed 2.9 X
     Track quality 100.0 %
     Test CRC FBA4F4B4
     Copy CRC FBA4F4B4
     Cannot be verified as accurate (confidence 24)  [8E831EF9], AccurateRip returned [3AB22083]  (AR v2)
     Copy OK
Track  7
     Filename E:\Nafta Releases\Sandra - The Platinum Collection (3 CD Box Set 2009)[FLAC] - Naftamusic\CD 2\07 - Won't Run Away.wav
     Pre-gap length  0:00:00.63
     Peak level 84.0 %
     Extraction speed 3.1 X
     Track quality 100.0 %
     Test CRC A13F03A4
     Copy CRC A13F03A4
     Cannot be verified as accurate (confidence 24)  [262D2888], AccurateRip returned [E295ACC9]  (AR v2)
     Copy OK
Track  8
     Filename E:\Nafta Releases\Sandra - The Platinum Collection (3 CD Box Set 2009)[FLAC] - Naftamusic\CD 2\08 - Secret Land '99 (Ultra Violet Radio Edit).wav
     Pre-gap length  0:00:00.66
     Peak level 99.8 %
     Extraction speed 3.2 X
     Track quality 100.0 %
     Test CRC 6A178036
     Copy CRC 6A178036
     Cannot be verified as accurate (confidence 23)  [9FC21ECE], AccurateRip returned [49CF3A3A]  (AR v2)
     Copy OK
Track  9
     Filename E:\Nafta Releases\Sandra - The Platinum Collection (3 CD Box Set 2009)[FLAC] - Naftamusic\CD 2\09 - Forever.wav
     Pre-gap length  0:00:01.39
     Peak level 89.0 %
     Extraction speed 3.3 X
     Track quality 100.0 %
     Test CRC 442A8AC1
     Copy CRC 442A8AC1
     Cannot be verified as accurate (confidence 24)  [2C1E218E], AccurateRip returned [8852FF6F]  (AR v2)
     Copy OK
Track 10
     Filename E:\Nafta Releases\Sandra - The Platinum Collection (3 CD Box Set 2009)[FLAC] - Naftamusic\CD 2\10 - Such A Shame.wav
     Pre-gap length  0:00:01.11
     Peak level 89.0 %
     Extraction speed 3.5 X
     Track quality 100.0 %
     Test CRC D5ECB155
     Copy CRC D5ECB155
     Cannot be verified as accurate (confidence 24)  [F5946686], AccurateRip returned [2175D1D5]  (AR v2)
     Copy OK
Track 11
     Filename E:\Nafta Releases\Sandra - The Platinum Collection (3 CD Box Set 2009)[FLAC] - Naftamusic\CD 2\11 - Forgive Me  (Radio Edit).wav
     Pre-gap length  0:00:00.72
     Peak level 99.8 %
     Extraction speed 2.6 X
     Track quality 99.9 %
     Test CRC 7B901BCF
     Copy CRC 7B901BCF
     Cannot be verified as accurate (confidence 24)  [3D4B8E36], AccurateRip returned [B38C236E]  (AR v2)
     Copy OK
Track 12
     Filename E:\Nafta Releases\Sandra - The Platinum Collection (3 CD Box Set 2009)[FLAC] - Naftamusic\CD 2\12 - I Close My Eyes.wav
     Pre-gap length  0:00:01.09
     Peak level 99.8 %
     Extraction speed 3.7 X
     Track quality 100.0 %
     Test CRC 6206C80E
     Copy CRC 6206C80E
     Cannot be verified as accurate (confidence 24)  [73D860DD], AccurateRip returned [729C9881]  (AR v2)
     Copy OK
Track 13
     Filename E:\Nafta Releases\Sandra - The Platinum Collection (3 CD Box Set 2009)[FLAC] - Naftamusic\CD 2\13 - Secrets Of Love (With Dj Bobo).wav
     Pre-gap length  0:00:00.65
     Peak level 99.8 %
     Extraction speed 3.7 X
     Track quality 100.0 %
     Test CRC 7CACCF64
     Copy CRC 7CACCF64
     Cannot be verified as accurate (confidence 24)  [19A82C65], AccurateRip returned [8F14DD71]  (AR v2)
     Copy OK
Track 14
     Filename E:\Nafta Releases\Sandra - The Platinum Collection (3 CD Box Set 2009)[FLAC] - Naftamusic\CD 2\14 - The Way I Am.wav
     Pre-gap length  0:00:01.61
     Peak level 89.0 %
     Extraction speed 3.8 X
     Track quality 100.0 %
     Test CRC 2D22BB96
     Copy CRC 2D22BB96
     Cannot be verified as accurate (confidence 24)  [313B7007], AccurateRip returned [475FD75F]  (AR v2)
     Copy OK
Track 15
     Filename E:\Nafta Releases\Sandra - The Platinum Collection (3 CD Box Set 2009)[FLAC] - Naftamusic\CD 2\15 - What Is It About Me (Radio Edit).wav
     Pre-gap length  0:00:01.11
     Peak level 89.0 %
     Extraction speed 2.7 X
     Track quality 99.9 %
     Test CRC B6D33FDF
     Copy CRC B6D33FDF
     Cannot be verified as accurate (confidence 24)  [3CB3F32D], AccurateRip returned [4AE693F9]  (AR v2)
     Copy OK
Track 16
     Filename E:\Nafta Releases\Sandra - The Platinum Collection (3 CD Box Set 2009)[FLAC] - Naftamusic\CD 2\16 - All You Zombies.wav
     Pre-gap length  0:00:01.68
     Peak level 89.0 %
     Extraction speed 4.2 X
     Track quality 100.0 %
     Test CRC C7640E07
     Copy CRC C7640E07
     Cannot be verified as accurate (confidence 24)  [10C1BBE7], AccurateRip returned [7B4664D6]  (AR v2)
     Copy OK
Track 17
     Filename E:\Nafta Releases\Sandra - The Platinum Collection (3 CD Box Set 2009)[FLAC] - Naftamusic\CD 2\17 - In A Heartbeat.wav
     Pre-gap length  0:00:00.33
     Peak level 79.3 %
     Extraction speed 4.2 X
     Track quality 100.0 %
     Test CRC DE73A50E
     Copy CRC DE73A50E
     Cannot be verified as accurate (confidence 24)  [4EF9F20C], AccurateRip returned [31C89829]  (AR v2)
     Copy OK
Track 18
     Filename E:\Nafta Releases\Sandra - The Platinum Collection (3 CD Box Set 2009)[FLAC] - Naftamusic\CD 2\18 - The Night Is Still Young (With Thomas Anders).wav
     Pre-gap length  0:00:01.32
     Peak level 63.0 %
     Extraction speed 4.1 X
     Track quality 100.0 %
     Test CRC 82822FA7
     Copy CRC 82822FA7
     Cannot be verified as accurate (confidence 24)  [D572EE7C], AccurateRip returned [29E445D2]  (AR v2)
     Copy OK
Track 19
     Filename E:\Nafta Releases\Sandra - The Platinum Collection (3 CD Box Set 2009)[FLAC] - Naftamusic\CD 2\19 - What If.wav
     Pre-gap length  0:00:00.54
     Peak level 99.8 %
     Extraction speed 4.1 X
     Track quality 100.0 %
     Test CRC D061A3D7
     Copy CRC D061A3D7
     Cannot be verified as accurate (confidence 24)  [BC6FA9A8], AccurateRip returned [93683120]  (AR v2)
     Copy OK
Track 20
     Filename E:\Nafta Releases\Sandra - The Platinum Collection (3 CD Box Set 2009)[FLAC] - Naftamusic\CD 2\20 - Tete A Tete.wav
     Pre-gap length  0:00:01.43
     Peak level 99.8 %
     Extraction speed 4.4 X
     Track quality 100.0 %
     Test CRC 9CBF6855
     Copy CRC 9CBF6855
     Cannot be verified as accurate (confidence 24)  [AE9914B2], AccurateRip returned [2FA958C3]  (AR v2)
     Copy OK
No tracks could be verified as accurate
You may have a different pressing from the one(s) in the database
No errors occurred
End of status report

CD 3

Exact Audio Copy V1.1 from 23. June 2015
EAC extraction logfile from 4. February 2016, 20:16
Sandra / The Platinum Collection
Used drive  : PLEXTOR DVDR   PX-891SA   Adapter: 1  ID: 1
Read mode               : Secure
Utilize accurate stream : Yes
Defeat audio cache      : Yes
Make use of C2 pointers : No
Read offset correction                      : 6
Overread into Lead-In and Lead-Out          : No
Fill up missing offset samples with silence : Yes
Delete leading and trailing silent blocks   : No
Null samples used in CRC calculations       : Yes
Used interface                              : Native Win32 interface for Win NT & 2000
Gap handling                                : Appended to previous track
Used output format              : User Defined Encoder
Selected bitrate                : 1024 kBit/s
Quality                         : High
Add ID3 tag                     : No
Command line compressor         : C:\Program Files (x86)\Exact Audio Copy\Flac\flac.exe
Additional command line options : -0 -V -T "ARTIST=%artist%" -T "TITLE=%title%" -T "ALBUM=%albumtitle%" -T "DATE=%year%" -T "TRACKNUMBER=%tracknr%" -T "TOTALTRACKS=%numtracks%" -T "GENRE=%genre%" -T "COMMENT=Naftamusic Release!" %source%
TOC of the extracted CD
     Track |   Start  |  Length  | Start sector | End sector
    ---------------------------------------------------------
        1  |  0:00.00 |  7:07.52 |         0    |    32076
        2  |  7:07.52 |  7:21.02 |     32077    |    65153
        3  | 14:28.54 |  5:17.50 |     65154    |    88978
        4  | 19:46.29 |  6:43.22 |     88979    |   119225
        5  | 26:29.51 |  6:09.67 |    119226    |   146967
        6  | 32:39.43 |  5:26.01 |    146968    |   171418
        7  | 38:05.44 |  7:16.63 |    171419    |   204181
        8  | 45:22.32 |  6:17.36 |    204182    |   232492
        9  | 51:39.68 |  7:37.00 |    232493    |   266767
       10  | 59:16.68 |  6:30.58 |    266768    |   296075
       11  | 65:47.51 |  7:41.10 |    296076    |   330660
Track  1
     Filename E:\Nafta Releases\Sandra - The Platinum Collection (3 CD Box Set 2009)[FLAC] - Naftamusic\CD 3\01 - Maria Magdalena (Extended Version).wav
     Pre-gap length  0:00:02.00
     Peak level 99.8 %
     Extraction speed 2.3 X
     Track quality 100.0 %
     Test CRC 80A0026C
     Copy CRC 80A0026C
     Cannot be verified as accurate (confidence 4)  [53931AC3], AccurateRip returned [50DCEDEE]  (AR v2)
     Copy OK
Track  2
     Filename E:\Nafta Releases\Sandra - The Platinum Collection (3 CD Box Set 2009)[FLAC] - Naftamusic\CD 3\02 - In The Heat of the Night (Extended Version).wav
     Pre-gap length  0:00:00.09
     Peak level 99.8 %
     Extraction speed 2.7 X
     Track quality 100.0 %
     Test CRC 4FCA0149
     Copy CRC 4FCA0149
     Cannot be verified as accurate (confidence 4)  [DE3E59E9], AccurateRip returned [183E78AF]  (AR v2)
     Copy OK
Track  3
     Filename E:\Nafta Releases\Sandra - The Platinum Collection (3 CD Box Set 2009)[FLAC] - Naftamusic\CD 3\03 - Little Girl (Entended Version).wav
     Pre-gap length  0:00:00.19
     Peak level 99.8 %
     Extraction speed 2.9 X
     Track quality 100.0 %
     Test CRC C9589FA6
     Copy CRC C9589FA6
     Cannot be verified as accurate (confidence 4)  [CF4CF7A0], AccurateRip returned [5B0E4356]  (AR v2)
     Copy OK
Track  4
     Filename E:\Nafta Releases\Sandra - The Platinum Collection (3 CD Box Set 2009)[FLAC] - Naftamusic\CD 3\04 - Innocent Love (Extended Version).wav
     Pre-gap length  0:00:00.23
     Peak level 99.8 %
     Extraction speed 3.2 X
     Track quality 100.0 %
     Test CRC 584C57CF
     Copy CRC 584C57CF
     Cannot be verified as accurate (confidence 4)  [4A6D9179], AccurateRip returned [A8A5588D]  (AR v2)
     Copy OK
Track  5
     Filename E:\Nafta Releases\Sandra - The Platinum Collection (3 CD Box Set 2009)[FLAC] - Naftamusic\CD 3\05 - Hi! Hi! Hi! (Extended Version).wav
     Pre-gap length  0:00:00.25
     Peak level 99.8 %
     Extraction speed 3.4 X
     Track quality 100.0 %
     Test CRC 4BD269F5
     Copy CRC 4BD269F5
     Cannot be verified as accurate (confidence 4)  [F120EE52], AccurateRip returned [4C62BDA2]  (AR v2)
     Copy OK
Track  6
     Filename E:\Nafta Releases\Sandra - The Platinum Collection (3 CD Box Set 2009)[FLAC] - Naftamusic\CD 3\06 - Midnight Man (Extended Version).wav
     Pre-gap length  0:00:00.29
     Peak level 99.8 %
     Extraction speed 2.8 X
     Track quality 99.9 %
     Test CRC 491B324F
     Copy CRC 491B324F
     Cannot be verified as accurate (confidence 4)  [E210B794], AccurateRip returned [804C7BE4]  (AR v2)
     Copy OK
Track  7
     Filename E:\Nafta Releases\Sandra - The Platinum Collection (3 CD Box Set 2009)[FLAC] - Naftamusic\CD 3\07 - Everlasting Love (Extended Version).wav
     Pre-gap length  0:00:00.12
     Peak level 99.8 %
     Extraction speed 3.9 X
     Track quality 100.0 %
     Test CRC CBE7490F
     Copy CRC CBE7490F
     Cannot be verified as accurate (confidence 4)  [23E343DF], AccurateRip returned [980F9816]  (AR v2)
     Copy OK
Track  8
     Filename E:\Nafta Releases\Sandra - The Platinum Collection (3 CD Box Set 2009)[FLAC] - Naftamusic\CD 3\08 - Stop for a Minute (Extended Version).wav
     Pre-gap length  0:00:00.24
     Peak level 99.8 %
     Extraction speed 3.2 X
     Track quality 99.9 %
     Test CRC 1CE5365F
     Copy CRC 1CE5365F
     Cannot be verified as accurate (confidence 4)  [8A429B06], AccurateRip returned [B866D565]  (AR v2)
     Copy OK
Track  9
     Filename E:\Nafta Releases\Sandra - The Platinum Collection (3 CD Box Set 2009)[FLAC] - Naftamusic\CD 3\09 - Heaven Can Wait (Extended Version).wav
     Pre-gap length  0:00:00.25
     Peak level 99.8 %
     Extraction speed 4.3 X
     Track quality 100.0 %
     Test CRC 710BF272
     Copy CRC 710BF272
     Cannot be verified as accurate (confidence 4)  [9BB6DC3C], AccurateRip returned [6D8028E9]  (AR v2)
     Copy OK
Track 10
     Filename E:\Nafta Releases\Sandra - The Platinum Collection (3 CD Box Set 2009)[FLAC] - Naftamusic\CD 3\10 - Secret Land (Extended Version).wav
     Pre-gap length  0:00:00.25
     Peak level 99.8 %
     Extraction speed 3.6 X
     Track quality 99.9 %
     Test CRC 82DB9523
     Copy CRC 82DB9523
     Cannot be verified as accurate (confidence 4)  [252B497C], AccurateRip returned [45A92068]  (AR v2)
     Copy OK
Track 11
     Filename E:\Nafta Releases\Sandra - The Platinum Collection (3 CD Box Set 2009)[FLAC] - Naftamusic\CD 3\11 - Everlasting Love (PWL 12'' Remix).wav
     Pre-gap length  0:00:00.27
     Peak level 99.8 %
     Extraction speed 3.8 X
     Track quality 99.9 %
     Test CRC 7F1000AF
     Copy CRC 7F1000AF
     Cannot be verified as accurate (confidence 4)  [289297AE], AccurateRip returned [52FDA477]  (AR v2)
     Copy OK
No tracks could be verified as accurate
You may have a different pressing from the one(s) in the database
No errors occurred
End of status report

Индексная карта (non-compilant .cue)

CD 1

REM GENRE Pop
REM DATE 2009
REM DISCID 3611FD14
REM COMMENT "ExactAudioCopy v1.1"
PERFORMER "Sandra"
TITLE "The Platinum Collection"
FILE "01 - (I'll Never Be) Maria Magdalena (Single Version).wav" WAVE
  TRACK 01 AUDIO
    TITLE "(I'll Never Be) Maria Magdalena (Single Version)"
    PERFORMER "Sandra"
    FLAGS DCP
    INDEX 01 00:00:00
  TRACK 02 AUDIO
    TITLE "In The Heat Of The Night (Single Version)"
    PERFORMER "Sandra"
    FLAGS DCP
    INDEX 00 03:56:27
FILE "02 - In The Heat Of The Night (Single Version).wav" WAVE
    INDEX 01 00:00:00
  TRACK 03 AUDIO
    TITLE "Little Girl"
    PERFORMER "Sandra"
    FLAGS DCP
    INDEX 00 04:00:48
FILE "03 - Little Girl.wav" WAVE
    INDEX 01 00:00:00
  TRACK 04 AUDIO
    TITLE "Sisters And Brothers"
    PERFORMER "Sandra"
    FLAGS DCP
    INDEX 00 03:08:14
FILE "04 - Sisters And Brothers.wav" WAVE
    INDEX 01 00:00:00
  TRACK 05 AUDIO
    TITLE "Innocent Love (Single Version)"
    PERFORMER "Sandra"
    FLAGS DCP
    INDEX 00 03:21:20
FILE "05 - Innocent Love (Single Version).wav" WAVE
    INDEX 01 00:00:00
  TRACK 06 AUDIO
    TITLE "Hi! Hi! Hi! (Single Version)"
    PERFORMER "Sandra"
    FLAGS DCP
    INDEX 00 03:48:48
FILE "06 - Hi! Hi! Hi! (Single Version).wav" WAVE
    INDEX 01 00:00:00
  TRACK 07 AUDIO
    TITLE "Loreen"
    PERFORMER "Sandra"
    FLAGS DCP
    INDEX 00 03:30:15
FILE "07 - Loreen.wav" WAVE
    INDEX 01 00:00:00
  TRACK 08 AUDIO
    TITLE "Midnight Man (Single Version)"
    PERFORMER "Sandra"
    FLAGS DCP
    INDEX 00 04:11:32
FILE "08 - Midnight Man (Single Version).wav" WAVE
    INDEX 01 00:00:00
  TRACK 09 AUDIO
    TITLE "Everlasting Love"
    PERFORMER "Sandra"
    FLAGS DCP
    INDEX 00 03:02:36
FILE "09 - Everlasting Love.wav" WAVE
    INDEX 01 00:00:00
  TRACK 10 AUDIO
    TITLE "Stop For A Minute (Single Version)"
    PERFORMER "Sandra"
    FLAGS DCP
    INDEX 00 03:41:18
FILE "10 - Stop For A Minute (Single Version).wav" WAVE
    INDEX 01 00:00:00
  TRACK 11 AUDIO
    TITLE "Heaven Can Wait (Single Version)"
    PERFORMER "Sandra"
    FLAGS DCP
    INDEX 00 03:48:05
FILE "11 - Heaven Can Wait (Single Version).wav" WAVE
    INDEX 01 00:00:00
  TRACK 12 AUDIO
    TITLE "Secret Land (Single Version)"
    PERFORMER "Sandra"
    FLAGS DCP
    INDEX 00 04:04:64
FILE "12 - Secret Land (Single Version).wav" WAVE
    INDEX 01 00:00:00
  TRACK 13 AUDIO
    TITLE "Celebrate Your Life"
    PERFORMER "Sandra"
    FLAGS DCP
    INDEX 00 04:01:47
FILE "13 - Celebrate Your Life.wav" WAVE
    INDEX 01 00:00:00
  TRACK 14 AUDIO
    TITLE "We'll Be Together (Single Remix)"
    PERFORMER "Sandra"
    FLAGS DCP
    INDEX 00 03:25:29
FILE "14 - We'll Be Together (Single Remix).wav" WAVE
    INDEX 01 00:00:00
  TRACK 15 AUDIO
    TITLE "Around My Heart (Single Version)"
    PERFORMER "Sandra"
    FLAGS DCP
    INDEX 00 03:46:35
FILE "15 - Around My Heart (Single Version).wav" WAVE
    INDEX 01 00:00:00
  TRACK 16 AUDIO
    TITLE "Hiroshima (Single Version)"
    PERFORMER "Sandra"
    FLAGS DCP
    INDEX 00 03:08:60
FILE "16 - Hiroshima (Single Version).wav" WAVE
    INDEX 01 00:00:00
  TRACK 17 AUDIO
    TITLE "(Life May Be) A Big Insanity"
    PERFORMER "Sandra"
    FLAGS DCP
    INDEX 00 04:14:04
FILE "17 - (Life May Be) A Big Insanity.wav" WAVE
    INDEX 01 00:00:00
  TRACK 18 AUDIO
    TITLE "One More Night (Single Version)"
    PERFORMER "Sandra"
    FLAGS DCP
    INDEX 00 04:28:53
FILE "18 - One More Night (Single Version).wav" WAVE
    INDEX 01 00:00:00
  TRACK 19 AUDIO
    TITLE "Lovelight In Your Eyes"
    PERFORMER "Sandra"
    FLAGS DCP
    INDEX 00 03:40:71
FILE "19 - Lovelight In Your Eyes.wav" WAVE
    INDEX 01 00:00:00
  TRACK 20 AUDIO
    TITLE "Johnny Wanna Live (Single Remix)"
    PERFORMER "Sandra"
    FLAGS DCP
    INDEX 00 05:26:22
FILE "20 - Johnny Wanna Live (Single Remix).wav" WAVE
    INDEX 01 00:00:00

CD 2

REM GENRE Pop
REM DATE 2009
REM DISCID 2D119E14
REM COMMENT "ExactAudioCopy v1.1"
PERFORMER "Sandra"
TITLE "The Platinum Collection"
FILE "01 - Don't Be Aggressive (Radio Edit).wav" WAVE
  TRACK 01 AUDIO
    TITLE "Don't Be Aggressive (Radio Edit)"
    PERFORMER "Sandra"
    FLAGS DCP
    INDEX 01 00:00:00
  TRACK 02 AUDIO
    TITLE "I Need Love (Radio Edit)"
    PERFORMER "Sandra"
    FLAGS DCP
    INDEX 00 04:22:10
FILE "02 - I Need Love (Radio Edit).wav" WAVE
    INDEX 01 00:00:00
  TRACK 03 AUDIO
    TITLE "Steady Me"
    PERFORMER "Sandra"
    FLAGS DCP
    INDEX 00 03:18:20
FILE "03 - Steady Me.wav" WAVE
    INDEX 01 00:00:00
  TRACK 04 AUDIO
    TITLE "Mirrored In Your Eyes"
    PERFORMER "Sandra"
    FLAGS DCP
    INDEX 00 03:54:68
FILE "04 - Mirrored In Your Eyes.wav" WAVE
    INDEX 01 00:00:00
  TRACK 05 AUDIO
    TITLE "Maria Magdalena '93"
    PERFORMER "Sandra"
    FLAGS DCP
    INDEX 00 03:23:55
FILE "05 - Maria Magdalena '93.wav" WAVE
    INDEX 01 00:00:00
  TRACK 06 AUDIO
    TITLE "Nights In White Satin (Radio Edit)"
    PERFORMER "Sandra"
    FLAGS DCP
    INDEX 00 04:02:30
FILE "06 - Nights In White Satin (Radio Edit).wav" WAVE
    INDEX 01 00:00:00
  TRACK 07 AUDIO
    TITLE "Won't Run Away"
    PERFORMER "Sandra"
    FLAGS DCP
    INDEX 00 03:32:36
FILE "07 - Won't Run Away.wav" WAVE
    INDEX 01 00:00:00
  TRACK 08 AUDIO
    TITLE "Secret Land '99 (Ultra Violet Radio Edit)"
    PERFORMER "Sandra"
    FLAGS DCP
    INDEX 00 04:11:30
FILE "08 - Secret Land '99 (Ultra Violet Radio Edit).wav" WAVE
    INDEX 01 00:00:00
  TRACK 09 AUDIO
    TITLE "Forever"
    PERFORMER "Sandra"
    FLAGS DCP
    INDEX 00 03:40:59
FILE "09 - Forever.wav" WAVE
    INDEX 01 00:00:00
  TRACK 10 AUDIO
    TITLE "Such A Shame"
    PERFORMER "Sandra"
    FLAGS DCP
    INDEX 00 03:44:04
FILE "10 - Such A Shame.wav" WAVE
    INDEX 01 00:00:00
  TRACK 11 AUDIO
    TITLE "Forgive Me  (Radio Edit)"
    PERFORMER "Sandra"
    FLAGS DCP
    INDEX 00 04:16:62
FILE "11 - Forgive Me  (Radio Edit).wav" WAVE
    INDEX 01 00:00:00
  TRACK 12 AUDIO
    TITLE "I Close My Eyes"
    PERFORMER "Sandra"
    FLAGS DCP
    INDEX 00 03:57:46
FILE "12 - I Close My Eyes.wav" WAVE
    INDEX 01 00:00:00
  TRACK 13 AUDIO
    TITLE "Secrets Of Love (With Dj Bobo)"
    PERFORMER "Sandra"
    FLAGS DCP
    INDEX 00 04:01:39
FILE "13 - Secrets Of Love (With Dj Bobo).wav" WAVE
    INDEX 01 00:00:00
  TRACK 14 AUDIO
    TITLE "The Way I Am"
    PERFORMER "Sandra"
    FLAGS DCP
    INDEX 00 03:17:57
FILE "14 - The Way I Am.wav" WAVE
    INDEX 01 00:00:00
  TRACK 15 AUDIO
    TITLE "What Is It About Me (Radio Edit)"
    PERFORMER "Sandra"
    FLAGS DCP
    INDEX 00 03:28:67
FILE "15 - What Is It About Me (Radio Edit).wav" WAVE
    INDEX 01 00:00:00
  TRACK 16 AUDIO
    TITLE "All You Zombies"
    PERFORMER "Sandra"
    FLAGS DCP
    INDEX 00 03:09:22
FILE "16 - All You Zombies.wav" WAVE
    INDEX 01 00:00:00
  TRACK 17 AUDIO
    TITLE "In A Heartbeat"
    PERFORMER "Sandra"
    FLAGS DCP
    INDEX 00 04:59:19
FILE "17 - In A Heartbeat.wav" WAVE
    INDEX 01 00:00:00
  TRACK 18 AUDIO
    TITLE "The Night Is Still Young (With Thomas Anders)"
    PERFORMER "Sandra"
    FLAGS DCP
    INDEX 00 03:36:39
FILE "18 - The Night Is Still Young (With Thomas Anders).wav" WAVE
    INDEX 01 00:00:00
  TRACK 19 AUDIO
    TITLE "What If"
    PERFORMER "Sandra"
    FLAGS DCP
    INDEX 00 03:19:51
FILE "19 - What If.wav" WAVE
    INDEX 01 00:00:00
  TRACK 20 AUDIO
    TITLE "Tete A Tete"
    PERFORMER "Sandra"
    FLAGS DCP
    INDEX 00 02:48:38
FILE "20 - Tete A Tete.wav" WAVE
    INDEX 01 00:00:00

CD 3

REM GENRE Pop
REM DATE 2009
REM DISCID A811380B
REM COMMENT "ExactAudioCopy v1.1"
PERFORMER "Sandra"
TITLE "The Platinum Collection"
FILE "01 - Maria Magdalena (Extended Version).wav" WAVE
  TRACK 01 AUDIO
    TITLE "Maria Magdalena (Extended Version)"
    PERFORMER "Sandra"
    FLAGS DCP
    INDEX 01 00:00:00
  TRACK 02 AUDIO
    TITLE "In The Heat of the Night (Extended Version)"
    PERFORMER "Sandra"
    FLAGS DCP
    INDEX 00 07:07:43
FILE "02 - In The Heat of the Night (Extended Version).wav" WAVE
    INDEX 01 00:00:00
  TRACK 03 AUDIO
    TITLE "Little Girl (Entended Version)"
    PERFORMER "Sandra"
    FLAGS DCP
    INDEX 00 07:20:58
FILE "03 - Little Girl (Entended Version).wav" WAVE
    INDEX 01 00:00:00
  TRACK 04 AUDIO
    TITLE "Innocent Love (Extended Version)"
    PERFORMER "Sandra"
    FLAGS DCP
    INDEX 00 05:17:27
FILE "04 - Innocent Love (Extended Version).wav" WAVE
    INDEX 01 00:00:00
  TRACK 05 AUDIO
    TITLE "Hi! Hi! Hi! (Extended Version)"
    PERFORMER "Sandra"
    FLAGS DCP
    INDEX 00 06:42:72
FILE "05 - Hi! Hi! Hi! (Extended Version).wav" WAVE
    INDEX 01 00:00:00
  TRACK 06 AUDIO
    TITLE "Midnight Man (Extended Version)"
    PERFORMER "Sandra"
    FLAGS DCP
    INDEX 00 06:09:38
FILE "06 - Midnight Man (Extended Version).wav" WAVE
    INDEX 01 00:00:00
  TRACK 07 AUDIO
    TITLE "Everlasting Love (Extended Version)"
    PERFORMER "Sandra"
    FLAGS DCP
    INDEX 00 05:25:64
FILE "07 - Everlasting Love (Extended Version).wav" WAVE
    INDEX 01 00:00:00
  TRACK 08 AUDIO
    TITLE "Stop for a Minute (Extended Version)"
    PERFORMER "Sandra"
    FLAGS DCP
    INDEX 00 07:16:39
FILE "08 - Stop for a Minute (Extended Version).wav" WAVE
    INDEX 01 00:00:00
  TRACK 09 AUDIO
    TITLE "Heaven Can Wait (Extended Version)"
    PERFORMER "Sandra"
    FLAGS DCP
    INDEX 00 06:17:11
FILE "09 - Heaven Can Wait (Extended Version).wav" WAVE
    INDEX 01 00:00:00
  TRACK 10 AUDIO
    TITLE "Secret Land (Extended Version)"
    PERFORMER "Sandra"
    FLAGS DCP
    INDEX 00 07:36:50
FILE "10 - Secret Land (Extended Version).wav" WAVE
    INDEX 01 00:00:00
  TRACK 11 AUDIO
    TITLE "Everlasting Love (PWL 12' Remix)"
    PERFORMER "Sandra"
    FLAGS DCP
    INDEX 00 06:30:31
FILE "11 - Everlasting Love (PWL 12'' Remix).wav" WAVE
    INDEX 01 00:00:00
--
[Профиль] [ЛС]
Показать сообщения:    

Текущее время: Сегодня 08:04

Часовой пояс: GMT



Вы не можете начинать темы
Вы не можете отвечать на сообщения
Вы не можете редактировать свои сообщения
Вы не можете удалять свои сообщения
Вы не можете голосовать в опросах
Вы не можете прикреплять файлы к сообщениям
Вы не можете скачивать файлы