(Disco) Sabrina (Salerno) - Disco collection - 2003, APE (image+.cue), lossless

 
Автор Сообщение

sergej644 ®

Пол:

Стаж: 4 года 11 месяцев

Сообщений: 6046

Откуда: Soviet Union



Награды: Нет

Торрент-статистика

Создавать темы 10-Дек-2014 14:48

[Цитировать]

--Sabrina - Disco collection
Жанр: Disco
Год выпуска диска: 2003
Производитель диска: Russia
Аудио кодек: APE
Тип рипа: image+.cue
Битрейт аудио: lossless
Продолжительность: 1:13:02
Трэклист:
01. Boys (Summertime Love) [0:03:56.12]
02. Hot Girl [0:03:38.50]
03. Get Ready (Holiday Rock) [0:03:21.63]
04. Kiss [0:03:37.15]
05. Sexy Girl [0:03:21.14]
06. Kiss Me [0:04:05.00]
07. Lady Marmalade [0:04:05.47]
08. My Sharona [0:04:41.38]
09. Da Ya Think I'm Sexy [0:04:37.09]
10. Like Yo Yo [0:04:28.66]
11. All Of Time [0:06:36.44]
12. Doctor's Order [0:05:03.73]
13. Funky Girl [0:04:37.17]
14. My Chico [0:03:39.73]
15. Pirate Of Love [0:03:56.25]
16. Guys And Dolls [0:05:06.30]
17. Sex [0:04:09.03]

Отчет ЕАС

Exact Audio Copy V0.99 prebeta 4 from 23. January 2008
EAC extraction logfile from 25. May 2009, 6:41
SABRINA / [DISCO collection]
Used drive : Optiarc DVD RW AD-7173A Adapter: 3 ID: 0
Read mode : Secure
Utilize accurate stream : Yes
Defeat audio cache : Yes
Make use of C2 pointers : No
Read offset correction : 48
Overread into Lead-In and Lead-Out : No
Fill up missing offset samples with silence : Yes
Delete leading and trailing silent blocks : No
Null samples used in CRC calculations : Yes
Used interface : Native Win32 interface for Win NT & 2000
Used output format : Internal WAV Routines
Sample format : 44.100 Hz; 16 Bit; Stereo
TOC of the extracted CD
Track | Start | Length | Start sector | End sector
---------------------------------------------------------
1 | 0:00.00 | 3:56.12 | 0 | 17711
2 | 3:56.12 | 3:38.50 | 17712 | 34111
3 | 7:34.62 | 3:21.63 | 34112 | 49249
4 | 10:56.50 | 3:37.15 | 49250 | 65539
5 | 14:33.65 | 3:21.14 | 65540 | 80628
6 | 17:55.04 | 4:05.00 | 80629 | 99003
7 | 22:00.04 | 4:05.47 | 99004 | 117425
8 | 26:05.51 | 4:41.38 | 117426 | 138538
9 | 30:47.14 | 4:37.09 | 138539 | 159322
10 | 35:24.23 | 4:28.66 | 159323 | 179488
11 | 39:53.14 | 6:36.44 | 179489 | 209232
12 | 46:29.58 | 5:03.73 | 209233 | 232030
13 | 51:33.56 | 4:37.17 | 232031 | 252822
14 | 56:10.73 | 3:39.73 | 252823 | 269320
15 | 59:50.71 | 3:56.25 | 269321 | 287045
16 | 63:47.21 | 5:06.30 | 287046 | 310025
17 | 68:53.51 | 4:09.03 | 310026 | 328703
Range status and errors
Selected range
Filename C:\Documents and Settings\Юрий\Рабочий стол\Новая папка 1\Sabrina -Golden Disco Hits\Sabrina - Golden Disco Hits.wav
Peak level 100.0 %
Range quality 99.9 %
Copy CRC D16BDC12
Copy OK
No errors occurred
AccurateRip summary
Track 1 not present in database
Track 2 not present in database
Track 3 not present in database
Track 4 not present in database
Track 5 not present in database
Track 6 not present in database
Track 7 not present in database
Track 8 not present in database
Track 9 not present in database
Track 10 not present in database
Track 11 not present in database
Track 12 not present in database
Track 13 not present in database
Track 14 not present in database
Track 15 not present in database
Track 16 not present in database
Track 17 not present in database
None of the tracks are present in the AccurateRip database
End of status report
[Профиль] [ЛС]

Создавать темы 13-Авг-2015 10:44 (спустя 8 месяцев 2 дня)

Топик был перенесен из форума Зарубежная в форум Technopop, Eurodance, Disco
sergej644
 
Кто просматривает тему:

Показать сообщения:    

Текущее время: Сегодня 02:28

Часовой пояс: GMT



Вы не можете начинать темы
Вы не можете отвечать на сообщения
Вы не можете редактировать свои сообщения
Вы не можете удалять свои сообщения
Вы не можете голосовать в опросах
Вы не можете прикреплять файлы к сообщениям
Вы не можете скачивать файлы