Ryan Adams (ft.Laura Marling) • Live From Abbey Road [2011, Rock, Alternative Country, HDTV 720p]

 
Автор Сообщение

reversefile ®

Пол:

Стаж: 4 года 5 месяцев

Сообщений: 842

Откуда: ReverseFile.org



Награды: Нет

Торрент-статистика

Создавать темы 11-Авг-2014 19:05

[Цитировать]

Ryan Adams



Жанр: Rock, Alternative Country
Продолжительность: 00:27:37
Год выпуска: 2011
Качество: HDTV 720p
Контейнер: TS
Видео кодек: H.264
Аудио кодек: AC3
Видео: MPEG4 Video (H264) 1280x720 50fps 11.2Mbps
Аудио: Dolby AC3 48000Hz stereo 448kbps

Треклист

Дэвид Райан Адамс (англ. David Ryan Adams; 5 ноября 1974 года, Джексонвилль, Северная Каролина, США) — популярный американский альт-кантри/рок певец, композитор. Был участником группы Whiskeytown, затем покинул её, записав сольный альбом «Heartbreaker». Большую популярность ему принесла песня «New York, New York» с его второго альбома «Gold». Адамс записал пять альбомов сольно и ещё пять — вместе группой The Cardinals, приглашенной в качестве музыкального сопровождения.
01.Intro
02.Interview
03.Lucky Now
04.Interview
05.Invisible Riverside
06.Interview
07.Oh My Sweet Carolina (ft.Laura Marling)
08.Interview
09.New York,New York
10.Ashes & Fire

Отчёт MediaInfo / BDInfo

GeneralID : 1 (0x1)Complete name : L:\Ryan Adams - Live From Abbey Road 2011.tsFormat : MPEG-TSFile size : 2.36 GiBDuration : 27mn 37sOverall bit rate mode : VariableOverall bit rate : 12.2 Mbps
VideoID : 6410 (0x190A)Menu ID : 1 (0x1)Format : AVCFormat/Info : Advanced Video CodecFormat profile : High@L4.0Format settings, CABAC : YesFormat settings, ReFrames : 6 framesCodec ID : 27Duration : 27mn 37sBit rate : 11.2 MbpsWidth : 1 280 pixelsHeight : 720 pixelsDisplay aspect ratio : 16:9Frame rate : 50.000 fpsColor space : YUVChroma subsampling : 4:2:0Bit depth : 8 bitsScan type : ProgressiveBits/(Pixel*Frame) : 0.243Stream size : 2.16 GiB (91%)Color primaries : BT.709Transfer characteristics : BT.709Matrix coefficients : BT.709
AudioID : 6422 (0x1916)Menu ID : 1 (0x1)Format : AC-3Format/Info : Audio Coding 3Mode extension : CM (complete main)Format settings, Endianness : BigCodec ID : 6Duration : 27mn 37sBit rate mode : ConstantBit rate : 448 KbpsChannel(s) : 2 channelsChannel positions : Front: L RSampling rate : 48.0 KHzBit depth : 16 bitsCompression mode : LossyStream size : 88.5 MiB (4%)Language : German
[Профиль] [ЛС]
Показать сообщения:    

Текущее время: Сегодня 22:09

Часовой пояс: GMT



Вы не можете начинать темы
Вы не можете отвечать на сообщения
Вы не можете редактировать свои сообщения
Вы не можете удалять свои сообщения
Вы не можете голосовать в опросах
Вы не можете прикреплять файлы к сообщениям
Вы не можете скачивать файлы