(Pop-Rock, Pop, Soft Rock) Roxette - Rox Archives (7CD, Remastered)(Capitol Records) - 2009 [FLAC, tracks +.cue, lossless]

 
Автор Сообщение

sergej644 ®

Пол:

Стаж: 4 года 11 месяцев

Сообщений: 6043

Откуда: Soviet Union



Награды: Нет

Торрент-статистика

Создавать темы 22-Сен-2016 07:26

[Цитировать]

-Roxette - Rox Archives (7CD, Remastered)--
Год издания: 2009
Страна: Sweden
Жанр: Pop-Rock, Pop, Soft Rock
Продолжительность: 07:50:34
Лейбл издания: Capitol Records-Страна-выпуска диска: EU
Формат: FLAC
Битрейт аудио: Lossless
Тип рипа: tracks +.cue
Наличие сканов в содержимом раздачи: да
-

Rox Archives Vol. 1 Pearls Of Passion - 1986 | 00:57:02


Лейбл издания: Capitol Records
Страна-выпуска диска: EU
Номер по каталогу: 50999 687115 2 8
01.Soul Deep(3:38)
02.Secrets That She Keeps(3:42)
03.Goodbye To You(4:01)
04.I Call Your Name(3:36)
05.Surrender(4:20)
06.Voices(4:42)
07.Neverending Love(3:27)
08.Call Of A Wild(4:30)
09.Joy Of A Toy(3:04)
10.From One Heart To Another(4:08)
11.Like Lovers Do(3:22)
12.So Far Away(5:17)
13.Pearls Of Passion(3:35)
14.Neverending Love (Demo)(2:45)
15.Secrets That She Keeps (Demo)(2:54)

Лог создания рипа

Exact Audio Copy V1.0 beta 3 from 29. August 2011
EAC extraction logfile from 21. May 2015, 10:54
Roxette / Pearls Of Passion (Rox Archives Vol. 1)
Used drive  : HL-DT-STDVD+-RW GT32N   Adapter: 0  ID: 1
Read mode               : Secure
Utilize accurate stream : Yes
Defeat audio cache      : Yes
Make use of C2 pointers : No
Read offset correction                      : 103
Overread into Lead-In and Lead-Out          : No
Fill up missing offset samples with silence : Yes
Delete leading and trailing silent blocks   : No
Null samples used in CRC calculations       : Yes
Used interface                              : Native Win32 interface for Win NT & 2000
Gap handling                                : Appended to previous track
Used output format              : User Defined Encoder
Selected bitrate                : 1024 kBit/s
Quality                         : High
Add ID3 tag                     : No
Command line compressor         : C:\Program Files (x86)\Exact Audio Copy\Flac\flac.exe
Additional command line options : -8 -V -T "ARTIST=%artist%" -T "TITLE=%title%" -T "ALBUM=%albumtitle%" -T "DATE=%year%" -T "TRACKNUMBER=%tracknr%" -T "GENRE=%genre%" -T "PERFORMER=%albuminterpret%" -T "COMPOSER=%composer%" %haslyrics%--tag-from-file=LYRICS="%lyricsfile%"%haslyrics% -T "ALBUMARTIST=%albumartist%" -T "DISCNUMBER=%cdnumber%" -T "TOTALDISCS=%totalcds%" -T "TOTALTRACKS=%numtracks%" -T "COMMENT=%comment%" %source% -o %dest%
TOC of the extracted CD
     Track |   Start  |  Length  | Start sector | End sector
    ---------------------------------------------------------
        1  |  0:00.00 |  3:38.00 |         0    |    16349
        2  |  3:38.00 |  3:42.00 |     16350    |    32999
        3  |  7:20.00 |  4:01.00 |     33000    |    51074
        4  | 11:21.00 |  3:36.35 |     51075    |    67309
        5  | 14:57.35 |  4:19.57 |     67310    |    86791
        6  | 19:17.17 |  4:42.23 |     86792    |   107964
        7  | 23:59.40 |  3:27.10 |    107965    |   123499
        8  | 27:26.50 |  4:29.72 |    123500    |   143746
        9  | 31:56.47 |  3:03.45 |    143747    |   157516
       10  | 35:00.17 |  4:07.43 |    157517    |   176084
       11  | 39:07.60 |  3:22.32 |    176085    |   191266
       12  | 42:30.17 |  5:16.48 |    191267    |   215014
       13  | 47:46.65 |  3:35.32 |    215015    |   231171
       14  | 51:22.22 |  2:45.27 |    231172    |   243573
       15  | 54:07.49 |  2:54.26 |    243574    |   256649
Track  1
     Filename C:\Rips\01 - Soul Deep.wav
     Pre-gap length  0:00:02.00
     Peak level 98.8 %
     Extraction speed 1.2 X
     Track quality 100.0 %
     Test CRC 25D89F1D
     Copy CRC 25D89F1D
     Accurately ripped (confidence 18)  [066CBE70]  (AR v2)
     Copy OK
Track  2
     Filename C:\Rips\02 - Secrets That She Keeps.wav
     Peak level 98.8 %
     Extraction speed 1.3 X
     Track quality 100.0 %
     Test CRC 04B1B1F3
     Copy CRC 04B1B1F3
     Accurately ripped (confidence 18)  [415650B4]  (AR v2)
     Copy OK
Track  3
     Filename C:\Rips\03 - Goodbye To You.wav
     Peak level 98.8 %
     Extraction speed 1.3 X
     Track quality 99.9 %
     Test CRC 36D8A4A4
     Copy CRC 36D8A4A4
     Accurately ripped (confidence 18)  [FD703B8F]  (AR v2)
     Copy OK
Track  4
     Filename C:\Rips\04 - I Call Your Name.wav
     Peak level 98.8 %
     Extraction speed 1.3 X
     Track quality 99.9 %
     Test CRC 42BE832D
     Copy CRC 42BE832D
     Accurately ripped (confidence 18)  [ABA4F89A]  (AR v2)
     Copy OK
Track  5
     Filename C:\Rips\05 - Surrender.wav
     Peak level 98.8 %
     Extraction speed 1.7 X
     Track quality 100.0 %
     Test CRC B3C8E487
     Copy CRC B3C8E487
     Accurately ripped (confidence 18)  [B4E0345D]  (AR v2)
     Copy OK
Track  6
     Filename C:\Rips\06 - Voices.wav
     Peak level 98.8 %
     Extraction speed 1.8 X
     Track quality 100.0 %
     Test CRC F568C9CE
     Copy CRC F568C9CE
     Accurately ripped (confidence 18)  [9FC4ABB6]  (AR v2)
     Copy OK
Track  7
     Filename C:\Rips\07 - Neverending Love.wav
     Peak level 98.8 %
     Extraction speed 1.6 X
     Track quality 99.9 %
     Test CRC 77C5FC62
     Copy CRC 77C5FC62
     Accurately ripped (confidence 19)  [A8140A0D]  (AR v2)
     Copy OK
Track  8
     Filename C:\Rips\08 - Call Of A Wild.wav
     Peak level 98.8 %
     Extraction speed 2.0 X
     Track quality 100.0 %
     Test CRC 2D2FD857
     Copy CRC 2D2FD857
     Accurately ripped (confidence 18)  [78E0CE20]  (AR v2)
     Copy OK
Track  9
     Filename C:\Rips\09 - Joy Of A Toy.wav
     Peak level 98.8 %
     Extraction speed 1.7 X
     Track quality 99.9 %
     Test CRC 5C4E117E
     Copy CRC 5C4E117E
     Accurately ripped (confidence 18)  [332B3138]  (AR v2)
     Copy OK
Track 10
     Filename C:\Rips\10 - From One Heart To Another.wav
     Peak level 98.8 %
     Extraction speed 2.1 X
     Track quality 100.0 %
     Test CRC B6B0DF1A
     Copy CRC B6B0DF1A
     Accurately ripped (confidence 18)  [67E40553]  (AR v2)
     Copy OK
Track 11
     Filename C:\Rips\11 - Like Lovers Do.wav
     Peak level 98.9 %
     Extraction speed 2.2 X
     Track quality 100.0 %
     Test CRC CB96FBC5
     Copy CRC CB96FBC5
     Accurately ripped (confidence 18)  [4FA604BD]  (AR v2)
     Copy OK
Track 12
     Filename C:\Rips\12 - So Far Away.wav
     Peak level 98.8 %
     Extraction speed 2.4 X
     Track quality 100.0 %
     Test CRC FBAAABB0
     Copy CRC FBAAABB0
     Accurately ripped (confidence 18)  [C928F61A]  (AR v2)
     Copy OK
Track 13
     Filename C:\Rips\13 - Pearls Of Passion.wav
     Peak level 98.8 %
     Extraction speed 2.0 X
     Track quality 99.9 %
     Test CRC 90139758
     Copy CRC 90139758
     Accurately ripped (confidence 18)  [937D387E]  (AR v2)
     Copy OK
Track 14
     Filename C:\Rips\14 - Neverending Love (Demo).wav
     Peak level 98.8 %
     Extraction speed 1.9 X
     Track quality 99.9 %
     Test CRC C3CC7A45
     Copy CRC C3CC7A45
     Accurately ripped (confidence 18)  [09005CAB]  (AR v2)
     Copy OK
Track 15
     Filename C:\Rips\15 - Secrets That She Keeps (Demo).wav
     Peak level 98.8 %
     Extraction speed 2.4 X
     Track quality 100.0 %
     Test CRC 19D92228
     Copy CRC 19D92228
     Accurately ripped (confidence 18)  [DD448A7B]  (AR v2)
     Copy OK
All tracks accurately ripped
No errors occurred
End of status report

Индексная карта (non-compilant .cue)

REM GENRE Pop
REM DATE 1986
REM DISCID D90D5E0F
REM COMMENT "ExactAudioCopy v1.0b3"
CATALOG 5099968711528
PERFORMER "Roxette"
TITLE "Pearls Of Passion (Rox Archives Vol. 1)"
FILE "01 - Soul Deep.wav" WAVE
  TRACK 01 AUDIO
    PERFORMER "Roxette"
    TITLE "Soul Deep"
    ISRC SEAMA8679090
    INDEX 01 00:00:00
FILE "02 - Secrets That She Keeps.wav" WAVE
  TRACK 02 AUDIO
    PERFORMER "Roxette"
    TITLE "Secrets That She Keeps"
    ISRC SEAMA8642020
    INDEX 01 00:00:00
FILE "03 - Goodbye To You.wav" WAVE
  TRACK 03 AUDIO
    PERFORMER "Roxette"
    TITLE "Goodbye To You"
    ISRC SEAMA8642030
    INDEX 01 00:00:00
FILE "04 - I Call Your Name.wav" WAVE
  TRACK 04 AUDIO
    PERFORMER "Roxette"
    TITLE "I Call Your Name"
    ISRC SEAMA8602020
    INDEX 01 00:00:00
FILE "05 - Surrender.wav" WAVE
  TRACK 05 AUDIO
    PERFORMER "Roxette"
    TITLE "Surrender"
    ISRC SEAMA8642050
    INDEX 01 00:00:00
FILE "06 - Voices.wav" WAVE
  TRACK 06 AUDIO
    PERFORMER "Roxette"
    TITLE "Voices"
    ISRC SEAMA8642060
    INDEX 01 00:00:00
FILE "07 - Neverending Love.wav" WAVE
  TRACK 07 AUDIO
    PERFORMER "Roxette"
    TITLE "Neverending Love"
    ISRC SEAMA8642070
    INDEX 01 00:00:00
FILE "08 - Call Of A Wild.wav" WAVE
  TRACK 08 AUDIO
    PERFORMER "Roxette"
    TITLE "Call Of A Wild"
    ISRC SEAMA8642080
    INDEX 01 00:00:00
FILE "09 - Joy Of A Toy.wav" WAVE
  TRACK 09 AUDIO
    PERFORMER "Roxette"
    TITLE "Joy Of A Toy"
    ISRC SEAMA8642090
    INDEX 01 00:00:00
FILE "10 - From One Heart To Another.wav" WAVE
  TRACK 10 AUDIO
    PERFORMER "Roxette"
    TITLE "From One Heart To Another"
    ISRC SEAMA8642100
    INDEX 01 00:00:00
FILE "11 - Like Lovers Do.wav" WAVE
  TRACK 11 AUDIO
    PERFORMER "Roxette"
    TITLE "Like Lovers Do"
    ISRC SEAMA8642110
    INDEX 01 00:00:00
FILE "12 - So Far Away.wav" WAVE
  TRACK 12 AUDIO
    PERFORMER "Roxette"
    TITLE "So Far Away"
    ISRC SEAMA8642120
    INDEX 01 00:00:00
FILE "13 - Pearls Of Passion.wav" WAVE
  TRACK 13 AUDIO
    PERFORMER "Roxette"
    TITLE "Pearls Of Passion"
    ISRC SEAMA8666040
    INDEX 01 00:00:00
FILE "14 - Neverending Love (Demo).wav" WAVE
  TRACK 14 AUDIO
    PERFORMER "Roxette"
    TITLE "Neverending Love (Demo)"
    ISRC SEAMA8642160
    INDEX 01 00:00:00
FILE "15 - Secrets That She Keeps (Demo).wav" WAVE
  TRACK 15 AUDIO
    PERFORMER "Roxette"
    TITLE "Secrets That She Keeps (Demo)"
    ISRC SEAMA8642170
    INDEX 01 00:00:00

Rox Archives Vol. 2 Look Sharp! - 1988 | 01:06:17


Лейбл издания: Capitol Records
Страна-выпуска диска: EU
Номер по каталогу: 50999 687116 2 7
01.The Look(3:57)
02.Dressed for Succes(4:10)
03.Sleeping Single(4:38)
04.Paint(3:30)
05.Dance Away(3:25)
06.Cry(5:19)
07.Chances(4:58)
08.Dangerous(3:49)
09.Half a Woman, Half a Shadow(3:35)
10.View From a Hill(3:40)
11.(I Could Never) Give You Up(3:58)
12.Shadow of a Doubt(4:15)
13.Listen to Your Heart(5:31)
14.The Voice(4:15)
15.One Is Such a Lonely Number (Demo September 1987)(3:35)
16.Don't Believe in Accidents (Demo Spring 1988)(3:42)

Лог создания рипа

Exact Audio Copy V1.0 beta 3 from 29. August 2011
EAC extraction logfile from 18. May 2015, 11:22
Roxette / Look Sharp! (Rox Archives Vol. 2)
Used drive  : HL-DT-STDVD+-RW GT32N   Adapter: 0  ID: 1
Read mode               : Secure
Utilize accurate stream : Yes
Defeat audio cache      : Yes
Make use of C2 pointers : No
Read offset correction                      : 103
Overread into Lead-In and Lead-Out          : No
Fill up missing offset samples with silence : Yes
Delete leading and trailing silent blocks   : No
Null samples used in CRC calculations       : Yes
Used interface                              : Native Win32 interface for Win NT & 2000
Gap handling                                : Appended to previous track
Used output format              : User Defined Encoder
Selected bitrate                : 1024 kBit/s
Quality                         : High
Add ID3 tag                     : No
Command line compressor         : C:\Program Files (x86)\Exact Audio Copy\Flac\flac.exe
Additional command line options : -8 -V -T "ARTIST=%artist%" -T "TITLE=%title%" -T "ALBUM=%albumtitle%" -T "DATE=%year%" -T "TRACKNUMBER=%tracknr%" -T "GENRE=%genre%" -T "PERFORMER=%albuminterpret%" -T "COMPOSER=%composer%" %haslyrics%--tag-from-file=LYRICS="%lyricsfile%"%haslyrics% -T "ALBUMARTIST=%albumartist%" -T "DISCNUMBER=%cdnumber%" -T "TOTALDISCS=%totalcds%" -T "TOTALTRACKS=%numtracks%" -T "COMMENT=%comment%" %source% -o %dest%
TOC of the extracted CD
     Track |   Start  |  Length  | Start sector | End sector
    ---------------------------------------------------------
        1  |  0:00.00 |  3:57.25 |         0    |    17799
        2  |  3:57.25 |  4:09.63 |     17800    |    36537
        3  |  8:07.13 |  4:37.55 |     36538    |    57367
        4  | 12:44.68 |  3:30.22 |     57368    |    73139
        5  | 16:15.15 |  3:24.73 |     73140    |    88512
        6  | 19:40.13 |  5:19.12 |     88513    |   112449
        7  | 24:59.25 |  4:57.68 |    112450    |   134792
        8  | 29:57.18 |  3:48.65 |    134793    |   151957
        9  | 33:46.08 |  3:35.20 |    151958    |   168102
       10  | 37:21.28 |  3:40.00 |    168103    |   184602
       11  | 41:01.28 |  3:57.57 |    184603    |   202434
       12  | 44:59.10 |  4:14.60 |    202435    |   221544
       13  | 49:13.70 |  5:30.68 |    221545    |   246362
       14  | 54:44.63 |  4:15.34 |    246363    |   265521
       15  | 59:00.22 |  3:34.46 |    265522    |   281617
       16  | 62:34.68 |  3:42.11 |    281618    |   298278
Track  1
     Filename C:\Rips\01 - The Look.wav
     Pre-gap length  0:00:02.00
     Peak level 98.9 %
     Extraction speed 1.2 X
     Track quality 100.0 %
     Test CRC EEC19AC3
     Copy CRC EEC19AC3
     Accurately ripped (confidence 26)  [EF63C215]  (AR v2)
     Copy OK
Track  2
     Filename C:\Rips\02 - Dressed for Succes.wav
     Peak level 98.9 %
     Extraction speed 1.4 X
     Track quality 100.0 %
     Test CRC 8E915272
     Copy CRC 8E915272
     Accurately ripped (confidence 26)  [6EA4207D]  (AR v2)
     Copy OK
Track  3
     Filename C:\Rips\03 - Sleeping Single.wav
     Peak level 98.9 %
     Extraction speed 1.5 X
     Track quality 100.0 %
     Test CRC A8D78C25
     Copy CRC A8D78C25
     Accurately ripped (confidence 25)  [052D3517]  (AR v2)
     Copy OK
Track  4
     Filename C:\Rips\04 - Paint.wav
     Peak level 98.9 %
     Extraction speed 1.6 X
     Track quality 100.0 %
     Test CRC CDE6B888
     Copy CRC CDE6B888
     Accurately ripped (confidence 25)  [E8179E96]  (AR v2)
     Copy OK
Track  5
     Filename C:\Rips\05 - Dance Away.wav
     Peak level 98.9 %
     Extraction speed 1.6 X
     Track quality 100.0 %
     Test CRC 63660D11
     Copy CRC 63660D11
     Accurately ripped (confidence 25)  [A799D57F]  (AR v2)
     Copy OK
Track  6
     Filename C:\Rips\06 - Cry.wav
     Peak level 98.9 %
     Extraction speed 1.8 X
     Track quality 100.0 %
     Test CRC AB3FE9AA
     Copy CRC AB3FE9AA
     Accurately ripped (confidence 25)  [FCF03C81]  (AR v2)
     Copy OK
Track  7
     Filename C:\Rips\07 - Chances.wav
     Peak level 98.9 %
     Extraction speed 2.0 X
     Track quality 100.0 %
     Test CRC BC403E0A
     Copy CRC BC403E0A
     Accurately ripped (confidence 25)  [EB76F0D9]  (AR v2)
     Copy OK
Track  8
     Filename C:\Rips\08 - Dangerous.wav
     Peak level 98.9 %
     Extraction speed 2.0 X
     Track quality 100.0 %
     Test CRC 81AF2E8B
     Copy CRC 81AF2E8B
     Accurately ripped (confidence 26)  [D015BB2D]  (AR v2)
     Copy OK
Track  9
     Filename C:\Rips\09 - Half a Woman, Half a Shadow.wav
     Peak level 98.9 %
     Extraction speed 2.0 X
     Track quality 100.0 %
     Test CRC F0D16AA8
     Copy CRC F0D16AA8
     Accurately ripped (confidence 25)  [6C6869D3]  (AR v2)
     Copy OK
Track 10
     Filename C:\Rips\10 - View From a Hill.wav
     Peak level 98.9 %
     Extraction speed 2.1 X
     Track quality 100.0 %
     Test CRC 1AE21A7A
     Copy CRC 1AE21A7A
     Accurately ripped (confidence 25)  [9942223E]  (AR v2)
     Copy OK
Track 11
     Filename C:\Rips\11 - (I Could Never) Give You Up.wav
     Peak level 98.9 %
     Extraction speed 2.2 X
     Track quality 100.0 %
     Test CRC 8FFBCD6D
     Copy CRC 8FFBCD6D
     Accurately ripped (confidence 25)  [3C34D017]  (AR v2)
     Copy OK
Track 12
     Filename C:\Rips\12 - Shadow of a Doubt.wav
     Peak level 98.9 %
     Extraction speed 2.3 X
     Track quality 100.0 %
     Test CRC 299CD167
     Copy CRC 299CD167
     Accurately ripped (confidence 24)  [287187AB]  (AR v2)
     Copy OK
Track 13
     Filename C:\Rips\13 - Listen to Your Heart.wav
     Peak level 98.9 %
     Extraction speed 2.5 X
     Track quality 100.0 %
     Test CRC 90BDA8E4
     Copy CRC 90BDA8E4
     Accurately ripped (confidence 25)  [2EDC0F48]  (AR v2)
     Copy OK
Track 14
     Filename C:\Rips\14 - The Voice.wav
     Pre-gap length  0:00:02.82
     Peak level 99.9 %
     Extraction speed 2.5 X
     Track quality 100.0 %
     Test CRC 3D8C2BF9
     Copy CRC 3D8C2BF9
     Accurately ripped (confidence 25)  [3A227A29]  (AR v2)
     Copy OK
Track 15
     Filename C:\Rips\15 - One Is Such a Lonely Number (Demo September 1987).wav
     Pre-gap length  0:00:01.00
     Peak level 95.3 %
     Extraction speed 2.5 X
     Track quality 100.0 %
     Test CRC 61BB40D3
     Copy CRC 61BB40D3
     Accurately ripped (confidence 25)  [F251684B]  (AR v2)
     Copy OK
Track 16
     Filename C:\Rips\16 - Don't Believe in Accidents (Demo Spring 1988).wav
     Pre-gap length  0:00:02.16
     Peak level 99.9 %
     Extraction speed 2.5 X
     Track quality 100.0 %
     Test CRC 9AAD2FFB
     Copy CRC 9AAD2FFB
     Accurately ripped (confidence 24)  [4BDD742B]  (AR v2)
     Copy OK
All tracks accurately ripped
No errors occurred
End of status report

Индексная карта (non-compilant .cue)

REM GENRE Pop
REM DATE 1988
REM DISCID F70F8910
REM COMMENT "ExactAudioCopy v1.0b3"
CATALOG 5099968711627
PERFORMER "Roxette"
TITLE "Look Sharp! (Rox Archives Vol. 2)"
FILE "01 - The Look.wav" WAVE
  TRACK 01 AUDIO
    PERFORMER "Roxette"
    TITLE "The Look"
    ISRC SEAME8878010
    INDEX 01 00:00:00
FILE "02 - Dressed for Succes.wav" WAVE
  TRACK 02 AUDIO
    PERFORMER "Roxette"
    TITLE "Dressed for Succes"
    ISRC SEAME8878020
    INDEX 01 00:00:00
FILE "03 - Sleeping Single.wav" WAVE
  TRACK 03 AUDIO
    PERFORMER "Roxette"
    TITLE "Sleeping Single"
    ISRC SEAME8878030
    INDEX 01 00:00:00
FILE "04 - Paint.wav" WAVE
  TRACK 04 AUDIO
    PERFORMER "Roxette"
    TITLE "Paint"
    ISRC SEAME8878040
    INDEX 01 00:00:00
FILE "05 - Dance Away.wav" WAVE
  TRACK 05 AUDIO
    PERFORMER "Roxette"
    TITLE "Dance Away"
    ISRC SEAME8878050
    INDEX 01 00:00:00
FILE "06 - Cry.wav" WAVE
  TRACK 06 AUDIO
    PERFORMER "Roxette"
    TITLE "Cry"
    ISRC SEAME8878060
    INDEX 01 00:00:00
FILE "07 - Chances.wav" WAVE
  TRACK 07 AUDIO
    PERFORMER "Roxette"
    TITLE "Chances"
    ISRC SEAME8878070
    INDEX 01 00:00:00
FILE "08 - Dangerous.wav" WAVE
  TRACK 08 AUDIO
    PERFORMER "Roxette"
    TITLE "Dangerous"
    ISRC SEAME8878080
    INDEX 01 00:00:00
FILE "09 - Half a Woman, Half a Shadow.wav" WAVE
  TRACK 09 AUDIO
    PERFORMER "Roxette"
    TITLE "Half a Woman, Half a Shadow"
    ISRC SEAME8878090
    INDEX 01 00:00:00
FILE "10 - View From a Hill.wav" WAVE
  TRACK 10 AUDIO
    PERFORMER "Roxette"
    TITLE "View From a Hill"
    ISRC SEAME8878100
    INDEX 01 00:00:00
FILE "11 - (I Could Never) Give You Up.wav" WAVE
  TRACK 11 AUDIO
    PERFORMER "Roxette"
    TITLE "(I Could Never) Give You Up"
    ISRC SEAME8878110
    INDEX 01 00:00:00
FILE "12 - Shadow of a Doubt.wav" WAVE
  TRACK 12 AUDIO
    PERFORMER "Roxette"
    TITLE "Shadow of a Doubt"
    ISRC SEAME8878120
    INDEX 01 00:00:00
FILE "13 - Listen to Your Heart.wav" WAVE
  TRACK 13 AUDIO
    PERFORMER "Roxette"
    TITLE "Listen to Your Heart"
    ISRC SEAME8878130
    INDEX 01 00:00:00
  TRACK 14 AUDIO
    PERFORMER "Roxette"
    TITLE "The Voice"
    ISRC SEAMA8802040
    INDEX 00 05:28:06
FILE "14 - The Voice.wav" WAVE
    INDEX 01 00:00:00
  TRACK 15 AUDIO
    PERFORMER "Roxette"
    TITLE "One Is Such a Lonely Number (Demo September 1987)"
    ISRC SEAMA8780120
    INDEX 00 04:14:34
FILE "15 - One Is Such a Lonely Number (Demo September 1987).wav" WAVE
    INDEX 01 00:00:00
  TRACK 16 AUDIO
    PERFORMER "Roxette"
    TITLE "Don't Believe in Accidents (Demo Spring 1988)"
    ISRC SEAMA8801220
    INDEX 00 03:32:34
FILE "16 - Don't Believe in Accidents (Demo Spring 1988).wav" WAVE
    INDEX 01 00:00:00

Rox Archives Vol. 3 Joyride - 1991 | 01:11:20


Лейбл издания: Capitol Records
Страна-выпуска диска: EU
Номер по каталогу: 50999 687117 2 6
01.Joyride(4:24)
02.Hotblooded(3:18)
03.Fading Like A Flower (Every Time You Leave)(3:53)
04.Knockin' On Every Door(3:56)
05.Spending My Time(4:36)
06.I Remember You(3:54)
07.Watercolours In The Rain(3:41)
08.The Big L.(4:26)
09.Soul Deep(3:35)
10.(Do You Get) Excited?(4:17)
11.Church Of Your Heart(3:16)
12.Small Talk(3:54)
13.Physical Fascination(3:28)
14.Things Will Never Be The Same(4:26)
15.Perfect Day(4:05)
16.The Sweet Hello, The Sad Goodbye(4:47)
17.Love Spins (Demo)(3:29)
18.Seduce Me (Demo)(3:55)

Лог создания рипа

Exact Audio Copy V1.0 beta 3 from 29. August 2011
EAC extraction logfile from 10. June 2012, 17:38
Roxette / Joyride (2009 Remastered)
Used drive  : ASUS    BW-12B1LT   Adapter: 2  ID: 1
Read mode               : Secure
Utilize accurate stream : Yes
Defeat audio cache      : Yes
Make use of C2 pointers : No
Read offset correction                      : 6
Overread into Lead-In and Lead-Out          : No
Fill up missing offset samples with silence : Yes
Delete leading and trailing silent blocks   : No
Null samples used in CRC calculations       : Yes
Used interface                              : Native Win32 interface for Win NT & 2000
Gap handling                                : Appended to previous track
Used output format              : User Defined Encoder
Selected bitrate                : 320 kBit/s
Quality                         : High
Add ID3 tag                     : No
Command line compressor         : C:\Program Files (x86)\Exact Audio Copy\Flac\flac.exe
Additional command line options : -8 -V -T "ARTIST=%artist%" -T "TITLE=%title%" -T "ALBUM=%albumtitle%" -T "DATE=%year%" -T "TRACKNUMBER=%tracknr%" -T "GENRE=%genre%" -T "PERFORMER=%albuminterpret%" -T "COMPOSER=%composer%" %haslyrics%--tag-from-file=LYRICS="%lyricsfile%"%haslyrics% -T "ALBUMARTIST=%albumartist%" -T "DISCNUMBER=%cdnumber%" -T "TOTALDISCS=%totalcds%" -T "TOTALTRACKS=%numtracks%" -T "COMMENT=%comment%" %source% -o %dest%
TOC of the extracted CD
     Track |   Start  |  Length  | Start sector | End sector
    ---------------------------------------------------------
        1  |  0:00.00 |  4:24.10 |         0    |    19809
        2  |  4:24.10 |  3:18.20 |     19810    |    34679
        3  |  7:42.30 |  3:52.45 |     34680    |    52124
        4  | 11:35.00 |  3:56.20 |     52125    |    69844
        5  | 15:31.20 |  4:36.07 |     69845    |    90551
        6  | 20:07.27 |  3:54.13 |     90552    |   108114
        7  | 24:01.40 |  3:40.47 |    108115    |   124661
        8  | 27:42.12 |  4:26.20 |    124662    |   144631
        9  | 32:08.32 |  3:34.68 |    144632    |   160749
       10  | 35:43.25 |  4:16.50 |    160750    |   179999
       11  | 40:00.00 |  3:16.30 |    180000    |   194729
       12  | 43:16.30 |  3:53.52 |    194730    |   212256
       13  | 47:10.07 |  3:27.58 |    212257    |   227839
       14  | 50:37.65 |  4:26.15 |    227840    |   247804
       15  | 55:04.05 |  4:05.10 |    247805    |   266189
       16  | 59:09.15 |  4:46.60 |    266190    |   287699
       17  | 63:56.00 |  3:29.12 |    287700    |   303386
       18  | 67:25.12 |  3:54.74 |    303387    |   321010
Track  1
     Filename F:\EAC Rips\01 Joyride.wav
     Pre-gap length  0:00:02.00
     Peak level 98.9 %
     Extraction speed 2.0 X
     Track quality 100.0 %
     Test CRC D5A050A7
     Copy CRC D5A050A7
     Accurately ripped (confidence 9)  [EC9E1AAB]  (AR v2)
     Copy OK
Track  2
     Filename F:\EAC Rips\02 Hotblooded.wav
     Peak level 98.9 %
     Extraction speed 2.2 X
     Track quality 100.0 %
     Test CRC 7F70DC47
     Copy CRC 7F70DC47
     Accurately ripped (confidence 9)  [210ADA01]  (AR v2)
     Copy OK
Track  3
     Filename F:\EAC Rips\03 Fading Like A Flower (Every Time You Leave).wav
     Peak level 98.9 %
     Extraction speed 2.4 X
     Track quality 100.0 %
     Test CRC C24C541B
     Copy CRC C24C541B
     Accurately ripped (confidence 9)  [0C405333]  (AR v2)
     Copy OK
Track  4
     Filename F:\EAC Rips\04 Knockin' On Every Door.wav
     Peak level 98.9 %
     Extraction speed 2.5 X
     Track quality 100.0 %
     Test CRC F83BBAA3
     Copy CRC F83BBAA3
     Accurately ripped (confidence 9)  [80D95DD9]  (AR v2)
     Copy OK
Track  5
     Filename F:\EAC Rips\05 Spending My Time.wav
     Peak level 98.9 %
     Extraction speed 2.8 X
     Track quality 100.0 %
     Test CRC E213040F
     Copy CRC E213040F
     Accurately ripped (confidence 9)  [169847DF]  (AR v2)
     Copy OK
Track  6
     Filename F:\EAC Rips\06 I Remember You.wav
     Peak level 98.9 %
     Extraction speed 2.8 X
     Track quality 100.0 %
     Test CRC CCC080A2
     Copy CRC CCC080A2
     Accurately ripped (confidence 9)  [3FB0ECD3]  (AR v2)
     Copy OK
Track  7
     Filename F:\EAC Rips\07 Watercolours In The Rain.wav
     Peak level 98.9 %
     Extraction speed 3.0 X
     Track quality 100.0 %
     Test CRC 7AA258CA
     Copy CRC 7AA258CA
     Accurately ripped (confidence 9)  [7F1D2DD7]  (AR v2)
     Copy OK
Track  8
     Filename F:\EAC Rips\08 The Big L..wav
     Peak level 98.9 %
     Extraction speed 2.4 X
     Track quality 99.9 %
     Test CRC 63E595A2
     Copy CRC 63E595A2
     Accurately ripped (confidence 9)  [41A394DE]  (AR v2)
     Copy OK
Track  9
     Filename F:\EAC Rips\09 Soul Deep.wav
     Peak level 98.9 %
     Extraction speed 3.2 X
     Track quality 100.0 %
     Test CRC 66B9A39E
     Copy CRC 66B9A39E
     Accurately ripped (confidence 9)  [AFD39008]  (AR v2)
     Copy OK
Track 10
     Filename F:\EAC Rips\10 (Do You Get) Excited.wav
     Peak level 98.8 %
     Extraction speed 3.4 X
     Track quality 100.0 %
     Test CRC B1FD72F6
     Copy CRC B1FD72F6
     Accurately ripped (confidence 9)  [EF90B4F6]  (AR v2)
     Copy OK
Track 11
     Filename F:\EAC Rips\11 Church Of Your Heart.wav
     Peak level 98.9 %
     Extraction speed 3.4 X
     Track quality 100.0 %
     Test CRC 608A2BF2
     Copy CRC 608A2BF2
     Accurately ripped (confidence 9)  [9BFDE694]  (AR v2)
     Copy OK
Track 12
     Filename F:\EAC Rips\12 Small Talk.wav
     Peak level 98.9 %
     Extraction speed 2.6 X
     Track quality 99.9 %
     Test CRC C6187E8F
     Copy CRC C6187E8F
     Accurately ripped (confidence 9)  [0CEAD091]  (AR v2)
     Copy OK
Track 13
     Filename F:\EAC Rips\13 Physical Fascination.wav
     Peak level 98.9 %
     Extraction speed 3.6 X
     Track quality 100.0 %
     Test CRC B3430928
     Copy CRC B3430928
     Accurately ripped (confidence 9)  [D4BB84E3]  (AR v2)
     Copy OK
Track 14
     Filename F:\EAC Rips\14 Things Will Never Be The Same.wav
     Peak level 98.9 %
     Extraction speed 3.9 X
     Track quality 100.0 %
     Test CRC 29800C9F
     Copy CRC 29800C9F
     Accurately ripped (confidence 9)  [FB3645B0]  (AR v2)
     Copy OK
Track 15
     Filename F:\EAC Rips\15 Perfect Day.wav
     Peak level 98.8 %
     Extraction speed 3.9 X
     Track quality 100.0 %
     Test CRC D8C3A1B7
     Copy CRC D8C3A1B7
     Accurately ripped (confidence 9)  [A440B456]  (AR v2)
     Copy OK
Track 16
     Filename F:\EAC Rips\16 The Sweet Hello, The Sad Goodbye.wav
     Peak level 97.7 %
     Extraction speed 3.2 X
     Track quality 99.9 %
     Test CRC 157E8CA5
     Copy CRC 157E8CA5
     Accurately ripped (confidence 9)  [473ABDB1]  (AR v2)
     Copy OK
Track 17
     Filename F:\EAC Rips\17 Love Spins (Demo).wav
     Peak level 97.7 %
     Extraction speed 2.9 X
     Track quality 99.9 %
     Test CRC A667A629
     Copy CRC A667A629
     Accurately ripped (confidence 9)  [FB1A3526]  (AR v2)
     Copy OK
Track 18
     Filename F:\EAC Rips\18 Seduce Me (Demo).wav
     Peak level 97.7 %
     Extraction speed 4.2 X
     Track quality 100.0 %
     Test CRC B6E7F230
     Copy CRC B6E7F230
     Accurately ripped (confidence 9)  [A214C705]  (AR v2)
     Copy OK
All tracks accurately ripped
No errors occurred
End of status report
---- CUETools DB Plugin V2.1.3
[CTDB TOCID: kvQUqPLENGLNkCyhju4x9XP.l7w-] found, Submit result: kvQUqPLENGLNkCyhju4x9XP.l7w- has been confirmed
[b85d8d44] (17/17) Accurately ripped

Индексная карта (non-compilant .cue)

REM GENRE Pop
REM DATE 1991
REM DISCID 0310B812
REM COMMENT "ExactAudioCopy v1.0b3"
CATALOG 5099968711726
PERFORMER "Roxette"
TITLE "Joyride (Rox Archives Vol. 3)"
FILE "01 - Joyride.wav" WAVE
  TRACK 01 AUDIO
    TITLE "Joyride"
    PERFORMER "Roxette"
    ISRC SEAMA9079010
    INDEX 01 00:00:00
FILE "02 - Hotblooded.wav" WAVE
  TRACK 02 AUDIO
    TITLE "Hotblooded"
    PERFORMER "Roxette"
    ISRC SEAMA9079020
    INDEX 01 00:00:00
FILE "03 - Fading Like A Flower (Every Time You Leave).wav" WAVE
  TRACK 03 AUDIO
    TITLE "Fading Like A Flower (Every Time You Leave)"
    PERFORMER "Roxette"
    ISRC SEAMA9079030
    INDEX 01 00:00:00
FILE "04 - Knockin' On Every Door.wav" WAVE
  TRACK 04 AUDIO
    TITLE "Knockin' On Every Door"
    PERFORMER "Roxette"
    ISRC SEAMA9079040
    INDEX 01 00:00:00
FILE "05 - Spending My Time.wav" WAVE
  TRACK 05 AUDIO
    TITLE "Spending My Time"
    PERFORMER "Roxette"
    ISRC SEAMA9079050
    INDEX 01 00:00:00
FILE "06 - I Remember You.wav" WAVE
  TRACK 06 AUDIO
    TITLE "I Remember You"
    PERFORMER "Roxette"
    ISRC SEAMA9079060
    INDEX 01 00:00:00
FILE "07 - Watercolours In The Rain.wav" WAVE
  TRACK 07 AUDIO
    TITLE "Watercolours In The Rain"
    PERFORMER "Roxette"
    ISRC SEAMA9079070
    INDEX 01 00:00:00
FILE "08 - The Big L..wav" WAVE
  TRACK 08 AUDIO
    TITLE "The Big L."
    PERFORMER "Roxette"
    ISRC SEAMA9079080
    INDEX 01 00:00:00
FILE "09 - Soul Deep.wav" WAVE
  TRACK 09 AUDIO
    TITLE "Soul Deep"
    PERFORMER "Roxette"
    ISRC SEAMA9079090
    INDEX 01 00:00:00
FILE "10 - (Do You Get) Excited.wav" WAVE
  TRACK 10 AUDIO
    TITLE "(Do You Get) Excited?"
    PERFORMER "Roxette"
    ISRC SEAMA9079100
    INDEX 01 00:00:00
FILE "11 - Church Of Your Heart.wav" WAVE
  TRACK 11 AUDIO
    TITLE "Church Of Your Heart"
    PERFORMER "Roxette"
    ISRC SEAMA9079110
    INDEX 01 00:00:00
FILE "12 - Small Talk.wav" WAVE
  TRACK 12 AUDIO
    TITLE "Small Talk"
    PERFORMER "Roxette"
    ISRC SEAMA9079120
    INDEX 01 00:00:00
FILE "13 - Physical Fascination.wav" WAVE
  TRACK 13 AUDIO
    TITLE "Physical Fascination"
    PERFORMER "Roxette"
    ISRC SEAMA9079130
    INDEX 01 00:00:00
FILE "14 - Things Will Never Be The Same.wav" WAVE
  TRACK 14 AUDIO
    TITLE "Things Will Never Be The Same"
    PERFORMER "Roxette"
    ISRC SEAMA9079140
    INDEX 01 00:00:00
FILE "15 - Perfect Day.wav" WAVE
  TRACK 15 AUDIO
    TITLE "Perfect Day"
    PERFORMER "Roxette"
    ISRC SEAMA9079150
    INDEX 01 00:00:00
FILE "16 - The Sweet Hello, The Sad Goodbye.wav" WAVE
  TRACK 16 AUDIO
    TITLE "The Sweet Hello, The Sad Goodbye "
    PERFORMER "Roxette"
    ISRC SEAMA9180007
    INDEX 01 00:00:00
FILE "17 - Love Spins (Demo).wav" WAVE
  TRACK 17 AUDIO
    TITLE "Love Spins (Demo)"
    PERFORMER "Roxette"
    ISRC SEVEV0600114
    INDEX 01 00:00:00
FILE "18 - Seduce Me (Demo).wav" WAVE
  TRACK 18 AUDIO
    TITLE "Seduce Me (Demo) "
    PERFORMER "Roxette"
    ISRC SEAMA9057210
    INDEX 01 00:00:00

Rox Archives Vol. 4 Tourism - 1992 | 01:19:24


Лейбл издания: Capitol Records
Страна-выпуска диска: EU
Номер по каталогу: 50999 687118 2 5
01.How Do You Do! (Studio)(3:09)
02.Fingertips (Studio)(3:34)
03.The Look (Live)(5:32)
04.The Heart Shaped Sea (Studio)(4:32)
05.The Rain (Studio)(4:49)
06.Keep Me Waiting (Studio)(3:15)
07.It Must Have Been Love (Live/Studio)(7:06)
08.Cinnamon Street (Studio)(5:01)
09.Never Is a Long Time (Nightclub)(3:46)
10.Silver Blue (Studio)(4:07)
11.Here Comes the Weekend (Hotelroom)(4:11)
12.So Far Away (Hotelroom)(4:03)
13.Come Back (Before You Leave) (Studio)(4:41)
14.Things Will Never Be the Same (Live)(3:12)
15.Joyride (Live)(4:48)
16.Queen of Rain (Studio)(4:51)
17.Fingertips '93 (Single A-Side)(3:41)
18.2. Cinnamon Street ('Super Mario' Soundtrack Europe)(5:07)

Лог создания рипа

Exact Audio Copy V1.0 beta 3 from 29. August 2011
EAC extraction logfile from 10. May 2015, 22:32
Roxette / Rox Archive Vol. 4: Tourism (Songs From Studios, Stages, Hotelrooms & Other Strange Places)
Used drive  : HL-DT-STDVD+-RW GT32N   Adapter: 0  ID: 1
Read mode               : Secure
Utilize accurate stream : Yes
Defeat audio cache      : Yes
Make use of C2 pointers : No
Read offset correction                      : 103
Overread into Lead-In and Lead-Out          : No
Fill up missing offset samples with silence : Yes
Delete leading and trailing silent blocks   : No
Null samples used in CRC calculations       : Yes
Used interface                              : Native Win32 interface for Win NT & 2000
Gap handling                                : Appended to previous track
Used output format              : User Defined Encoder
Selected bitrate                : 1024 kBit/s
Quality                         : High
Add ID3 tag                     : No
Command line compressor         : C:\Program Files (x86)\Exact Audio Copy\Flac\flac.exe
Additional command line options : -8 -V -T "ARTIST=%artist%" -T "TITLE=%title%" -T "ALBUM=%albumtitle%" -T "DATE=%year%" -T "TRACKNUMBER=%tracknr%" -T "GENRE=%genre%" -T "PERFORMER=%albuminterpret%" -T "COMPOSER=%composer%" %haslyrics%--tag-from-file=LYRICS="%lyricsfile%"%haslyrics% -T "ALBUMARTIST=%albumartist%" -T "DISCNUMBER=%cdnumber%" -T "TOTALDISCS=%totalcds%" -T "TOTALTRACKS=%numtracks%" -T "COMMENT=%comment%" %source% -o %dest%
TOC of the extracted CD
     Track |   Start  |  Length  | Start sector | End sector
    ---------------------------------------------------------
        1  |  0:00.00 |  3:09.28 |         0    |    14202
        2  |  3:09.28 |  3:33.60 |     14203    |    30237
        3  |  6:43.13 |  5:32.30 |     30238    |    55167
        4  | 12:15.43 |  4:32.27 |     55168    |    75594
        5  | 16:47.70 |  4:49.28 |     75595    |    97297
        6  | 21:37.23 |  3:15.10 |     97298    |   111932
        7  | 24:52.33 |  7:05.47 |    111933    |   143854
        8  | 31:58.05 |  5:00.40 |    143855    |   166394
        9  | 36:58.45 |  3:46.20 |    166395    |   183364
       10  | 40:44.65 |  4:06.58 |    183365    |   201872
       11  | 44:51.48 |  4:10.47 |    201873    |   220669
       12  | 49:02.20 |  4:02.45 |    220670    |   238864
       13  | 53:04.65 |  4:40.38 |    238865    |   259902
       14  | 57:45.28 |  3:12.27 |    259903    |   274329
       15  | 60:57.55 |  4:48.10 |    274330    |   295939
       16  | 65:45.65 |  4:50.60 |    295940    |   317749
       17  | 70:36.50 |  3:41.17 |    317750    |   334341
       18  | 74:17.67 |  5:06.44 |    334342    |   357335
Track  1
     Filename C:\Rips\01 - How Do You Do! (Studio).wav
     Pre-gap length  0:00:02.00
     Peak level 98.9 %
     Extraction speed 1.2 X
     Track quality 100.0 %
     Test CRC 85D152F4
     Copy CRC 85D152F4
     Accurately ripped (confidence 19)  [960AC8EE]  (AR v2)
     Copy OK
Track  2
     Filename C:\Rips\02 - Fingertips (Studio).wav
     Peak level 98.8 %
     Extraction speed 1.2 X
     Track quality 99.9 %
     Test CRC 9B89B5C8
     Copy CRC 9B89B5C8
     Accurately ripped (confidence 19)  [6EB16F78]  (AR v2)
     Copy OK
Track  3
     Filename C:\Rips\03 - The Look (Live).wav
     Peak level 98.8 %
     Extraction speed 1.5 X
     Track quality 100.0 %
     Test CRC 2095E154
     Copy CRC 2095E154
     Accurately ripped (confidence 19)  [9C1CC94F]  (AR v2)
     Copy OK
Track  4
     Filename C:\Rips\04 - The Heart Shaped Sea (Studio).wav
     Peak level 98.8 %
     Extraction speed 1.6 X
     Track quality 100.0 %
     Test CRC A4FB32E0
     Copy CRC A4FB32E0
     Accurately ripped (confidence 19)  [2D119226]  (AR v2)
     Copy OK
Track  5
     Filename C:\Rips\05 - The Rain (Studio).wav
     Peak level 98.9 %
     Extraction speed 1.8 X
     Track quality 100.0 %
     Test CRC 25F3EB06
     Copy CRC 25F3EB06
     Accurately ripped (confidence 19)  [B7A5570D]  (AR v2)
     Copy OK
Track  6
     Filename C:\Rips\06 - Keep Me Waiting (Studio).wav
     Peak level 98.9 %
     Extraction speed 1.7 X
     Track quality 100.0 %
     Test CRC BB7FD1FA
     Copy CRC BB7FD1FA
     Accurately ripped (confidence 19)  [3DE58E1C]  (AR v2)
     Copy OK
Track  7
     Filename C:\Rips\07 - It Must Have Been Love (Live,Studio).wav
     Peak level 98.8 %
     Extraction speed 1.9 X
     Track quality 99.9 %
     Test CRC 4687F547
     Copy CRC 4687F547
     Accurately ripped (confidence 19)  [08D63689]  (AR v2)
     Copy OK
Track  8
     Filename C:\Rips\08 - Cinnamon Street (Studio).wav
     Peak level 98.8 %
     Extraction speed 2.1 X
     Track quality 100.0 %
     Test CRC A5280F8B
     Copy CRC A5280F8B
     Accurately ripped (confidence 19)  [51951F81]  (AR v2)
     Copy OK
Track  9
     Filename C:\Rips\09 - Never Is a Long Time (Nightclub).wav
     Peak level 98.8 %
     Extraction speed 2.1 X
     Track quality 100.0 %
     Test CRC A424CF07
     Copy CRC A424CF07
     Accurately ripped (confidence 19)  [94CEFE9E]  (AR v2)
     Copy OK
Track 10
     Filename C:\Rips\10 - Silver Blue (Studio).wav
     Peak level 98.8 %
     Extraction speed 2.2 X
     Track quality 100.0 %
     Test CRC 0C638D3F
     Copy CRC 0C638D3F
     Accurately ripped (confidence 19)  [3711D8FB]  (AR v2)
     Copy OK
Track 11
     Filename C:\Rips\11 - Here Comes the Weekend (Hotelroom).wav
     Peak level 98.8 %
     Extraction speed 2.0 X
     Track quality 99.9 %
     Test CRC 25EBA7E4
     Copy CRC 25EBA7E4
     Accurately ripped (confidence 19)  [C782E08A]  (AR v2)
     Copy OK
Track 12
     Filename C:\Rips\12 - So Far Away (Hotelroom).wav
     Peak level 98.8 %
     Extraction speed 2.3 X
     Track quality 100.0 %
     Test CRC 05AD10D5
     Copy CRC 05AD10D5
     Accurately ripped (confidence 19)  [3B171308]  (AR v2)
     Copy OK
Track 13
     Filename C:\Rips\13 - Come Back (Before You Leave) (Studio).wav
     Peak level 98.8 %
     Extraction speed 2.2 X
     Track quality 99.9 %
     Test CRC 6207128D
     Copy CRC 6207128D
     Accurately ripped (confidence 19)  [FB9FBFA5]  (AR v2)
     Copy OK
Track 14
     Filename C:\Rips\14 - Things Will Never Be the Same (Live).wav
     Peak level 98.8 %
     Extraction speed 2.4 X
     Track quality 100.0 %
     Test CRC D84FE83F
     Copy CRC D84FE83F
     Accurately ripped (confidence 18)  [60E52F25]  (AR v2)
     Copy OK
Track 15
     Filename C:\Rips\15 - Joyride (Live).wav
     Peak level 99.9 %
     Extraction speed 2.3 X
     Track quality 99.9 %
     Test CRC 7FA4E545
     Copy CRC 7FA4E545
     Accurately ripped (confidence 19)  [0C52D3E3]  (AR v2)
     Copy OK
Track 16
     Filename C:\Rips\16 - Queen of Rain (Studio).wav
     Peak level 98.8 %
     Extraction speed 2.4 X
     Track quality 99.9 %
     Test CRC 5E6E4319
     Copy CRC 5E6E4319
     Accurately ripped (confidence 19)  [29EE3E7C]  (AR v2)
     Copy OK
Track 17
     Filename C:\Rips\17 - Fingertips '93 (Single A-Side).wav
     Peak level 98.8 %
     Extraction speed 2.6 X
     Track quality 100.0 %
     Test CRC 6EA74F6D
     Copy CRC 6EA74F6D
     Accurately ripped (confidence 18)  [57651AC9]  (AR v2)
     Copy OK
Track 18
     Filename C:\Rips\18 - 2. Cinnamon Street (''Super Mario'' Soundtrack Europe).wav
     Peak level 98.9 %
     Extraction speed 2.8 X
     Track quality 100.0 %
     Test CRC 5B79FA03
     Copy CRC 5B79FA03
     Accurately ripped (confidence 16)  [FFA5E40D]  (AR v2)
     Copy OK
All tracks accurately ripped
No errors occurred
End of status report

Индексная карта (non-compilant .cue)

REM GENRE Pop
REM DATE 1992
REM DISCID 1D129C12
REM COMMENT "ExactAudioCopy v1.0b3"
CATALOG 5099968711825
PERFORMER "Roxette"
TITLE "Tourism (Songs From Studios, Stages, Hotelrooms & Other Strange Places) (Rox Archives Vol. 4)"
FILE "01 - How Do You Do! (Studio).wav" WAVE
  TRACK 01 AUDIO
    PERFORMER "Roxette"
    TITLE "How Do You Do! (Studio)"
    ISRC SEAMA9252010
    INDEX 01 00:00:00
FILE "02 - Fingertips (Studio).wav" WAVE
  TRACK 02 AUDIO
    PERFORMER "Roxette"
    TITLE "Fingertips (Studio)"
    ISRC SEAMA9253020
    INDEX 01 00:00:00
FILE "03 - The Look (Live).wav" WAVE
  TRACK 03 AUDIO
    PERFORMER "Roxette"
    TITLE "The Look (Live)"
    ISRC SEAMA9253030
    INDEX 01 00:00:00
FILE "04 - The Heart Shaped Sea (Studio).wav" WAVE
  TRACK 04 AUDIO
    PERFORMER "Roxette"
    TITLE "The Heart Shaped Sea (Studio)"
    ISRC SEAMA9253040
    INDEX 01 00:00:00
FILE "05 - The Rain (Studio).wav" WAVE
  TRACK 05 AUDIO
    PERFORMER "Roxette"
    TITLE "The Rain (Studio)"
    ISRC SEAMA9253050
    INDEX 01 00:00:00
FILE "06 - Keep Me Waiting (Studio).wav" WAVE
  TRACK 06 AUDIO
    PERFORMER "Roxette"
    TITLE "Keep Me Waiting (Studio)"
    ISRC SEAMA9253060
    INDEX 01 00:00:00
FILE "07 - It Must Have Been Love (Live,Studio).wav" WAVE
  TRACK 07 AUDIO
    PERFORMER "Roxette"
    TITLE "It Must Have Been Love (Live,Studio)"
    ISRC SEAMA9253070
    INDEX 01 00:00:00
FILE "08 - Cinnamon Street (Studio).wav" WAVE
  TRACK 08 AUDIO
    PERFORMER "Roxette"
    TITLE "Cinnamon Street (Studio)"
    ISRC SEAMA9253080
    INDEX 01 00:00:00
FILE "09 - Never Is a Long Time (Nightclub).wav" WAVE
  TRACK 09 AUDIO
    PERFORMER "Roxette"
    TITLE "Never Is a Long Time (Nightclub)"
    ISRC SEAMA9253090
    INDEX 01 00:00:00
FILE "10 - Silver Blue (Studio).wav" WAVE
  TRACK 10 AUDIO
    PERFORMER "Roxette"
    TITLE "Silver Blue (Studio)"
    ISRC SEAMA9253100
    INDEX 01 00:00:00
FILE "11 - Here Comes the Weekend (Hotelroom).wav" WAVE
  TRACK 11 AUDIO
    PERFORMER "Roxette"
    TITLE "Here Comes the Weekend (Hotelroom)"
    ISRC SEAMA9253100
    INDEX 01 00:00:00
FILE "12 - So Far Away (Hotelroom).wav" WAVE
  TRACK 12 AUDIO
    PERFORMER "Roxette"
    TITLE "So Far Away (Hotelroom)"
    ISRC SEAMA9253120
    INDEX 01 00:00:00
FILE "13 - Come Back (Before You Leave) (Studio).wav" WAVE
  TRACK 13 AUDIO
    PERFORMER "Roxette"
    TITLE "Come Back (Before You Leave) (Studio)"
    ISRC SEAMA9253130
    INDEX 01 00:00:00
FILE "14 - Things Will Never Be the Same (Live).wav" WAVE
  TRACK 14 AUDIO
    PERFORMER "Roxette"
    TITLE "Things Will Never Be the Same (Live)"
    ISRC SEAMA9253140
    INDEX 01 00:00:00
FILE "15 - Joyride (Live).wav" WAVE
  TRACK 15 AUDIO
    PERFORMER "Roxette"
    TITLE "Joyride (Live)"
    ISRC SEAMA9253150
    INDEX 01 00:00:00
FILE "16 - Queen of Rain (Studio).wav" WAVE
  TRACK 16 AUDIO
    PERFORMER "Roxette"
    TITLE "Queen of Rain (Studio)"
    ISRC SEAMA9253160
    INDEX 01 00:00:00
FILE "17 - Fingertips '93 (Single A-Side).wav" WAVE
  TRACK 17 AUDIO
    PERFORMER "Roxette"
    TITLE "Fingertips '93 (Single A-Side)"
    ISRC SEAMA9252021
    INDEX 01 00:00:00
FILE "18 - 2. Cinnamon Street (''Super Mario'' Soundtrack Europe).wav" WAVE
  TRACK 18 AUDIO
    PERFORMER "Roxette"
    TITLE "2. Cinnamon Street (''Super Mario'' Soundtrack Europe)"
    ISRC SEAMA0900111
    INDEX 01 00:00:00

Rox Archives Vol. 5 Crash! Boom! Bang! - 1994 | 01:13:45


Лейбл издания: Capitol Records
Страна-выпуска диска: EU
Номер по каталогу: 50999 687119 2 4
01.Harleys And Indians (Riders In The Sky)(3:45)
02.Crash! Boom! Bang!(5:02)
03.Fireworks(3:58)
04.Run To You(3:39)
05.Sleeping In My Car(3:46)
06.Vulnerable(5:01)
07.The First Girl On The Moon(3:02)
08.Place Your Love(3:08)
09.I Love The Sound Of Crashing Guitars(4:48)
10.What's She Like?(4:14)
11.Do You Wanna Go The Whole Way?(4:09)
12.Lies(3:34)
13.I'm Sorry(3:14)
14.Love Is All (Shine Your Light On Me)(6:45)
15.Go To Sleep(4:00)
16.Almost Unreal(3:57)
17.Crazy About You(3:59)
18.See Me(3:44)

Лог создания рипа

Exact Audio Copy V1.0 beta 3 from 29. August 2011
EAC extraction logfile from 20. May 2015, 11:37
Roxette / Crash! Boom! Bang! (Rox Archives Vol. 5)
Used drive  : HL-DT-STDVD+-RW GT32N   Adapter: 0  ID: 1
Read mode               : Secure
Utilize accurate stream : Yes
Defeat audio cache      : Yes
Make use of C2 pointers : No
Read offset correction                      : 103
Overread into Lead-In and Lead-Out          : No
Fill up missing offset samples with silence : Yes
Delete leading and trailing silent blocks   : No
Null samples used in CRC calculations       : Yes
Used interface                              : Native Win32 interface for Win NT & 2000
Gap handling                                : Appended to previous track
Used output format              : User Defined Encoder
Selected bitrate                : 1024 kBit/s
Quality                         : High
Add ID3 tag                     : No
Command line compressor         : C:\Program Files (x86)\Exact Audio Copy\Flac\flac.exe
Additional command line options : -8 -V -T "ARTIST=%artist%" -T "TITLE=%title%" -T "ALBUM=%albumtitle%" -T "DATE=%year%" -T "TRACKNUMBER=%tracknr%" -T "GENRE=%genre%" -T "PERFORMER=%albuminterpret%" -T "COMPOSER=%composer%" %haslyrics%--tag-from-file=LYRICS="%lyricsfile%"%haslyrics% -T "ALBUMARTIST=%albumartist%" -T "DISCNUMBER=%cdnumber%" -T "TOTALDISCS=%totalcds%" -T "TOTALTRACKS=%numtracks%" -T "COMMENT=%comment%" %source% -o %dest%
TOC of the extracted CD
     Track |   Start  |  Length  | Start sector | End sector
    ---------------------------------------------------------
        1  |  0:00.00 |  3:44.57 |         0    |    16856
        2  |  3:44.57 |  5:01.53 |     16857    |    39484
        3  |  8:46.35 |  3:57.47 |     39485    |    57306
        4  | 12:44.07 |  3:39.20 |     57307    |    73751
        5  | 16:23.27 |  3:46.10 |     73752    |    90711
        6  | 20:09.37 |  5:00.73 |     90712    |   113284
        7  | 25:10.35 |  3:01.67 |    113285    |   126926
        8  | 28:12.27 |  3:07.70 |    126927    |   141021
        9  | 31:20.22 |  4:47.68 |    141022    |   162614
       10  | 36:08.15 |  4:14.15 |    162615    |   181679
       11  | 40:22.30 |  4:09.27 |    181680    |   200381
       12  | 44:31.57 |  3:34.18 |    200382    |   216449
       13  | 48:06.00 |  3:13.40 |    216450    |   230964
       14  | 51:19.40 |  6:44.62 |    230965    |   261326
       15  | 58:04.27 |  3:59.38 |    261327    |   279289
       16  | 62:03.65 |  3:57.28 |    279290    |   297092
       17  | 66:01.18 |  3:59.06 |    297093    |   315023
       18  | 70:00.24 |  3:44.21 |    315024    |   331844
Track  1
     Filename C:\Rips\01 - Harleys And Indians (Riders In The Sky).wav
     Pre-gap length  0:00:02.00
     Peak level 93.2 %
     Extraction speed 1.1 X
     Track quality 99.9 %
     Test CRC 851CDA3C
     Copy CRC 851CDA3C
     Accurately ripped (confidence 12)  [5C66543B]  (AR v2)
     Copy OK
Track  2
     Filename C:\Rips\02 - Crash! Boom! Bang!.wav
     Peak level 99.9 %
     Extraction speed 1.4 X
     Track quality 100.0 %
     Test CRC 46C8F8E0
     Copy CRC 46C8F8E0
     Accurately ripped (confidence 12)  [B4A7FD26]  (AR v2)
     Copy OK
Track  3
     Filename C:\Rips\03 - Fireworks.wav
     Peak level 99.9 %
     Extraction speed 1.5 X
     Track quality 100.0 %
     Test CRC 807BDC23
     Copy CRC 807BDC23
     Accurately ripped (confidence 12)  [0C945F31]  (AR v2)
     Copy OK
Track  4
     Filename C:\Rips\04 - Run To You.wav
     Peak level 98.9 %
     Extraction speed 1.6 X
     Track quality 100.0 %
     Test CRC 160E6D11
     Copy CRC 160E6D11
     Accurately ripped (confidence 12)  [60DBB7B5]  (AR v2)
     Copy OK
Track  5
     Filename C:\Rips\05 - Sleeping In My Car.wav
     Peak level 99.9 %
     Extraction speed 1.6 X
     Track quality 100.0 %
     Test CRC 46ED6A41
     Copy CRC 46ED6A41
     Accurately ripped (confidence 12)  [05C212FD]  (AR v2)
     Copy OK
Track  6
     Filename C:\Rips\06 - Vulnerable.wav
     Peak level 98.9 %
     Extraction speed 1.8 X
     Track quality 100.0 %
     Test CRC 278DFB91
     Copy CRC 278DFB91
     Accurately ripped (confidence 12)  [0278820F]  (AR v2)
     Copy OK
Track  7
     Filename C:\Rips\07 - The First Girl On The Moon.wav
     Peak level 98.8 %
     Extraction speed 1.5 X
     Track quality 99.9 %
     Test CRC 1CF3978D
     Copy CRC 1CF3978D
     Accurately ripped (confidence 12)  [ED80B200]  (AR v2)
     Copy OK
Track  8
     Filename C:\Rips\08 - Place Your Love.wav
     Peak level 98.8 %
     Extraction speed 1.8 X
     Track quality 100.0 %
     Test CRC CE6FEFF2
     Copy CRC CE6FEFF2
     Accurately ripped (confidence 12)  [7E045B16]  (AR v2)
     Copy OK
Track  9
     Filename C:\Rips\09 - I Love The Sound Of Crashing Guitars.wav
     Peak level 99.9 %
     Extraction speed 2.0 X
     Track quality 100.0 %
     Test CRC 7AAD62A5
     Copy CRC 7AAD62A5
     Accurately ripped (confidence 12)  [11CE2B0D]  (AR v2)
     Copy OK
Track 10
     Filename C:\Rips\10 - What's She Like.wav
     Peak level 99.9 %
     Extraction speed 2.1 X
     Track quality 100.0 %
     Test CRC F40D1C97
     Copy CRC F40D1C97
     Accurately ripped (confidence 12)  [D49A8D07]  (AR v2)
     Copy OK
Track 11
     Filename C:\Rips\11 - Do You Wanna Go The Whole Way.wav
     Peak level 98.8 %
     Extraction speed 2.2 X
     Track quality 100.0 %
     Test CRC 4F1ED660
     Copy CRC 4F1ED660
     Accurately ripped (confidence 12)  [C522D58C]  (AR v2)
     Copy OK
Track 12
     Filename C:\Rips\12 - Lies.wav
     Peak level 98.8 %
     Extraction speed 2.2 X
     Track quality 100.0 %
     Test CRC 6FB6CCC7
     Copy CRC 6FB6CCC7
     Accurately ripped (confidence 12)  [1AB93341]  (AR v2)
     Copy OK
Track 13
     Filename C:\Rips\13 - I'm Sorry.wav
     Peak level 98.8 %
     Extraction speed 1.9 X
     Track quality 99.9 %
     Test CRC 20569D4A
     Copy CRC 20569D4A
     Accurately ripped (confidence 12)  [A1C5AC1F]  (AR v2)
     Copy OK
Track 14
     Filename C:\Rips\14 - Love Is All (Shine Your Light On Me).wav
     Peak level 99.9 %
     Extraction speed 2.5 X
     Track quality 100.0 %
     Test CRC 18EDD0DF
     Copy CRC 18EDD0DF
     Accurately ripped (confidence 12)  [1DEF8E9B]  (AR v2)
     Copy OK
Track 15
     Filename C:\Rips\15 - Go To Sleep.wav
     Peak level 98.8 %
     Extraction speed 2.4 X
     Track quality 100.0 %
     Test CRC B6B3399C
     Copy CRC B6B3399C
     Accurately ripped (confidence 12)  [631093D1]  (AR v2)
     Copy OK
Track 16
     Filename C:\Rips\16 - Almost Unreal.wav
     Pre-gap length  0:00:00.12
     Peak level 98.8 %
     Extraction speed 2.2 X
     Track quality 99.9 %
     Test CRC 4FABD563
     Copy CRC 4FABD563
     Accurately ripped (confidence 12)  [D0184283]  (AR v2)
     Copy OK
Track 17
     Filename C:\Rips\17 - Crazy About You.wav
     Pre-gap length  0:00:02.17
     Peak level 99.9 %
     Extraction speed 2.6 X
     Track quality 100.0 %
     Test CRC 0A22F1E2
     Copy CRC 0A22F1E2
     Accurately ripped (confidence 12)  [9CBDC0D0]  (AR v2)
     Copy OK
Track 18
     Filename C:\Rips\18 - See Me.wav
     Peak level 99.9 %
     Extraction speed 2.6 X
     Track quality 100.0 %
     Test CRC DBAAEFBB
     Copy CRC DBAAEFBB
     Accurately ripped (confidence 11)  [0479ABA1]  (AR v2)
     Copy OK
All tracks accurately ripped
No errors occurred
End of status report

Индексная карта (non-compilant .cue)

REM GENRE Pop
REM DATE 1994
REM DISCID 0B114812
REM COMMENT "ExactAudioCopy v1.0b3"
CATALOG 5099968711924
PERFORMER "Roxette"
TITLE "Crash! Boom! Bang! (Rox Archives Vol. 5)"
FILE "01 - Harleys And Indians (Riders In The Sky).wav" WAVE
  TRACK 01 AUDIO
    PERFORMER "Roxette"
    TITLE "Harleys And Indians (Riders In The Sky)"
    ISRC SEAMA9301010
    INDEX 01 00:00:00
FILE "02 - Crash! Boom! Bang!.wav" WAVE
  TRACK 02 AUDIO
    PERFORMER "Roxette"
    TITLE "Crash! Boom! Bang!"
    ISRC SEAMA9301020
    INDEX 01 00:00:00
FILE "03 - Fireworks.wav" WAVE
  TRACK 03 AUDIO
    PERFORMER "Roxette"
    TITLE "Fireworks"
    ISRC SEAMA9301050
    INDEX 01 00:00:00
FILE "04 - Run To You.wav" WAVE
  TRACK 04 AUDIO
    PERFORMER "Roxette"
    TITLE "Run To You"
    ISRC SEAMA9301040
    INDEX 01 00:00:00
FILE "05 - Sleeping In My Car.wav" WAVE
  TRACK 05 AUDIO
    PERFORMER "Roxette"
    TITLE "Sleeping In My Car"
    ISRC SEAMA9301030
    INDEX 01 00:00:00
FILE "06 - Vulnerable.wav" WAVE
  TRACK 06 AUDIO
    PERFORMER "Roxette"
    TITLE "Vulnerable"
    ISRC SEAMA9301060
    INDEX 01 00:00:00
FILE "07 - The First Girl On The Moon.wav" WAVE
  TRACK 07 AUDIO
    PERFORMER "Roxette"
    TITLE "The First Girl On The Moon"
    ISRC SEAMA9301070
    INDEX 01 00:00:00
FILE "08 - Place Your Love.wav" WAVE
  TRACK 08 AUDIO
    PERFORMER "Roxette"
    TITLE "Place Your Love"
    ISRC SEAMA9301080
    INDEX 01 00:00:00
FILE "09 - I Love The Sound Of Crashing Guitars.wav" WAVE
  TRACK 09 AUDIO
    PERFORMER "Roxette"
    TITLE "I Love The Sound Of Crashing Guitars"
    ISRC SEAMA9301090
    INDEX 01 00:00:00
FILE "10 - What's She Like.wav" WAVE
  TRACK 10 AUDIO
    PERFORMER "Roxette"
    TITLE "What's She Like"
    ISRC SEAMA9301100
    INDEX 01 00:00:00
FILE "11 - Do You Wanna Go The Whole Way.wav" WAVE
  TRACK 11 AUDIO
    PERFORMER "Roxette"
    TITLE "Do You Wanna Go The Whole Way"
    ISRC SEAMA9301110
    INDEX 01 00:00:00
FILE "12 - Lies.wav" WAVE
  TRACK 12 AUDIO
    PERFORMER "Roxette"
    TITLE "Lies"
    ISRC SEAMA9301120
    INDEX 01 00:00:00
FILE "13 - I'm Sorry.wav" WAVE
  TRACK 13 AUDIO
    PERFORMER "Roxette"
    TITLE "I'm Sorry"
    ISRC SEAMA9301130
    INDEX 01 00:00:00
FILE "14 - Love Is All (Shine Your Light On Me).wav" WAVE
  TRACK 14 AUDIO
    PERFORMER "Roxette"
    TITLE "Love Is All (Shine Your Light On Me)"
    ISRC SEAMA9301140
    INDEX 01 00:00:00
FILE "15 - Go To Sleep.wav" WAVE
  TRACK 15 AUDIO
    PERFORMER "Roxette"
    TITLE "Go To Sleep"
    ISRC SEAMA9301150
    INDEX 01 00:00:00
  TRACK 16 AUDIO
    PERFORMER "Roxette"
    TITLE "Almost Unreal"
    ISRC SEAMA9301160
    INDEX 00 03:59:29
FILE "16 - Almost Unreal.wav" WAVE
    INDEX 01 00:00:00
  TRACK 17 AUDIO
    PERFORMER "Roxette"
    TITLE "Crazy About You"
    ISRC SEAMA9357200
    INDEX 00 03:55:15
FILE "17 - Crazy About You.wav" WAVE
    INDEX 01 00:00:00
FILE "18 - See Me.wav" WAVE
  TRACK 18 AUDIO
    PERFORMER "Roxette"
    TITLE "See Me"
    ISRC SEAMA9300438
    INDEX 01 00:00:00

Rox Archives Vol. 6 Have A Nice Day - 1999 | 01:07:48


Лейбл издания: Capitol Records
Страна-выпуска диска: EU
Номер по каталогу: 50999 6871 2 0
01.Crush On You(3:36)
02.Wish I Could Fly(4:40)
03.You Can't Put Your Arms Around What's Already Gone(3:31)
04.Waiting For The Rain(3:38)
05.Anyone(4:32)
06.It Will Take A Long Long Time(4:04)
07.7Twenty7(3:53)
08.I Was So Lucky(4:18)
09.Stars(3:56)
10.Salvation(4:38)
11.Pay The Price(3:48)
12.Cooper(4:17)
13.Staring At The Ground(2:59)
14.Beautiful Things(3:50)
15.It Hurts(3:53)
16.Myth (Demo)(4:26)
17.Makin' Love To You(3:50)

Лог создания рипа

Exact Audio Copy V1.0 beta 3 from 29. August 2011
EAC extraction logfile from 17. May 2015, 22:59
Roxette / Have A Nice Day (Rox Archives Vol. 6)
Used drive  : HL-DT-STDVD+-RW GT32N   Adapter: 0  ID: 1
Read mode               : Secure
Utilize accurate stream : Yes
Defeat audio cache      : Yes
Make use of C2 pointers : No
Read offset correction                      : 103
Overread into Lead-In and Lead-Out          : No
Fill up missing offset samples with silence : Yes
Delete leading and trailing silent blocks   : No
Null samples used in CRC calculations       : Yes
Used interface                              : Native Win32 interface for Win NT & 2000
Gap handling                                : Appended to previous track
Used output format              : User Defined Encoder
Selected bitrate                : 1024 kBit/s
Quality                         : High
Add ID3 tag                     : No
Command line compressor         : C:\Program Files (x86)\Exact Audio Copy\Flac\flac.exe
Additional command line options : -8 -V -T "ARTIST=%artist%" -T "TITLE=%title%" -T "ALBUM=%albumtitle%" -T "DATE=%year%" -T "TRACKNUMBER=%tracknr%" -T "GENRE=%genre%" -T "PERFORMER=%albuminterpret%" -T "COMPOSER=%composer%" %haslyrics%--tag-from-file=LYRICS="%lyricsfile%"%haslyrics% -T "ALBUMARTIST=%albumartist%" -T "DISCNUMBER=%cdnumber%" -T "TOTALDISCS=%totalcds%" -T "TOTALTRACKS=%numtracks%" -T "COMMENT=%comment%" %source% -o %dest%
TOC of the extracted CD
     Track |   Start  |  Length  | Start sector | End sector
    ---------------------------------------------------------
        1  |  0:00.00 |  3:35.60 |         0    |    16184
        2  |  3:35.60 |  4:40.35 |     16185    |    37219
        3  |  8:16.20 |  3:30.58 |     37220    |    53027
        4  | 11:47.03 |  3:37.70 |     53028    |    69372
        5  | 15:24.73 |  4:31.52 |     69373    |    89749
        6  | 19:56.50 |  4:03.53 |     89750    |   108027
        7  | 24:00.28 |  3:53.05 |    108028    |   125507
        8  | 27:53.33 |  4:17.47 |    125508    |   144829
        9  | 32:11.05 |  3:56.18 |    144830    |   162547
       10  | 36:07.23 |  4:38.27 |    162548    |   183424
       11  | 40:45.50 |  3:48.20 |    183425    |   200544
       12  | 44:33.70 |  4:17.08 |    200545    |   219827
       13  | 48:51.03 |  2:58.60 |    219828    |   233237
       14  | 51:49.63 |  3:49.46 |    233238    |   250458
       15  | 55:39.34 |  3:52.69 |    250459    |   267927
       16  | 59:32.28 |  4:25.41 |    267928    |   287843
       17  | 63:57.69 |  3:50.30 |    287844    |   305123
Track  1
     Filename C:\Rips\01 - Crush On You.wav
     Pre-gap length  0:00:02.00
     Peak level 98.8 %
     Extraction speed 1.0 X
     Track quality 99.9 %
     Test CRC DF8A4994
     Copy CRC DF8A4994
     Accurately ripped (confidence 18)  [C0C84196]  (AR v2)
     Copy OK
Track  2
     Filename C:\Rips\02 - Wish I Could Fly.wav
     Peak level 98.8 %
     Extraction speed 1.4 X
     Track quality 100.0 %
     Test CRC 5207CBC0
     Copy CRC 5207CBC0
     Accurately ripped (confidence 18)  [F7B5C0DF]  (AR v2)
     Copy OK
Track  3
     Filename C:\Rips\03 - You Can't Put Your Arms Around What's Already Gone.wav
     Peak level 98.8 %
     Extraction speed 1.4 X
     Track quality 100.0 %
     Test CRC 68B35516
     Copy CRC 68B35516
     Accurately ripped (confidence 18)  [864F540E]  (AR v2)
     Copy OK
Track  4
     Filename C:\Rips\04 - Waiting For The Rain.wav
     Peak level 98.8 %
     Extraction speed 1.5 X
     Track quality 100.0 %
     Test CRC EEB6D3C5
     Copy CRC EEB6D3C5
     Accurately ripped (confidence 18)  [0E0F6BA5]  (AR v2)
     Copy OK
Track  5
     Filename C:\Rips\05 - Anyone.wav
     Peak level 98.8 %
     Extraction speed 1.7 X
     Track quality 100.0 %
     Test CRC 091999BA
     Copy CRC 091999BA
     Accurately ripped (confidence 18)  [6E025536]  (AR v2)
     Copy OK
Track  6
     Filename C:\Rips\06 - It Will Take A Long Long Time.wav
     Peak level 98.8 %
     Extraction speed 1.6 X
     Track quality 99.9 %
     Test CRC 331288B7
     Copy CRC 331288B7
     Accurately ripped (confidence 18)  [2883034F]  (AR v2)
     Copy OK
Track  7
     Filename C:\Rips\07 - 7Twenty7.wav
     Peak level 98.8 %
     Extraction speed 1.6 X
     Track quality 99.9 %
     Test CRC A00AF05F
     Copy CRC A00AF05F
     Accurately ripped (confidence 18)  [16CB8E3A]  (AR v2)
     Copy OK
Track  8
     Filename C:\Rips\08 - I Was So Lucky.wav
     Peak level 98.8 %
     Extraction speed 1.7 X
     Track quality 99.9 %
     Test CRC 742773E7
     Copy CRC 742773E7
     Accurately ripped (confidence 18)  [20B7EC87]  (AR v2)
     Copy OK
Track  9
     Filename C:\Rips\09 - Stars.wav
     Peak level 98.8 %
     Extraction speed 2.0 X
     Track quality 100.0 %
     Test CRC 6E9D66FC
     Copy CRC 6E9D66FC
     Accurately ripped (confidence 18)  [D93FFA03]  (AR v2)
     Copy OK
Track 10
     Filename C:\Rips\10 - Salvation.wav
     Peak level 98.8 %
     Extraction speed 2.2 X
     Track quality 100.0 %
     Test CRC B979FF0A
     Copy CRC B979FF0A
     Accurately ripped (confidence 18)  [1270EEEE]  (AR v2)
     Copy OK
Track 11
     Filename C:\Rips\11 - Pay The Price.wav
     Peak level 98.9 %
     Extraction speed 2.2 X
     Track quality 100.0 %
     Test CRC 4B85CC88
     Copy CRC 4B85CC88
     Accurately ripped (confidence 18)  [F8330B88]  (AR v2)
     Copy OK
Track 12
     Filename C:\Rips\12 - Cooper.wav
     Peak level 98.8 %
     Extraction speed 2.3 X
     Track quality 100.0 %
     Test CRC 0B5CC8B3
     Copy CRC 0B5CC8B3
     Accurately ripped (confidence 17)  [947D1917]  (AR v2)
     Copy OK
Track 13
     Filename C:\Rips\13 - Staring At The Ground.wav
     Peak level 98.8 %
     Extraction speed 2.2 X
     Track quality 100.0 %
     Test CRC 1B1C96BC
     Copy CRC 1B1C96BC
     Accurately ripped (confidence 17)  [36E16DB0]  (AR v2)
     Copy OK
Track 14
     Filename C:\Rips\14 - Beautiful Things.wav
     Peak level 98.8 %
     Extraction speed 2.4 X
     Track quality 100.0 %
     Test CRC 347ECD1D
     Copy CRC 347ECD1D
     Accurately ripped (confidence 17)  [245FC991]  (AR v2)
     Copy OK
Track 15
     Filename C:\Rips\15 - It Hurts.wav
     Peak level 99.9 %
     Extraction speed 2.4 X
     Track quality 100.0 %
     Test CRC 71358E2F
     Copy CRC 71358E2F
     Accurately ripped (confidence 17)  [41CC8061]  (AR v2)
     Copy OK
Track 16
     Filename C:\Rips\16 - Myth (Demo).wav
     Pre-gap length  0:00:01.49
     Peak level 99.9 %
     Extraction speed 2.5 X
     Track quality 100.0 %
     Test CRC 332DBA5B
     Copy CRC 332DBA5B
     Accurately ripped (confidence 17)  [C2350463]  (AR v2)
     Copy OK
Track 17
     Filename C:\Rips\17 - Makin' Love To You.wav
     Pre-gap length  0:00:01.66
     Peak level 98.8 %
     Extraction speed 2.3 X
     Track quality 99.9 %
     Test CRC 1266A1F7
     Copy CRC 1266A1F7
     Accurately ripped (confidence 16)  [91BF0598]  (AR v2)
     Copy OK
All tracks accurately ripped
No errors occurred
End of status report

Индексная карта (non-compilant .cue)

REM GENRE Pop
REM DATE 1999
REM DISCID 070FE411
REM COMMENT "ExactAudioCopy v1.0b3"
CATALOG 5099968712020
PERFORMER "Roxette"
TITLE "Have A Nice Day (Rox Archives Vol. 6)"
FILE "01 - Crush On You.wav" WAVE
  TRACK 01 AUDIO
    PERFORMER "Roxette"
    TITLE "Crush On You"
    ISRC SEVEV9801010
    INDEX 01 00:00:00
FILE "02 - Wish I Could Fly.wav" WAVE
  TRACK 02 AUDIO
    PERFORMER "Roxette"
    TITLE "Wish I Could Fly"
    ISRC SEVEV9801020
    INDEX 01 00:00:00
FILE "03 - You Can't Put Your Arms Around What's Already Gone.wav" WAVE
  TRACK 03 AUDIO
    PERFORMER "Roxette"
    TITLE "You Can't Put Your Arms Around What's Already Gone"
    ISRC SEVEV9801090
    INDEX 01 00:00:00
FILE "04 - Waiting For The Rain.wav" WAVE
  TRACK 04 AUDIO
    PERFORMER "Roxette"
    TITLE "Waiting For The Rain"
    ISRC SEVEV9801100
    INDEX 01 00:00:00
FILE "05 - Anyone.wav" WAVE
  TRACK 05 AUDIO
    PERFORMER "Roxette"
    TITLE "Anyone"
    ISRC SEVEV9801040
    INDEX 01 00:00:00
FILE "06 - It Will Take A Long Long Time.wav" WAVE
  TRACK 06 AUDIO
    PERFORMER "Roxette"
    TITLE "It Will Take A Long Long Time"
    ISRC SEVEV9801050
    INDEX 01 00:00:00
FILE "07 - 7Twenty7.wav" WAVE
  TRACK 07 AUDIO
    PERFORMER "Roxette"
    TITLE "7Twenty7"
    ISRC SEVEV9801060
    INDEX 01 00:00:00
FILE "08 - I Was So Lucky.wav" WAVE
  TRACK 08 AUDIO
    PERFORMER "Roxette"
    TITLE "I Was So Lucky"
    ISRC SEVEV9801070
    INDEX 01 00:00:00
FILE "09 - Stars.wav" WAVE
  TRACK 09 AUDIO
    PERFORMER "Roxette"
    TITLE "Stars"
    ISRC SEVEV9801030
    INDEX 01 00:00:00
FILE "10 - Salvation.wav" WAVE
  TRACK 10 AUDIO
    PERFORMER "Roxette"
    TITLE "Salvation"
    ISRC SEVEV9801150
    INDEX 01 00:00:00
FILE "11 - Pay The Price.wav" WAVE
  TRACK 11 AUDIO
    PERFORMER "Roxette"
    TITLE "Pay The Price"
    ISRC SEVEV9801120
    INDEX 01 00:00:00
FILE "12 - Cooper.wav" WAVE
  TRACK 12 AUDIO
    PERFORMER "Roxette"
    TITLE "Cooper"
    ISRC SEVEV9801110
    INDEX 01 00:00:00
FILE "13 - Staring At The Ground.wav" WAVE
  TRACK 13 AUDIO
    PERFORMER "Roxette"
    TITLE "Staring At The Ground"
    ISRC SEVEV9801110
    INDEX 01 00:00:00
FILE "14 - Beautiful Things.wav" WAVE
  TRACK 14 AUDIO
    PERFORMER "Roxette"
    TITLE "Beautiful Things"
    ISRC SEVEV9801140
    INDEX 01 00:00:00
FILE "15 - It Hurts.wav" WAVE
  TRACK 15 AUDIO
    PERFORMER "Roxette"
    TITLE "It Hurts"
    ISRC SEVEV9801171
    INDEX 01 00:00:00
  TRACK 16 AUDIO
    PERFORMER "Roxette"
    TITLE "Myth (Demo)"
    ISRC SEVEV0600104
    INDEX 00 03:51:32
FILE "16 - Myth (Demo).wav" WAVE
    INDEX 01 00:00:00
  TRACK 17 AUDIO
    PERFORMER "Roxette"
    TITLE "Makin' Love To You"
    ISRC SEVEV9801191
    INDEX 00 04:23:66
FILE "17 - Makin' Love To You.wav" WAVE
    INDEX 01 00:00:00

Rox Archives Vol. 7 Room Service - 2001 | 00:54:57


Лейбл издания: Capitol Records
Страна-выпуска диска: EU
Номер по каталогу: 50999 687121 2 9
01.Real Sugar(3:17)
02.The Centre of the Heart(3:23)
03.Milk and Toast and Honey(4:04)
04.Jefferson(3:51)
05.Little Girl(3:37)
06.Looking for Jane(3:20)
07.Bringing Me Down to My Knees(3:49)
08.Make My Head Go Pop(3:23)
09.Try (Just a Little Bit Harder)(3:13)
10.Fool(3:53)
11.It Takes You No Time to Get Here(3:36)
12.My World, My Love, My Life(4:04)
13.Entering Your Heart (B-Side 'The Centre of the Heart' Single)(4:00)
14.The Weight of the World (From 'The Ballad Hits' Bonus EP)(2:52)
15.Bla Bla Bla Bla Bla (You Broke My Heart) (From 'The Pop Hits' Bonus EP)(4:37)

Лог создания рипа

Exact Audio Copy V1.0 beta 3 from 29. August 2011
EAC extraction logfile from 21. May 2015, 12:22
Roxette / Room Service (Rox Archives Vol. 7)
Used drive  : HL-DT-STDVD+-RW GT32N   Adapter: 0  ID: 1
Read mode               : Secure
Utilize accurate stream : Yes
Defeat audio cache      : Yes
Make use of C2 pointers : No
Read offset correction                      : 103
Overread into Lead-In and Lead-Out          : No
Fill up missing offset samples with silence : Yes
Delete leading and trailing silent blocks   : No
Null samples used in CRC calculations       : Yes
Used interface                              : Native Win32 interface for Win NT & 2000
Gap handling                                : Appended to previous track
Used output format              : User Defined Encoder
Selected bitrate                : 1024 kBit/s
Quality                         : High
Add ID3 tag                     : No
Command line compressor         : C:\Program Files (x86)\Exact Audio Copy\Flac\flac.exe
Additional command line options : -8 -V -T "ARTIST=%artist%" -T "TITLE=%title%" -T "ALBUM=%albumtitle%" -T "DATE=%year%" -T "TRACKNUMBER=%tracknr%" -T "GENRE=%genre%" -T "PERFORMER=%albuminterpret%" -T "COMPOSER=%composer%" %haslyrics%--tag-from-file=LYRICS="%lyricsfile%"%haslyrics% -T "ALBUMARTIST=%albumartist%" -T "DISCNUMBER=%cdnumber%" -T "TOTALDISCS=%totalcds%" -T "TOTALTRACKS=%numtracks%" -T "COMMENT=%comment%" %source% -o %dest%
TOC of the extracted CD
     Track |   Start  |  Length  | Start sector | End sector
    ---------------------------------------------------------
        1  |  0:00.00 |  3:17.05 |         0    |    14779
        2  |  3:17.05 |  3:22.65 |     14780    |    29994
        3  |  6:39.70 |  4:04.10 |     29995    |    48304
        4  | 10:44.05 |  3:51.00 |     48305    |    65629
        5  | 14:35.05 |  3:36.60 |     65630    |    81889
        6  | 18:11.65 |  3:19.47 |     81890    |    96861
        7  | 21:31.37 |  3:48.53 |     96862    |   114014
        8  | 25:20.15 |  3:22.57 |    114015    |   129221
        9  | 28:42.72 |  3:13.25 |    129222    |   143721
       10  | 31:56.22 |  3:52.63 |    143722    |   161184
       11  | 35:49.10 |  3:35.70 |    161185    |   177379
       12  | 39:25.05 |  4:04.01 |    177380    |   195680
       13  | 43:29.06 |  4:00.20 |    195681    |   213700
       14  | 47:29.26 |  2:51.40 |    213701    |   226565
       15  | 50:20.66 |  4:36.41 |    226566    |   247306
Track  1
     Filename C:\Rips\01 - Real Sugar.wav
     Pre-gap length  0:00:02.00
     Peak level 98.8 %
     Extraction speed 1.2 X
     Track quality 100.0 %
     Test CRC 655A79D9
     Copy CRC 655A79D9
     Accurately ripped (confidence 18)  [C7FA8FCA]  (AR v2)
     Copy OK
Track  2
     Filename C:\Rips\02 - The Centre of the Heart.wav
     Peak level 98.8 %
     Extraction speed 1.1 X
     Track quality 99.9 %
     Test CRC F04FFD07
     Copy CRC F04FFD07
     Accurately ripped (confidence 18)  [62CF3836]  (AR v2)
     Copy OK
Track  3
     Filename C:\Rips\03 - Milk and Toast and Honey.wav
     Peak level 98.8 %
     Extraction speed 1.4 X
     Track quality 100.0 %
     Test CRC 30C5D9E6
     Copy CRC 30C5D9E6
     Accurately ripped (confidence 19)  [14447B40]  (AR v2)
     Copy OK
Track  4
     Filename C:\Rips\04 - Jefferson.wav
     Peak level 98.8 %
     Extraction speed 1.5 X
     Track quality 100.0 %
     Test CRC D78849DD
     Copy CRC D78849DD
     Accurately ripped (confidence 18)  [5A986364]  (AR v2)
     Copy OK
Track  5
     Filename C:\Rips\05 - Little Girl.wav
     Peak level 98.8 %
     Extraction speed 1.4 X
     Track quality 99.9 %
     Test CRC 83BF1EC8
     Copy CRC 83BF1EC8
     Accurately ripped (confidence 18)  [922D0D93]  (AR v2)
     Copy OK
Track  6
     Filename C:\Rips\06 - Looking for Jane.wav
     Peak level 98.8 %
     Extraction speed 1.7 X
     Track quality 100.0 %
     Test CRC BC12B7B8
     Copy CRC BC12B7B8
     Accurately ripped (confidence 18)  [4082F0A8]  (AR v2)
     Copy OK
Track  7
     Filename C:\Rips\07 - Bringing Me Down to My Knees.wav
     Peak level 98.9 %
     Extraction speed 1.6 X
     Track quality 99.9 %
     Test CRC F0BDC459
     Copy CRC F0BDC459
     Accurately ripped (confidence 18)  [7C0FC508]  (AR v2)
     Copy OK
Track  8
     Filename C:\Rips\08 - Make My Head Go Pop.wav
     Peak level 98.8 %
     Extraction speed 1.9 X
     Track quality 100.0 %
     Test CRC B19047C1
     Copy CRC B19047C1
     Accurately ripped (confidence 18)  [1FC88E3D]  (AR v2)
     Copy OK
Track  9
     Filename C:\Rips\09 - Try (Just a Little Bit Harder).wav
     Peak level 98.8 %
     Extraction speed 1.9 X
     Track quality 100.0 %
     Test CRC E6706E62
     Copy CRC E6706E62
     Accurately ripped (confidence 18)  [2D6EC622]  (AR v2)
     Copy OK
Track 10
     Filename C:\Rips\10 - Fool.wav
     Peak level 98.8 %
     Extraction speed 2.1 X
     Track quality 100.0 %
     Test CRC F8FFD5D9
     Copy CRC F8FFD5D9
     Accurately ripped (confidence 18)  [761D6F5F]  (AR v2)
     Copy OK
Track 11
     Filename C:\Rips\11 - It Takes You No Time to Get Here.wav
     Peak level 98.8 %
     Extraction speed 2.1 X
     Track quality 100.0 %
     Test CRC CB82588C
     Copy CRC CB82588C
     Accurately ripped (confidence 18)  [44FFCFE7]  (AR v2)
     Copy OK
Track 12
     Filename C:\Rips\12 - My World, My Love, My Life.wav
     Peak level 98.8 %
     Extraction speed 2.0 X
     Track quality 99.9 %
     Test CRC 82823DF1
     Copy CRC 82823DF1
     Accurately ripped (confidence 18)  [E08461F2]  (AR v2)
     Copy OK
Track 13
     Filename C:\Rips\13 - Entering Your Heart (B-Side ''The Centre of the Heart'' Single).wav
     Pre-gap length  0:00:01.37
     Peak level 99.9 %
     Extraction speed 2.3 X
     Track quality 100.0 %
     Test CRC 4F5E1E20
     Copy CRC 4F5E1E20
     Accurately ripped (confidence 18)  [8B854094]  (AR v2)
     Copy OK
Track 14
     Filename C:\Rips\14 - The Weight of the World (From ''The Ballad Hits'' Bonus EP).wav
     Pre-gap length  0:00:01.01
     Peak level 99.9 %
     Extraction speed 2.2 X
     Track quality 100.0 %
     Test CRC CC1E0C55
     Copy CRC CC1E0C55
     Accurately ripped (confidence 18)  [23CC0F07]  (AR v2)
     Copy OK
Track 15
     Filename C:\Rips\15 - Bla Bla Bla Bla Bla (You Broke My Heart) (From ''The Pop Hits'' Bonus EP).wav
     Pre-gap length  0:00:01.24
     Peak level 99.9 %
     Extraction speed 2.2 X
     Track quality 99.9 %
     Test CRC 5E25E10A
     Copy CRC 5E25E10A
     Accurately ripped (confidence 18)  [48914CF7]  (AR v2)
     Copy OK
All tracks accurately ripped
No errors occurred
End of status report

Индексная карта (non-compilant .cue)

REM GENRE Pop
REM DATE 2001
REM DISCID C30CE10F
REM COMMENT "ExactAudioCopy v1.0b3"
CATALOG 5099968712129
PERFORMER "Roxette"
TITLE "Room Service (Rox Archives Vol. 7)"
FILE "01 - Real Sugar.wav" WAVE
  TRACK 01 AUDIO
    PERFORMER "Roxette"
    TITLE "Real Sugar"
    INDEX 01 00:00:00
FILE "02 - The Centre of the Heart.wav" WAVE
  TRACK 02 AUDIO
    PERFORMER "Roxette"
    TITLE "The Centre of the Heart"
    ISRC SEVEV0101020
    INDEX 01 00:00:00
FILE "03 - Milk and Toast and Honey.wav" WAVE
  TRACK 03 AUDIO
    PERFORMER "Roxette"
    TITLE "Milk and Toast and Honey"
    ISRC SEVEV0101030
    INDEX 01 00:00:00
FILE "04 - Jefferson.wav" WAVE
  TRACK 04 AUDIO
    PERFORMER "Roxette"
    TITLE "Jefferson"
    ISRC SEVEV0101040
    INDEX 01 00:00:00
FILE "05 - Little Girl.wav" WAVE
  TRACK 05 AUDIO
    PERFORMER "Roxette"
    TITLE "Little Girl"
    ISRC SEVEV0101050
    INDEX 01 00:00:00
FILE "06 - Looking for Jane.wav" WAVE
  TRACK 06 AUDIO
    PERFORMER "Roxette"
    TITLE "Looking for Jane"
    ISRC SEVEV0101060
    INDEX 01 00:00:00
FILE "07 - Bringing Me Down to My Knees.wav" WAVE
  TRACK 07 AUDIO
    PERFORMER "Roxette"
    TITLE "Bringing Me Down to My Knees"
    ISRC SEVEV0101070
    INDEX 01 00:00:00
FILE "08 - Make My Head Go Pop.wav" WAVE
  TRACK 08 AUDIO
    PERFORMER "Roxette"
    TITLE "Make My Head Go Pop"
    ISRC SEVEV0101080
    INDEX 01 00:00:00
FILE "09 - Try (Just a Little Bit Harder).wav" WAVE
  TRACK 09 AUDIO
    PERFORMER "Roxette"
    TITLE "Try (Just a Little Bit Harder)"
    ISRC SEVEV0101090
    INDEX 01 00:00:00
FILE "10 - Fool.wav" WAVE
  TRACK 10 AUDIO
    PERFORMER "Roxette"
    TITLE "Fool"
    ISRC SEVEV0101100
    INDEX 01 00:00:00
FILE "11 - It Takes You No Time to Get Here.wav" WAVE
  TRACK 11 AUDIO
    PERFORMER "Roxette"
    TITLE "It Takes You No Time to Get Here"
    ISRC SEVEV0101110
    INDEX 01 00:00:00
FILE "12 - My World, My Love, My Life.wav" WAVE
  TRACK 12 AUDIO
    PERFORMER "Roxette"
    TITLE "My World, My Love, My Life"
    ISRC SEVEV0101120
    INDEX 01 00:00:00
  TRACK 13 AUDIO
    PERFORMER "Roxette"
    TITLE "Entering Your Heart (B-Side ''The Centre of the Heart'' Single)"
    ISRC SEVEV0101021
    INDEX 00 04:02:48
FILE "13 - Entering Your Heart (B-Side ''The Centre of the Heart'' Single).wav" WAVE
    INDEX 01 00:00:00
  TRACK 14 AUDIO
    PERFORMER "Roxette"
    TITLE "The Weight of the World (From ''The Ballad Hits'' Bonus EP)"
    ISRC SEVEV0101141
    INDEX 00 03:59:19
FILE "14 - The Weight of the World (From ''The Ballad Hits'' Bonus EP).wav" WAVE
    INDEX 01 00:00:00
  TRACK 15 AUDIO
    PERFORMER "Roxette"
    TITLE "Bla Bla Bla Bla Bla (You Broke My Heart) (From ''The Pop Hits'' Bonus EP)"
    ISRC SEVEV0101181
    INDEX 00 02:50:22
FILE "15 - Bla Bla Bla Bla Bla (You Broke My Heart) (From ''The Pop Hits'' Bonus EP).wav" WAVE
    INDEX 01 00:00:00
--
[Профиль] [ЛС]
Показать сообщения:    

Текущее время: Сегодня 04:22

Часовой пояс: GMT



Вы не можете начинать темы
Вы не можете отвечать на сообщения
Вы не можете редактировать свои сообщения
Вы не можете удалять свои сообщения
Вы не можете голосовать в опросах
Вы не можете прикреплять файлы к сообщениям
Вы не можете скачивать файлы