(Rock Opera/Зонг-опера) Орфей и Эвридика (Александр Журбин) - 2003, FLAC (image+.cue+scan), lossless

 
Author Message

Garik014 ®

Gender:

Longevity: 4 years 7 months

Posts: 88

Location: Черкассы



: 1 ()

Mega Seeder 1 (1)
Торрент-статистика

Post 15-Aug-2015 12:58

[Quote]

Орфей и Эвридика- Жанр: Зонг-опера
Год выпуска диска: 2003
Производитель диска: Russia
Аудио кодек: FLAC
Тип рипа: image+.cue+scan
Битрейт аудио: lossless
Продолжительность: CD1 50:10 CD2 44:26
Сканы: прилагаются-Исполнители
Орфей - Альберт Асадуллин
Эвридика - Ирина Понаровская
Харон - Богдан Вивчаровский
Фортуна - Ольга Левицкая
Первый певец - Валерий Цакадзе
Второй певец - Василий Лазаренко
Третий певец- Александр Федоров-ВИА "Поющие гитары"
Художественный руководитель - Анатолий Васильев
-Оркестр Ленинградского Малого Оперного театра под управлением Станислава Горковенко-

Трэклист

CD1

1. Увертюра
2. Орфей полюбил Эвридику...
3. Первый дуэт Орфея и Эвридики и песня Орфея ("Когда поет Орфей")
4. Хор вестников ("Близится, близится...")
5. Сцена прощания
6. Ария Эвридики ("Песня о капле росы")
7. Напутствие Эвридики
8. Первый зонг ("Оглянись")
9. Интерлюдия
10. Певцы и фортуна
11. Состязание певцов
12. Выступление Орфея
13. Сцена прославления
14. Явление Фортуны ("Звал меня, звал меня, мой певец...")
15. Песня Харона ("Еще один юнец встречает в сны...")
16. Встречай, Эвридика
17. Первое возвращение Орфея
18. Второй зонг ("Прости нас, Эвридика...")

CD2

1. Интерлюдия ("Буря над озером") и песня Эвридики ("Орфей, я в лицо ее знаю...")
2. Дуэт Эвридики и Харона
3. Сцена опьянения
4. Ария Фортуны ("Все несчастливцы как один...")
5. Сцена Орфея и Харона и песня Харона
6. Ария Орфея ("Потерял я Эвридику...")
7. Напутствие Фортуны
8. Третий зонг ("Маятник")
9. В ожидании Орфея
10. Встречай, Эвридика
11. Сцена второго возвращения Орфея
12. Хор вестников ("Близится, близится...")
13. Исчезновение Эвридики
14. Финал
-Доп. информация: Орфе́й и Эвриди́ка — одна из первых советских рок-опер. Написана в 1975 году композитором Александром Журбиным и драматургом Юрием Димитриным, поставлена ансамблем "Поющие гитары" в оперной студии при Санкт-Петербургской Консерватории. Поскольку термин «рок» был запрещен к употреблению в Советском Союзе, то постановка была названа «зонг-опера», от английского слова «song».
В 2003 году опера вошла в книгу рекордов Гиннеса как мюзикл, максимальное количество раз сыгранный одним коллективом (на момент регистрации рекорда спектакль исполнялся 2350-й раз). (Википедия)-

EAC log CD1

Exact Audio Copy V0.99 prebeta 4 from 23. January 2008
Отчёт EAC об извлечении, выполненном 7. апреля 2009, 19:22
Various / Орфей и Эвридика. Зонг-опера
Дисковод: PIONEER DVD-RW DVR-112D Adapter: 0 ID: 0
Режим чтения : Достоверность
Использование точного потока : Да
Отключение кэша аудио : Да
Использование указателей C2 : Нет
Коррекция смещения при чтении : 48
Способность читать области Lead-in и Lead-out : Нет
Заполнение пропущенных сэмплов тишиной : Да
Удаление блоков с тишиной в начале и конце : Нет
При вычислениях CRC использовались нулевые сэмплы : Да
Интерфейс : Встроенный Win32-интерфейс для Win NT/2000
Выходной формат : Пользовательский кодировщик
Выбранный битрейт : 768 kBit/s
Качество : Высокий
Добавление ID3-тэга : Нет
Утилита сжатия : C:\Program Files\Exact Audio Copy\FLAC\FLAC.EXE
Дополнительные параметры : -6 -V -T "ARTIST=%a" -T "TITLE=%t" -T "ALBUM=%g" -T "DATE=%y" -T "TRACKNUMBER=%n" -T "GENRE=%m" -T "COMMENT=%e" %s -o %d
TOC извлечённого CD
Трек | Старт | Длительность | Начальный сектор | Конечный сектор
---------------------------------------------------------------------
1 | 0:00.00 | 1:37.32 | 0 | 7306
2 | 1:37.32 | 1:09.05 | 7307 | 12486
3 | 2:46.37 | 5:38.00 | 12487 | 37836
4 | 8:24.37 | 1:37.47 | 37837 | 45158
5 | 10:02.09 | 1:25.10 | 45159 | 51543
6 | 11:27.19 | 3:43.40 | 51544 | 68308
7 | 15:10.59 | 0:36.45 | 68309 | 71053
8 | 15:47.29 | 2:17.48 | 71054 | 81376
9 | 18:05.02 | 1:36.46 | 81377 | 88622
10 | 19:41.48 | 4:21.47 | 88623 | 108244
11 | 24:03.20 | 4:26.53 | 108245 | 128247
12 | 28:29.73 | 3:15.09 | 128248 | 142881
13 | 31:45.07 | 4:34.24 | 142882 | 163455
14 | 36:19.31 | 3:04.64 | 163456 | 177319
15 | 39:24.20 | 2:58.45 | 177320 | 190714
16 | 42:22.65 | 1:06.09 | 190715 | 195673
17 | 43:28.74 | 4:43.18 | 195674 | 216916
18 | 48:12.17 | 1:59.16 | 216917 | 225857
Характеристики диапазона извлечения и сообщения об ошибках
Выбранный диапазон
Имя файла G:\Upload My Music 12\Орфей и Эвридика\CD 1\Various - Орфей и Эвридика. Зонг-опера.wav
Пиковый уровень 96.7 %
Качество диапазона 99.9 %
CRC копии 452CE8EF
Копирование... OK
Ошибок не произошло
AccurateRip: сводка
Трек 1 нет в базе данных
Трек 2 нет в базе данных
Трек 3 нет в базе данных
Трек 4 нет в базе данных
Трек 5 нет в базе данных
Трек 6 нет в базе данных
Трек 7 нет в базе данных
Трек 8 нет в базе данных
Трек 9 нет в базе данных
Трек 10 нет в базе данных
Трек 11 нет в базе данных
Трек 12 нет в базе данных
Трек 13 нет в базе данных
Трек 14 нет в базе данных
Трек 15 нет в базе данных
Трек 16 нет в базе данных
Трек 17 нет в базе данных
Трек 18 нет в базе данных
Ни одного трека нет в базе AccurateRip
Конец отчёта

EAC log CD2

Exact Audio Copy V0.99 prebeta 4 from 23. January 2008
Отчёт EAC об извлечении, выполненном 7. апреля 2009, 19:42
Various / Орфей и Эвридика. Зонг-опера. 2
Дисковод: PIONEER DVD-RW DVR-112D Adapter: 0 ID: 0
Режим чтения : Достоверность
Использование точного потока : Да
Отключение кэша аудио : Да
Использование указателей C2 : Нет
Коррекция смещения при чтении : 48
Способность читать области Lead-in и Lead-out : Нет
Заполнение пропущенных сэмплов тишиной : Да
Удаление блоков с тишиной в начале и конце : Нет
При вычислениях CRC использовались нулевые сэмплы : Да
Интерфейс : Встроенный Win32-интерфейс для Win NT/2000
Выходной формат : Пользовательский кодировщик
Выбранный битрейт : 768 kBit/s
Качество : Высокий
Добавление ID3-тэга : Нет
Утилита сжатия : C:\Program Files\Exact Audio Copy\FLAC\FLAC.EXE
Дополнительные параметры : -6 -V -T "ARTIST=%a" -T "TITLE=%t" -T "ALBUM=%g" -T "DATE=%y" -T "TRACKNUMBER=%n" -T "GENRE=%m" -T "COMMENT=%e" %s -o %d
TOC извлечённого CD
Трек | Старт | Длительность | Начальный сектор | Конечный сектор
---------------------------------------------------------------------
1 | 0:00.00 | 6:00.10 | 0 | 27009
2 | 6:00.10 | 1:59.19 | 27010 | 35953
3 | 7:59.29 | 4:18.45 | 35954 | 55348
4 | 12:17.74 | 2:48.42 | 55349 | 67990
5 | 15:06.41 | 8:32.17 | 67991 | 106407
6 | 23:38.58 | 3:52.11 | 106408 | 123818
7 | 27:30.69 | 1:38.61 | 123819 | 131229
8 | 29:09.55 | 2:28.68 | 131230 | 142397
9 | 31:38.48 | 1:26.72 | 142398 | 148919
10 | 33:05.45 | 0:41.29 | 148920 | 152023
11 | 33:46.74 | 3:12.31 | 152024 | 166454
12 | 36:59.30 | 2:04.34 | 166455 | 175788
13 | 39:03.64 | 1:33.72 | 175789 | 182835
14 | 40:37.61 | 3:49.43 | 182836 | 200053
Характеристики диапазона извлечения и сообщения об ошибках
Выбранный диапазон
Имя файла G:\Upload My Music 12\Орфей и Эвридика\CD 2\Various - Орфей и Эвридика. Зонг-опера. 2.wav
Пиковый уровень 96.7 %
Качество диапазона 100.0 %
CRC копии D0009975
Копирование... OK
Ошибок не произошло
AccurateRip: сводка
Трек 1 нет в базе данных
Трек 2 нет в базе данных
Трек 3 нет в базе данных
Трек 4 нет в базе данных
Трек 5 нет в базе данных
Трек 6 нет в базе данных
Трек 7 нет в базе данных
Трек 8 нет в базе данных
Трек 9 нет в базе данных
Трек 10 нет в базе данных
Трек 11 нет в базе данных
Трек 12 нет в базе данных
Трек 13 нет в базе данных
Трек 14 нет в базе данных
Ни одного трека нет в базе AccurateRip
Конец отчёта
-
[Profile] [PM]
Кто просматривает тему:

Display posts from previous:    

The time now is: Today 04:31

All times are GMT



You cannot post new topics in this forum
You cannot reply to topics in this forum
You cannot edit your posts in this forum
You cannot delete your posts in this forum
You cannot vote in polls in this forum
You cannot attach files in this forum
You cannot download files in this forum