Robert Plant • Lollapalooza [2015, Rock, HDTVRip 1080p]

 
Автор Сообщение

sergej644 ®

Пол:

Стаж: 4 года 11 месяцев

Сообщений: 6042

Откуда: Soviet Union



Награды: Нет

Торрент-статистика

Создавать темы 21-Май-2015 14:47

[Цитировать]

Robert Plant

Interlagos, Sao Paulo, Brazil - 2015-03-28

Жанр: Rock
Продолжительность: 01:16:58
Год выпуска: 2015
Качество: HDTVRip 1080p
Контейнер: TS
Видео кодек: H.264
Аудио кодек: AC3
Видео: MPEG4 Video (H264) 1920x1080 29.97fps 8 000 Kbps
Аудио: Dolby AC3 48000Hz 6ch 448kbps

Треклист

01. Babe, I'm Gonna Leave You
02. Rainbow
03. Black Dog / Arbaden
04. Turn It Up
05. Going to California
06. Spoonful
07. The Lemon Song
08. Little Maggie
09. What Is and What Should Never Be
10. Fixin' to Die
11. Whole Lotta Love
Encore:
12. Rock and Roll

Отчёт MediaInfo / BDInfo

General
ID                             : 1 (0x1)
Complete name                  : L:\Robert Plant - Lollapalooza 2015.ts
Format                         : MPEG-TS
File size                      : 4.93 GiB
Duration                       : 1h 16mn
Overall bit rate mode          : Variable
Overall bit rate               : 9 170 Kbps
Video
ID                             : 256 (0x100)
Menu ID                        : 1 (0x1)
Format                         : AVC
Format/Info                    : Advanced Video Codec
Format profile                 : Baseline@L4.0
Format settings, CABAC         : No
Format settings, ReFrames      : 1 frame
Codec ID                       : 27
Duration                       : 1h 16mn
Bit rate                       : 8 000 Kbps
Width                          : 1 920 pixels
Height                         : 1 080 pixels
Display aspect ratio           : 16:9
Frame rate mode                : Variable
Color space                    : YUV
Chroma subsampling             : 4:2:0
Bit depth                      : 8 bits
Scan type                      : Progressive
Stream size                    : 4.44 GiB (90%)
Writing library                : x264 core 112
Encoding settings              : cabac=0 / ref=1 / deblock=1:0:0 / analyse=0x1:0x111 / me=hex / subme=7 / psy=1 / psy_rd=1.00:0.00 / mixed_ref=0 / me_range=16 / chroma_me=1 / trellis=1 / 8x8dct=0 / cqm=0 / deadzone=21,11 / fast_pskip=1 / chroma_qp_offset=-2 / threads=1 / sliced_threads=0 / nr=0 / decimate=1 / interlaced=0 / constrained_intra=0 / bframes=0 / weightp=0 / keyint=250 / keyint_min=25 / scenecut=40 / intra_refresh=0 / rc_lookahead=40 / rc=abr / mbtree=1 / bitrate=8000 / ratetol=1.0 / qcomp=0.60 / qpmin=10 / qpmax=51 / qpstep=4 / ip_ratio=1.41 / aq=1:1.00
Audio
ID                             : 257 (0x101)
Menu ID                        : 1 (0x1)
Format                         : AC-3
Format/Info                    : Audio Coding 3
Mode extension                 : CM (complete main)
Format settings, Endianness    : Big
Codec ID                       : 129
Duration                       : 1h 16mn
Bit rate mode                  : Constant
Bit rate                       : 448 Kbps
Channel(s)                     : 6 channels
Channel positions              : Front: L C R, Side: L R, LFE
Sampling rate                  : 48.0 KHz
Bit depth                      : 16 bits
Compression mode               : Lossy
Stream size                    : 247 MiB (5%)
Language                       : English
--
[Профиль] [ЛС]
Показать сообщения:    

Текущее время: Сегодня 10:34

Часовой пояс: GMT



Вы не можете начинать темы
Вы не можете отвечать на сообщения
Вы не можете редактировать свои сообщения
Вы не можете удалять свои сообщения
Вы не можете голосовать в опросах
Вы не можете прикреплять файлы к сообщениям
Вы не можете скачивать файлы