Rob Zombie • The Zombie Horror Picture Show [2014, Heavy metal, BDRip 1080p]

 
Автор Сообщение

reversefile ®

Пол:

Стаж: 4 года 5 месяцев

Сообщений: 842

Откуда: ReverseFile.org



Награды: Нет

Торрент-статистика

Создавать темы 11-Авг-2014 18:52

[Цитировать]


The Zombie Horror Picture Show

Жанр: Heavy metal
Продолжительность: 01:21:09
Год выпуска: 2014-Rob Zombie - vocals
John 5 - guitar, backing vocals
Piggy D. - bass guitar, backing vocals
Ginger Fish - drums, percussion-01. Teenage Nosferatu Pussy
02. Superbeast
03. Super-Charger Heaven (originally by WHITE ZOMBIE)
04. Living Dead Girl
05. We're An American Band (GRAND FUNK RAILROAD cover)
06. More Human Than Human (originally by WHITE ZOMBIE)
07. Sick Bubblegum
08. Never Gonna Stop
09. Ging Gang Gong De Do Gong De Laga Raga
10. Meet The Creeper
11. Mars Needs Women
12. House Of 1000 Corpses
13. The Lords Of Salem
14. Dead City Radio And The New Gods Of Supertown
15. Thunder Kiss '65 (originally by WHITE ZOMBIE)
16. Dragula
-Качество: BDRip 1080p
Контейнер: MKV
Видео кодек: H.264
Аудио кодек: DTS
Видео: MPEG4 Video (H264) 1920x1080 23.976fps 10.0 Mbps
Аудио: DTS 5.1 / 48 kHz / 1509 kbps / 24-bit

Отчёт MediaInfo / BDInfo

GeneralUnique ID : 250782346422691996908103770035374498219 (0xBCAAEC4CFFCFF462B08E4BEE8103A1AB)Complete name : G:\закачки\Rob Zombie - The Zombie Horror Picture Show 2014.mkvFormat : MatroskaFormat version : Version 4 / Version 2File size : 6.55 GiBDuration : 1h 21mnOverall bit rate : 11.6 MbpsEncoded date : UTC 2014-08-02 17:02:44Writing application : mkvmerge v7.1.0 ('Good Love') 64bit built on Jul 27 2014 13:06:55Writing library : libebml v1.3.0 + libmatroska v1.4.1DURATION : 01:21:08.992000000NUMBER_OF_FRAMES : 456468NUMBER_OF_BYTES : 918413616_STATISTICS_WRITING_APP : mkvmerge v7.1.0 ('Good Love') 64bit built on Jul 27 2014 13:06:55_STATISTICS_WRITING_DATE_UTC : 2014-08-02 17:02:44_STATISTICS_TAGS : BPS DURATION NUMBER_OF_FRAMES NUMBER_OF_BYTES
VideoID : 1Format : AVCFormat/Info : Advanced Video CodecFormat profile : High@L4.1Format settings, CABAC : YesFormat settings, ReFrames : 4 framesCodec ID : V_MPEG4/ISO/AVCDuration : 1h 21mnBit rate : 10.0 MbpsWidth : 1 920 pixelsHeight : 1 080 pixelsDisplay aspect ratio : 16:9Frame rate mode : ConstantFrame rate : 23.976 fpsColor space : YUVChroma subsampling : 4:2:0Bit depth : 8 bitsScan type : ProgressiveBits/(Pixel*Frame) : 0.202Stream size : 5.56 GiB (85%)Writing library : x264 core 142 r2453kMod ea0ca51Encoding settings : cabac=1 / ref=4 / deblock=1:-2:-2 / analyse=0x3:0x133 /me=umh / subme=9 / psy=1 / fade_compensate=0.00 / psy_rd=1.00:0.00 / mixed_ref=1 /me_range=16 / chroma_me=1 / trellis=1 / 8x8dct=1 / cqm=0 / deadzone=21,11 / fast_pskip=0 /chroma_qp_offset=-2 / threads=6 / lookahead_threads=1 / sliced_threads=0 / nr=0 /decimate=1 / interlaced=0 / bluray_compat=0 / constrained_intra=0 / fgo=0 / bframes=3 / b_pyramid=2 / b_adapt=1 / b_bias=0 / direct=1 / weightb=1 / open_gop=0 / weightp=2 /keyint=250 / keyint_min=23 / scenecut=40 / intra_refresh=0 / rc_lookahead=40 / rc=2pass /mbtree=1 / bitrate=10049 / ratetol=1.0 / qcomp=0.60 / qpmin=0 / qpmax=69 / qpstep=4 / cplxblur=20.0 / qblur=0.5 / ip_ratio=1.40 / aq=1:1.00Default : YesForced : No
AudioID : 2Format : DTSFormat/Info : Digital Theater SystemsMode : 16Format settings, Endianness : BigCodec ID : A_DTSDuration : 1h 21mnBit rate mode : ConstantBit rate : 1 509 KbpsChannel(s) : 6 channelsChannel positions : Front: L C R, Side: L R, LFESampling rate : 48.0 KHzBit depth : 24 bitsCompression mode : LossyStream size : 876 MiB (13%)Language : EnglishDefault : YesForced : No
Menu00:00:00.000 : en:00:00:00.00000:01:08.068 : en:00:01:08.06800:05:50.517 : en:00:05:50.51700:09:30.570 : en:00:09:30.57000:13:55.084 : en:00:13:55.08400:18:53.090 : en:00:18:53.09000:22:19.296 : en:00:22:19.29600:27:42.077 : en:00:27:42.07700:31:26.593 : en:00:31:26.59300:35:15.947 : en:00:35:15.94700:39:40.962 : en:00:39:40.96200:43:03.706 : en:00:43:03.70600:44:36.340 : en:00:44:36.34000:48:07.885 : en:00:48:07.88500:52:43.160 : en:00:52:43.16000:57:08.925 : en:00:57:08.92501:01:51.291 : en:01:01:51.29101:12:06.697 : en:01:12:06.69701:17:25.516 : en:01:17:25.516
[Профиль] [ЛС]
Кто просматривает тему:

Показать сообщения:    

Текущее время: Сегодня 14:09

Часовой пояс: GMT



Вы не можете начинать темы
Вы не можете отвечать на сообщения
Вы не можете редактировать свои сообщения
Вы не можете удалять свои сообщения
Вы не можете голосовать в опросах
Вы не можете прикреплять файлы к сообщениям
Вы не можете скачивать файлы