Rival Sons • Open My Eyes [2014, Hard Rock, Blues Rock, HDTV 1080i]

 
Автор Сообщение

reversefile ®

Пол:

Стаж: 4 года 5 месяцев

Сообщений: 842

Откуда: ReverseFile.org



Награды: Нет

Торрент-статистика

Создавать темы 11-Авг-2014 18:53

[Цитировать]


Open My Eyes



Жанр: Hard Rock, Blues Rock
Продолжительность: 00:03:50
Год выпуска: 2014
Качество: HDTV 1080i
Контейнер: TS
Видео кодек: H.264
Аудио кодек: AC3
Видео: MPEG4 Video (H264) 1280x1080 (16:9) 25fps 4702Kbps
Аудио: Dolby AC3 48000Hz stereo 384kbps

Отчёт MediaInfo / BDInfo

GeneralID : 1055 (0x41F)Complete name : L:\Rival Sons - Open My Eyes 2014.tsFormat : MPEG-TSFile size : 147 MiBDuration : 3mn 49sOverall bit rate mode : VariableOverall bit rate : 5 354 Kbps
VideoID : 1023 (0x3FF)Menu ID : 5503 (0x157F)Format : AVCFormat/Info : Advanced Video CodecFormat profile : High@L4.0Format settings, CABAC : YesFormat settings, ReFrames : 4 framesCodec ID : 27Duration : 3mn 49sBit rate : 4 702 KbpsWidth : 1 280 pixelsHeight : 1 080 pixelsDisplay aspect ratio : 16:9Frame rate : 25.000 fpsStandard : ComponentColor space : YUVChroma subsampling : 4:2:0Bit depth : 8 bitsScan type : InterlacedBits/(Pixel*Frame) : 0.136Stream size : 128 MiB (87%)Color primaries : BT.709Transfer characteristics : BT.709Matrix coefficients : BT.709
AudioID : 1027 (0x403)Menu ID : 5503 (0x157F)Format : AC-3Format/Info : Audio Coding 3Mode extension : CM (complete main)Format settings, Endianness : BigCodec ID : 6Duration : 3mn 49sBit rate mode : ConstantBit rate : 384 KbpsChannel(s) : 2 channelsChannel positions : Front: L RSampling rate : 48.0 KHzBit depth : 16 bitsCompression mode : LossyDelay relative to video : -770msStream size : 10.5 MiB (7%)Language : GermanLanguage, more info : Clean effects
Мои раздачи ®">

Скриншоты (анаморф.) Мои раздачи ®


http://torrentfilm.net/forum/tracker.php?rid=9539252
[Профиль] [ЛС]
Кто просматривает тему:

Показать сообщения:    

Текущее время: Сегодня 18:56

Часовой пояс: GMT



Вы не можете начинать темы
Вы не можете отвечать на сообщения
Вы не можете редактировать свои сообщения
Вы не можете удалять свои сообщения
Вы не можете голосовать в опросах
Вы не можете прикреплять файлы к сообщениям
Вы не можете скачивать файлы