(Blues Rock)Ritchie Dave Porter - Rocking the Blues (2014) FLAC, (image+cue), Lossless

 
Автор Сообщение

sergej644 ®

Пол:

Стаж: 4 года 11 месяцев

Сообщений: 6043

Откуда: Soviet Union



Награды: Нет

Торрент-статистика

Создавать темы 25-Окт-2014 10:11

[Цитировать]

-Ritchie Dave Porter - Rocking the Blues (2014)-Год: 2014
Жанр: Blues Rock
Продолжительность: 00:50:00
Кодек: FLAC
Битрейт: Lossless
Тип рипа: image+.cue
Треклист:
01. Return to the Saddle [04:40]
02. Aint Giving up on Love [04:38]
03. 3Am [04:18]
04. Waiting for the Train [03:30]
05. Morphine Blues [03:26]
06. Im Back [04:00]
07. Into the Darkness [03:31]
08. One Night [03:14]
09. Lord Have Mercy [02:04]
10. Rabbit in the Hole [04:20]
11. Autumn [02:15]
12. The Stygian Witch [03:41]
13. Spanish Rose [02:21]
14. Rock Chick [03:56]

Индексная карта .cue:

REM GENRE Blues-Rock
REM DATE 2014
REM DISCID C60BB80E
REM COMMENT "ExactAudioCopy v1.0b3"
PERFORMER "Ritchie Dave Porter"
TITLE "Rocking the Blues"
FILE "Ritchie Dave Porter - Rocking the Blues.flac" WAVE
  TRACK 01 AUDIO
    TITLE "Return to the Saddle"
    PERFORMER "Ritchie Dave Porter"
    INDEX 01 00:00:00
  TRACK 02 AUDIO
    TITLE "Aint Giving up on Love"
    PERFORMER "Ritchie Dave Porter"
    INDEX 01 04:40:20
  TRACK 03 AUDIO
    TITLE "3Am"
    PERFORMER "Ritchie Dave Porter"
    INDEX 01 09:18:28
  TRACK 04 AUDIO
    TITLE "Waiting for the Train"
    PERFORMER "Ritchie Dave Porter"
    INDEX 01 13:36:74
  TRACK 05 AUDIO
    TITLE "Morphine Blues"
    PERFORMER "Ritchie Dave Porter"
    INDEX 01 17:07:36
  TRACK 06 AUDIO
    TITLE "Im Back"
    PERFORMER "Ritchie Dave Porter"
    INDEX 01 20:34:26
  TRACK 07 AUDIO
    TITLE "Into the Darkness"
    PERFORMER "Ritchie Dave Porter"
    INDEX 01 24:34:54
  TRACK 08 AUDIO
    TITLE "One Night"
    PERFORMER "Ritchie Dave Porter"
    INDEX 01 28:06:17
  TRACK 09 AUDIO
    TITLE "Lord Have Mercy"
    PERFORMER "Ritchie Dave Porter"
    INDEX 01 31:20:61
  TRACK 10 AUDIO
    TITLE "Rabbit in the Hole"
    PERFORMER "Ritchie Dave Porter"
    INDEX 01 33:25:37
  TRACK 11 AUDIO
    TITLE "Autumn"
    PERFORMER "Ritchie Dave Porter"
    INDEX 01 37:46:10
  TRACK 12 AUDIO
    TITLE "The Stygian Witch"
    PERFORMER "Ritchie Dave Porter"
    INDEX 01 40:01:38
  TRACK 13 AUDIO
    TITLE "Spanish Rose"
    PERFORMER "Ritchie Dave Porter"
    INDEX 01 43:43:29
  TRACK 14 AUDIO
    TITLE "Rock Chick"
    PERFORMER "Ritchie Dave Porter"
    INDEX 01 46:04:43

Отчёт ЕАС:

Exact Audio Copy V1.0 beta 3 from 29. August 2011
Отчёт EAC об извлечении, выполненном 4. октября 2014, 10:19
Ritchie Dave Porter / Rocking the Blues
Дисковод: PLEXTOR DVDR   PX-880SA   Adapter: 1  ID: 0
Режим чтения                 : Достоверность
Использование точного потока : Да
Отключение кэша аудио        : Да
Использование указателей C2  : Нет
Коррекция смещения при чтении                     : 6
Способность читать области Lead-in и Lead-out     : Нет
Заполнение пропущенных сэмплов тишиной            : Да
Удаление блоков с тишиной в начале и конце        : Нет
При вычислениях CRC использовались нулевые сэмплы : Да
Интерфейс                                         : Установленный внешний ASPI-интерфейс
Выходной формат          : Пользовательский кодировщик
Выбранный битрейт        : 1024 kBit/s
Качество                 : Высокий
Добавление ID3-тега      : Нет
Утилита сжатия           : C:\Program Files\Exact Audio Copy\FLAC\FLAC.EXE
Дополнительные параметры : -10 -V -T "ARTIST=%artist%" -T "ALBUM=%albumtitle%" -T "DATE=%year%" -T "GENRE=%genre%" -T "COMMENT=ripped by izia1956" %source%
TOC извлечённого CD
     Трек |   Старт  | Длительность | Начальный сектор | Конечный сектор
    ---------------------------------------------------------------------
       1  |  0:00.00 |    4:40.20   |           0      |      21019
       2  |  4:40.20 |    4:38.08   |       21020      |      41877
       3  |  9:18.28 |    4:18.46   |       41878      |      61273
       4  | 13:36.74 |    3:30.37   |       61274      |      77060
       5  | 17:07.36 |    3:26.65   |       77061      |      92575
       6  | 20:34.26 |    4:00.28   |       92576      |     110603
       7  | 24:34.54 |    3:31.38   |      110604      |     126466
       8  | 28:06.17 |    3:14.44   |      126467      |     141060
       9  | 31:20.61 |    2:04.51   |      141061      |     150411
      10  | 33:25.37 |    4:20.48   |      150412      |     169959
      11  | 37:46.10 |    2:15.28   |      169960      |     180112
      12  | 40:01.38 |    3:41.66   |      180113      |     196753
      13  | 43:43.29 |    2:21.14   |      196754      |     207342
      14  | 46:04.43 |    3:56.19   |      207343      |     225061
Характеристики диапазона извлечения и сообщения об ошибках
Выбранный диапазон
     Имя файла D:\BitComet\Ritchie Dave Porter -  Rocking The Blues (2014)\Ritchie Dave Porter - Rocking the Blues.wav
     Пиковый уровень 97.6 %
     Скорость извлечения 9.0 X
     Качество диапазона 100.0 %
     CRC теста 41FF2549
     CRC копии 41FF2549
     Копирование... OK
Ошибок не произошло
AccurateRip: сводка
Трек  1  отсутствует в базе данных
Трек  2  отсутствует в базе данных
Трек  3  отсутствует в базе данных
Трек  4  отсутствует в базе данных
Трек  5  отсутствует в базе данных
Трек  6  отсутствует в базе данных
Трек  7  отсутствует в базе данных
Трек  8  отсутствует в базе данных
Трек  9  отсутствует в базе данных
Трек 10  отсутствует в базе данных
Трек 11  отсутствует в базе данных
Трек 12  отсутствует в базе данных
Трек 13  отсутствует в базе данных
Трек 14  отсутствует в базе данных
Ни одного трека нет в базе AccurateRip
Конец отчёта
==== Контрольная сумма отчёта 730EB15C09A471E363FE7829F70E252B2378094867C46243A1E4EC2D95C7A176 ====

Отчёт auCDtect Task manager:

-----------------------
DON'T MODIFY THIS FILE
-----------------------
PERFORMER: auCDtect Task Manager, ver. 1.6.0 RC1 build 1.6.0.1
Copyright (c) 2008-2010 y-soft. All rights reserved
http://y-soft.org
ANALYZER: auCDtect: CD records authenticity detector, version 0.8.2
Copyright (c) 2004 Oleg Berngardt. All rights reserved.
Copyright (c) 2004 Alexander Djourik. All rights reserved.
FILE: Ritchie Dave Porter - Rocking the Blues.flac
  Size: 366753627 Hash: 8588F6D3BFD073A608E0402C048D0937 Accuracy: -m0
  Conclusion: CDDA 100%
  Signature: E95498587FEFAB582ECF69EF34CEB25FFC5C8D56

Спектрограмма:

Время раздачи: С 09:00 до 23:30 до появления 5 скачавших
[Профиль] [ЛС]
Показать сообщения:    

Текущее время: Сегодня 08:13

Часовой пояс: GMT



Вы не можете начинать темы
Вы не можете отвечать на сообщения
Вы не можете редактировать свои сообщения
Вы не можете удалять свои сообщения
Вы не можете голосовать в опросах
Вы не можете прикреплять файлы к сообщениям
Вы не можете скачивать файлы