(Hard Rock, Classic Rock)Ritchie Blackmore's Rainbow - Black Masquerade (2CD) 2013 [FLAC(image+cue), Lossless]

 
Автор Сообщение

sergej644 ®

Пол:

Стаж: 4 года 11 месяцев

Сообщений: 6043

Откуда: Soviet Union



Награды: Нет

Торрент-статистика

Создавать темы 13-Окт-2014 16:09

[Цитировать]

-Ritchie Blackmore's Rainbow - Black Masquerade (2013)- Год: 2013
Страна-производитель диска: USA
Издатель (лейбл): Eagle Records
Номер по каталогу: ER203262
Жанр: Hard Rock, Classic Rock
Продолжительность: 01:41:01-Кодек: FLAC (*.flac)
Битрейт: Lossless
Тип рипа: image+.cue
Спасибо: izia1956-Концерт, состоявшийся в Дюссельдорфе в 1995 году. Он следует за выходом Блэкмора из Deep Purple и реформированием Rainbow новым составом. Группа в очень горячей форме представляя треки из заявленного альбома "Stranger in Us All" рядом с классическими песнями Rainbow и Deep Purple. Это никогда ранее не публиковавшееся шоу является обязательным дополнением в коллекцию фанатов Rainbow.-

CD 1

Продолжитeльность: 00:51:21
Треклист:
01. Introduction (2:19)
02. Spotlight Kid (4:53)
03. Too Late For Tears (5:10)
04. Long Live Rock 'N' Roll/Black Night (8:24)
05. Hunting Humans (6:49)
06. Wolf To The Moon / Difficult To Cure (6:24)
07. Keyboard Solo (5:56)
08. Still I'm Sad (6:11)
09. Man On The Silver Mountain (5:12)

Отчёт ЕАС:

Exact Audio Copy V1.0 beta 3 from 29. August 2011
Отчёт EAC об извлечении, выполненном 27. августа 2013, 20:14
Ritchie Blackmore's Rainbow / Black Masquerade (CD 1)
Дисковод: PLEXTOR DVDR   PX-880SA   Adapter: 1  ID: 0
Режим чтения                 : Достоверность
Использование точного потока : Да
Отключение кэша аудио        : Да
Использование указателей C2  : Нет
Коррекция смещения при чтении                     : 6
Способность читать области Lead-in и Lead-out     : Нет
Заполнение пропущенных сэмплов тишиной            : Да
Удаление блоков с тишиной в начале и конце        : Нет
При вычислениях CRC использовались нулевые сэмплы : Да
Интерфейс                                         : Установленный внешний ASPI-интерфейс
Выходной формат          : Пользовательский кодировщик
Выбранный битрейт        : 1024 kBit/s
Качество                 : Высокий
Добавление ID3-тега      : Нет
Утилита сжатия           : C:\Program Files\Exact Audio Copy\FLAC\FLAC.EXE
Дополнительные параметры : -10 -V -T "ARTIST=%artist%" -T "TITLE=%title%" -T "ALBUM=%albumtitle%" -T "DATE=%year%" -T "TRACKNUMBER=%tracknr%" -T "GENRE=%genre%" -T "COMMENT=%comment%" -T "BAND=%albuminterpret%" -T "ALBUMARTIST=%albuminterpret%" -T "COMPOSER=%composer%" %haslyrics%--tag-from-file=LYRICS="%lyricsfile%"%haslyrics% -T "DISCNUMBER=%cdnumber%" -T "TOTALDISCS=%totalcds%" -T "TOTALTRACKS=%numtracks%" %hascover%--picture="%coverfile%"%hascover% %source% -o %dest%
TOC извлечённого CD
     Трек |   Старт  | Длительность | Начальный сектор | Конечный сектор
    ---------------------------------------------------------------------
       1  |  0:00.00 |    2:19.45   |           0      |      10469
       2  |  2:19.45 |    4:53.58   |       10470      |      32502
       3  |  7:13.28 |    5:10.06   |       32503      |      55758
       4  | 12:23.34 |    8:24.04   |       55759      |      93562
       5  | 20:47.38 |    6:49.31   |       93563      |     124268
       6  | 27:36.69 |    6:24.09   |      124269      |     153077
       7  | 34:01.03 |    5:56.10   |      153078      |     179787
       8  | 39:57.13 |    6:11.56   |      179788      |     207668
       9  | 46:08.69 |    5:12.22   |      207669      |     231090
Характеристики диапазона извлечения и сообщения об ошибках
Выбранный диапазон
     Имя файла D:\BitComet\Ritchie Blackmore's Rainbow -  Black Masquerade(2013)(flac)\CD 1\Ritchie Blackmore's Rainbow - Black Masquerade (CD 1).wav
     Пиковый уровень 99.8 %
     Скорость извлечения 8.1 X
     Качество диапазона 100.0 %
     CRC теста 8529AEF5
     CRC копии 8529AEF5
     Копирование... OK
Ошибок не произошло
AccurateRip: сводка
Трек  1  отсутствует в базе данных
Трек  2  отсутствует в базе данных
Трек  3  отсутствует в базе данных
Трек  4  отсутствует в базе данных
Трек  5  отсутствует в базе данных
Трек  6  отсутствует в базе данных
Трек  7  отсутствует в базе данных
Трек  8  отсутствует в базе данных
Трек  9  отсутствует в базе данных
Ни одного трека нет в базе AccurateRip
Конец отчёта
==== Контрольная сумма отчёта 91EC7A40667D54409D0B8625B277D6B7852C76458159D26B36B27A8CBF34C60A ====

Отчёт auCDtect Task manager:

-----------------------
DON'T MODIFY THIS FILE
-----------------------
PERFORMER: auCDtect Task Manager, ver. 1.6.0 RC1 build 1.6.0.1
Copyright (c) 2008-2010 y-soft. All rights reserved
http://y-soft.org
ANALYZER: auCDtect: CD records authenticity detector, version 0.8.2
Copyright (c) 2004 Oleg Berngardt. All rights reserved.
Copyright (c) 2004 Alexander Djourik. All rights reserved.
FILE: Ritchie Blackmore's Rainbow - Black Masquerade (CD 1).flac
  Size: 434400487 Hash: 0339C37ECA5005AFA65BCBC5255AD088 Accuracy: -m0
  Conclusion: CDDA 100%
  Signature: 96BCE4A471EA5EA544AA9B6B306CE89E9608DA4A

Содержание индексной карты .CUE:

REM GENRE "Hard Rock"
REM DATE 2013
REM DISCID 780C0909
REM COMMENT "ExactAudioCopy v1.0b3"
PERFORMER "Ritchie Blackmore's Rainbow"
TITLE "Black Masquerade (CD 1)"
FILE "Ritchie Blackmore's Rainbow - Black Masquerade (CD 1).flac" WAVE
  TRACK 01 AUDIO
    TITLE "Introduction"
    PERFORMER "Ritchie Blackmore's Rainbow"
    INDEX 01 00:00:00
  TRACK 02 AUDIO
    TITLE "Spotlight kid"
    PERFORMER "Ritchie Blackmore's Rainbow"
    INDEX 01 02:19:45
  TRACK 03 AUDIO
    TITLE "Too Late For Tears"
    PERFORMER "Ritchie Blackmore's Rainbow"
    INDEX 01 07:13:28
  TRACK 04 AUDIO
    TITLE "Long Live Rock 'n' Roll / Black Night"
    PERFORMER "Ritchie Blackmore's Rainbow"
    INDEX 01 12:23:34
  TRACK 05 AUDIO
    TITLE "Hunting Humans"
    PERFORMER "Ritchie Blackmore's Rainbow"
    INDEX 01 20:47:38
  TRACK 06 AUDIO
    TITLE "Wolf To The Moon / Difficult To Cure"
    PERFORMER "Ritchie Blackmore's Rainbow"
    INDEX 01 27:36:69
  TRACK 07 AUDIO
    TITLE "Keyboard Solo"
    PERFORMER "Ritchie Blackmore's Rainbow"
    INDEX 01 34:01:03
  TRACK 08 AUDIO
    TITLE "Still I'm Sad"
    PERFORMER "Ritchie Blackmore's Rainbow"
    INDEX 01 39:57:13
  TRACK 09 AUDIO
    TITLE "Man On The Silver Mountain"
    PERFORMER "Ritchie Blackmore's Rainbow"
    INDEX 01 46:08:69

CD 2

Продолжитeльность: 00:49:40-Трeклист:
01. Temple Of The King (6:04)
02. Black Masquerade (6:05)
03. Ariel (8:23)
04. Since You've Been Gone (1:11)
05. Perfect Strangers (6:38)
06. Sixteenth Century Greensleeves (1:56)
07. Hall Of The Mountain King (6:29)
08. Burn (4:40)
09. Smoke On The Water (8:11)

Отчёт ЕАС:

Exact Audio Copy V1.0 beta 3 from 29. August 2011
Отчёт EAC об извлечении, выполненном 27. августа 2013, 20:32
Ritchie Blackmore's Rainbow / Black Masquerade (CD 2)
Дисковод: PLEXTOR DVDR   PX-880SA   Adapter: 1  ID: 0
Режим чтения                 : Достоверность
Использование точного потока : Да
Отключение кэша аудио        : Да
Использование указателей C2  : Нет
Коррекция смещения при чтении                     : 6
Способность читать области Lead-in и Lead-out     : Нет
Заполнение пропущенных сэмплов тишиной            : Да
Удаление блоков с тишиной в начале и конце        : Нет
При вычислениях CRC использовались нулевые сэмплы : Да
Интерфейс                                         : Установленный внешний ASPI-интерфейс
Выходной формат          : Пользовательский кодировщик
Выбранный битрейт        : 1024 kBit/s
Качество                 : Высокий
Добавление ID3-тега      : Нет
Утилита сжатия           : C:\Program Files\Exact Audio Copy\FLAC\FLAC.EXE
Дополнительные параметры : -10 -V -T "ARTIST=%artist%" -T "TITLE=%title%" -T "ALBUM=%albumtitle%" -T "DATE=%year%" -T "TRACKNUMBER=%tracknr%" -T "GENRE=%genre%" -T "COMMENT=%comment%" -T "BAND=%albuminterpret%" -T "ALBUMARTIST=%albuminterpret%" -T "COMPOSER=%composer%" %haslyrics%--tag-from-file=LYRICS="%lyricsfile%"%haslyrics% -T "DISCNUMBER=%cdnumber%" -T "TOTALDISCS=%totalcds%" -T "TOTALTRACKS=%numtracks%" %hascover%--picture="%coverfile%"%hascover% %source% -o %dest%
TOC извлечённого CD
     Трек |   Старт  | Длительность | Начальный сектор | Конечный сектор
    ---------------------------------------------------------------------
       1  |  0:00.00 |    6:04.43   |           0      |      27342
       2  |  6:04.43 |    6:05.11   |       27343      |      54728
       3  | 12:09.54 |    8:23.24   |       54729      |      92477
       4  | 20:33.03 |    1:11.58   |       92478      |      97860
       5  | 21:44.61 |    6:38.26   |       97861      |     127736
       6  | 28:23.12 |    1:56.38   |      127737      |     136474
       7  | 30:19.50 |    6:29.14   |      136475      |     165663
       8  | 36:48.64 |    4:40.31   |      165664      |     186694
       9  | 41:29.20 |    8:11.13   |      186695      |     223532
Характеристики диапазона извлечения и сообщения об ошибках
Выбранный диапазон
     Имя файла D:\BitComet\Ritchie Blackmore's Rainbow -  Black Masquerade(2013)(flac)\CD 2\Ritchie Blackmore's Rainbow - Black Masquerade (CD 2).wav
     Пиковый уровень 99.8 %
     Скорость извлечения 8.1 X
     Качество диапазона 100.0 %
     CRC теста 8595D4F9
     CRC копии 8595D4F9
     Копирование... OK
Ошибок не произошло
AccurateRip: сводка
Трек  1  отсутствует в базе данных
Трек  2  отсутствует в базе данных
Трек  3  отсутствует в базе данных
Трек  4  отсутствует в базе данных
Трек  5  отсутствует в базе данных
Трек  6  отсутствует в базе данных
Трек  7  отсутствует в базе данных
Трек  8  отсутствует в базе данных
Трек  9  отсутствует в базе данных
Ни одного трека нет в базе AccurateRip
Конец отчёта
==== Контрольная сумма отчёта B47EC2D6B01409260EB2DB775513BD48D490457934A9AA25E1A20317F18E3AFB ====

Отчёт auCDtect Task manager:

-----------------------
DON'T MODIFY THIS FILE
-----------------------
PERFORMER: auCDtect Task Manager, ver. 1.6.0 RC1 build 1.6.0.1
Copyright (c) 2008-2010 y-soft. All rights reserved
http://y-soft.org
ANALYZER: auCDtect: CD records authenticity detector, version 0.8.2
Copyright (c) 2004 Oleg Berngardt. All rights reserved.
Copyright (c) 2004 Alexander Djourik. All rights reserved.
FILE: Ritchie Blackmore's Rainbow - Black Masquerade (CD 2).flac
  Size: 416744053 Hash: D6E8C00B362F51544C4373B3D1DBA01B Accuracy: -m0
  Conclusion: CDDA 100%
  Signature: F046E3BBF986E6D4C5B197D99B569CB248A460FA

Содержание индексной карты .CUE:

REM GENRE "Hard Rock"
REM DATE 2013
REM DISCID 5F0BA409
REM COMMENT "ExactAudioCopy v1.0b3"
PERFORMER "Ritchie Blackmore's Rainbow"
TITLE "Black Masquerade (CD 2)"
FILE "Ritchie Blackmore's Rainbow - Black Masquerade (CD 2).flac" WAVE
  TRACK 01 AUDIO
    TITLE "Temple Of The King"
    PERFORMER "Ritchie Blackmore's Rainbow"
    INDEX 01 00:00:00
  TRACK 02 AUDIO
    TITLE "Black Masquerade"
    PERFORMER "Ritchie Blackmore's Rainbow"
    INDEX 01 06:04:43
  TRACK 03 AUDIO
    TITLE "Ariel"
    PERFORMER "Ritchie Blackmore's Rainbow"
    INDEX 01 12:09:54
  TRACK 04 AUDIO
    TITLE "Since You've Been Gone"
    PERFORMER "Ritchie Blackmore's Rainbow"
    INDEX 01 20:33:03
  TRACK 05 AUDIO
    TITLE "Perfect Strangers"
    PERFORMER "Ritchie Blackmore's Rainbow"
    INDEX 01 21:44:61
  TRACK 06 AUDIO
    TITLE "Greensleeves"
    PERFORMER "Ritchie Blackmore's Rainbow"
    INDEX 01 28:23:12
  TRACK 07 AUDIO
    TITLE "Hall Of The Mountain King"
    PERFORMER "Ritchie Blackmore's Rainbow"
    INDEX 01 30:19:50
  TRACK 08 AUDIO
    TITLE "Burn"
    PERFORMER "Ritchie Blackmore's Rainbow"
    INDEX 01 36:48:64
  TRACK 09 AUDIO
    TITLE "Smoke On The Water"
    PERFORMER "Ritchie Blackmore's Rainbow"
    INDEX 01 41:29:20
[Профиль] [ЛС]
Показать сообщения:    

Текущее время: Сегодня 08:11

Часовой пояс: GMT



Вы не можете начинать темы
Вы не можете отвечать на сообщения
Вы не можете редактировать свои сообщения
Вы не можете удалять свои сообщения
Вы не можете голосовать в опросах
Вы не можете прикреплять файлы к сообщениям
Вы не можете скачивать файлы