(Classic Rock) Ringo Starr - Ringo 2012 - 2012, (image+.cue), lossless

 
Автор Сообщение

sergej644 ®

Пол:

Стаж: 4 года 11 месяцев

Сообщений: 6040

Откуда: Soviet Union



Награды: Нет

Торрент-статистика

Создавать темы 18-Мар-2015 20:27

[Цитировать]

--Ringo Starr / Ringo 2012
Жанр: Classic Rock
Страна-производитель диска: РФ
Год издания диска: 2012
Издатель (лейбл): ООО "Юниверсал Мьюзик"
Номер по каталогу: 4605026710214 (RST53554)
Страна: UK
Аудиокодек: APE (*.ape)
Тип рипа: image+.cue
Битрейт аудио: lossless
Продолжительность: 28:54
Наличие сканов в содержимом раздачи: да

Треклист

1. Anthem 5:01
2. Wings 3:31
3. Think It Over 1:47
4. Samba 2:47
5. Rock Island Line 2:59
6. Step Lightly 2:45
7. Wonderful 3:46
8. In Liverpool 3:18
9. Slow Down 2:56

Состав музыкантов

Ringo Starr, Michael Bradford, Ann Marie Calhoun, Matt Cartsonis, Steve Dudas, Charlie Haden,
Amy Keys, Kelly Moneymaker, Richard Page, Van Dyke parks, Kenny Wayne Shepherd,
Dave Stewart, Bruce Sugar, Benmont Tench, Joe Walsh , Don Was, Edgar Winter.

Лог создания рипа

Exact Audio Copy V1.0 beta 3 from 29. August 2011
Отчёт EAC об извлечении, выполненном 7. февраля 2012, 16:36
- / Ringo 2012
Дисковод: PLEXTOR DVDR   PX-760A   Adapter: 0  ID: 0
Режим чтения                 : Достоверность
Использование точного потока : Да
Отключение кэша аудио        : Да
Использование указателей C2  : Нет
Коррекция смещения при чтении                     : 30
Способность читать области Lead-in и Lead-out     : Да
Заполнение пропущенных сэмплов тишиной            : Да
Удаление блоков с тишиной в начале и конце        : Нет
При вычислениях CRC использовались нулевые сэмплы : Да
Интерфейс                                         : Встроенный Win32-интерфейс для Win NT/2000
Выходной формат : Внутренние WAV-операции
Формат сэмплов  : 44.100 Гц; 16 бит; стерео
TOC извлечённого CD
     Трек |   Старт  | Длительность | Начальный сектор | Конечный сектор
    ---------------------------------------------------------------------
       1  |  0:00.00 |    5:01.08   |           0      |      22582
       2  |  5:01.08 |    3:31.24   |       22583      |      38431
       3  |  8:32.32 |    1:47.62   |       38432      |      46518
       4  | 10:20.19 |    2:47.46   |       46519      |      59089
       5  | 13:07.65 |    2:59.52   |       59090      |      72566
       6  | 16:07.42 |    2:45.13   |       72567      |      84954
       7  | 18:52.55 |    3:46.44   |       84955      |     101948
       8  | 22:39.24 |    3:18.56   |      101949      |     116854
       9  | 25:58.05 |    2:56.63   |      116855      |     130117
Характеристики диапазона извлечения и сообщения об ошибках
Выбранный диапазон
     Имя файла F:\TORRENT\Ringo Starr - Ringo 2012 - APE\Ringo 2012.wav
     Пиковый уровень 98.8 %
     Скорость извлечения 4.7 X
     Качество диапазона 100.0 %
     CRC теста E65A0170
     CRC копии E65A0170
     Копирование... OK
Ошибок не произошло
AccurateRip: сводка
Трек  1  отсутствует в базе данных
Трек  2  отсутствует в базе данных
Трек  3  отсутствует в базе данных
Трек  4  отсутствует в базе данных
Трек  5  отсутствует в базе данных
Трек  6  отсутствует в базе данных
Трек  7  отсутствует в базе данных
Трек  8  отсутствует в базе данных
Трек  9  отсутствует в базе данных
Ни одного трека нет в базе AccurateRip
Конец отчёта

Содержание индексной карты (.CUE)

REM GENRE "Classic Rock"
REM DATE 2012
REM DISCID 6C06C609
REM COMMENT "ExactAudioCopy v1.0b3"
CATALOG 0602527918020
PERFORMER "Ringo Starr"
TITLE "Ringo 2012"
FILE "Ringo 2012.ape" WAVE
  TRACK 01 AUDIO
    TITLE "Anthem"
    PERFORMER "Ringo Starr"
    ISRC USUG11101005
    INDEX 01 00:00:00
  TRACK 02 AUDIO
    TITLE "Wings"
    PERFORMER "Ringo Starr"
    ISRC USUG11101551
    INDEX 00 05:00:42
    INDEX 01 05:01:08
  TRACK 03 AUDIO
    TITLE "Think It Over"
    PERFORMER "Ringo Starr"
    ISRC USUG11101553
    INDEX 00 08:31:71
    INDEX 01 08:32:32
  TRACK 04 AUDIO
    TITLE "Samba"
    PERFORMER "Ringo Starr"
    ISRC USUG11101554
    INDEX 00 10:19:67
    INDEX 01 10:20:19
  TRACK 05 AUDIO
    TITLE "Rock Island Line"
    PERFORMER "Ringo Starr"
    ISRC USUG11101555
    INDEX 00 13:07:36
    INDEX 01 13:07:65
  TRACK 06 AUDIO
    TITLE "Step Lightly"
    PERFORMER "Ringo Starr"
    ISRC USUG11101556
    INDEX 00 16:06:74
    INDEX 01 16:07:42
  TRACK 07 AUDIO
    TITLE "Wonderful"
    PERFORMER "Ringo Starr"
    ISRC USUG11101557
    INDEX 00 18:51:53
    INDEX 01 18:52:55
  TRACK 08 AUDIO
    TITLE "In Liverpool"
    PERFORMER "Ringo Starr"
    ISRC USUG11101558
    INDEX 00 22:38:54
    INDEX 01 22:39:24
  TRACK 09 AUDIO
    TITLE "Slow Down"
    PERFORMER "Ringo Starr"
    ISRC USUG11101559
    INDEX 00 25:57:35
    INDEX 01 25:58:05

Лог проверки качества

AUDIOCHECKER v2.0 beta (build 457) - by Dester - opdester@freemail.hu
~~~~~~~~~~~~~~~~~~~~~~~~~~~~~~~~~~
Started at: вторник, 07. 02. 2012. - 17:23.49
1 file found
1 -===- F:\TORRENT\Ringo Starr - Ringo 2012 - APE\Ringo 2012.ape
  Extracted successfully
  Conclusion: this track is CDDA with probability 100%
  Tempfile successfully deleted.
Finished at: вторник, 07. 02. 2012. - 17:25.52 (operation time: 0:02.03)

Скриншот спектра частот

--
[Профиль] [ЛС]
Показать сообщения:    

Текущее время: Сегодня 18:41

Часовой пояс: GMT



Вы не можете начинать темы
Вы не можете отвечать на сообщения
Вы не можете редактировать свои сообщения
Вы не можете удалять свои сообщения
Вы не можете голосовать в опросах
Вы не можете прикреплять файлы к сообщениям
Вы не можете скачивать файлы