(Pop) Richard Marx - World Ballads Collection - 1999 [FLAC, image +.cue, lossless]

 
Author Message

sergej644 ®

Gender:

Longevity: 7 years 7 months

Posts: 7276

Location: Klaipeda



: 9 ()

Top Seeder 5 (1) Mega Seeder 5 (1) Mega Seeder 4 (1)
Торрент-статистика

Post 29-Jan-2019 16:21

[Quote]

-Richard Marx - World Ballads Collection--
Год издания: 1999
Страна: USA
Жанр: Pop
Продолжительность: 01:13:15-Лейбл издания: Breez Records
Страна-выпуска диска: EU
Номер по каталогу: 01-CDB-477790-56-Формат: FLAC
Битрейт аудио: Lossless
Тип рипа: image +.cue
Наличие сканов в содержимом раздачи: да
-

Трэклист


01. Hazard (5:17)
02. Breathless (5:49)
03. Endless Summer Nights (4:32)
04. Right here waiting (4:23)
05. Fools Game (6:26)
06. Children of the night (4:41)
07. Hold on to the night (5:11)
08. Touch of heaven (4:52)
09. Keep coming back (6:01)
10. Angel's Lullaby (4:00)
11. Angelia (5:18)
12. Until i found you again (4:26)
13. Surrender to me (5:26)
14. To shy to say (3:21)
15. Now and forever (3:33)
-

Лог создания рипа

Exact Audio Copy V1.0 beta 3 from 29. August 2011
Отчёт EAC об извлечении, выполненном 3. июля 2017, 20:07
Richard Marx / World Ballads Collection
Дисковод: Optiarc DVD RW AD-7280S   Adapter: 1  ID: 0
Режим чтения                 : Достоверность
Использование точного потока : Да
Отключение кэша аудио        : Да
Использование указателей C2  : Нет
Коррекция смещения при чтении                     : 48
Способность читать области Lead-in и Lead-out     : Нет
Заполнение пропущенных сэмплов тишиной            : Да
Удаление блоков с тишиной в начале и конце        : Нет
При вычислениях CRC использовались нулевые сэмплы : Да
Интерфейс                                         : Встроенный Win32-интерфейс для Win NT/2000
Выходной формат          : Пользовательский кодировщик
Выбранный битрейт        : 768 kBit/s
Качество                 : Высокий
Добавление ID3-тега      : Нет
Утилита сжатия           : C:\Program Files (x86)\Exact Audio Copy\FLAC\FLAC.EXE
Дополнительные параметры : -6 -V -T "ARTIST=%artist%" -T "TITLE=%title%" -T "ALBUM=%albumtitle%" -T "DATE=%year%" -T "TRACKNUMBER=%tracknr%" -T "GENRE=%genre%" -T "COMMENT=%comment%" -T "BAND=%albuminterpret%" -T "ALBUMARTIST=%albuminterpret%" -T "COMPOSER=%composer%" %haslyrics%--tag-from-file=LYRICS="%lyricsfile%"%haslyrics% -T "DISCNUMBER=%cdnumber%" -T "TOTALDISCS=%totalcds%" -T "TOTALTRACKS=%numtracks%" %hascover%--picture="%coverfile%"%hascover% %source% -o %dest%
TOC извлечённого CD
     Трек |   Старт  | Длительность | Начальный сектор | Конечный сектор
    ---------------------------------------------------------------------
       1  |  0:00.00 |    5:16.54   |           0      |      23753
       2  |  5:16.54 |    5:49.35   |       23754      |      49963
       3  | 11:06.14 |    4:32.00   |       49964      |      70363
       4  | 15:38.14 |    4:22.55   |       70364      |      90068
       5  | 20:00.69 |    6:26.00   |       90069      |     119018
       6  | 26:26.69 |    4:41.12   |      119019      |     140105
       7  | 31:08.06 |    5:11.09   |      140106      |     163439
       8  | 36:19.15 |    4:52.24   |      163440      |     185363
       9  | 41:11.39 |    6:01.16   |      185364      |     212454
      10  | 47:12.55 |    3:59.52   |      212455      |     230431
      11  | 51:12.32 |    5:17.63   |      230432      |     254269
      12  | 56:30.20 |    4:25.69   |      254270      |     274213
      13  | 60:56.14 |    5:25.58   |      274214      |     298646
      14  | 66:21.72 |    3:20.45   |      298647      |     313691
      15  | 69:42.42 |    3:32.65   |      313692      |     329656
Характеристики диапазона извлечения и сообщения об ошибках
Выбранный диапазон
     Имя файла C:\Users\User\Desktop\Richard Marx-World Ballads Collection (1999)\Richard Marx - World Ballads Collection.wav
     Пиковый уровень 100.0 %
     Скорость извлечения 3.5 X
     Качество диапазона 100.0 %
     CRC теста 869C3846
     CRC копии 869C3846
     Копирование... OK
Ошибок не произошло
AccurateRip: сводка
Трек  1  отсутствует в базе данных
Трек  2  отсутствует в базе данных
Трек  3  отсутствует в базе данных
Трек  4  отсутствует в базе данных
Трек  5  отсутствует в базе данных
Трек  6  отсутствует в базе данных
Трек  7  отсутствует в базе данных
Трек  8  отсутствует в базе данных
Трек  9  отсутствует в базе данных
Трек 10  отсутствует в базе данных
Трек 11  отсутствует в базе данных
Трек 12  отсутствует в базе данных
Трек 13  отсутствует в базе данных
Трек 14  отсутствует в базе данных
Трек 15  отсутствует в базе данных
Ни одного трека нет в базе AccurateRip
Конец отчёта

Индексная карта (non-compilant .cue)

REM GENRE Ballad
REM DATE 1999
REM DISCID E4112B0F
REM COMMENT "ExactAudioCopy v1.0b3"
PERFORMER "Richard Marx"
TITLE "World Ballads Collection"
FILE "Richard Marx - World Ballads Collection.flac" WAVE
  TRACK 01 AUDIO
    TITLE "Hazard"
    PERFORMER "Richard Marx"
    INDEX 01 00:00:00
  TRACK 02 AUDIO
    TITLE "Breathless"
    PERFORMER "Richard Marx"
    INDEX 01 05:16:54
  TRACK 03 AUDIO
    TITLE "Endless Summer Nights"
    PERFORMER "Richard Marx"
    INDEX 00 11:05:45
    INDEX 01 11:06:14
  TRACK 04 AUDIO
    TITLE "Right here waiting"
    PERFORMER "Richard Marx"
    INDEX 01 15:38:14
  TRACK 05 AUDIO
    TITLE "Fools Game"
    PERFORMER "Richard Marx"
    INDEX 01 20:00:69
  TRACK 06 AUDIO
    TITLE "Children of the night"
    PERFORMER "Richard Marx"
    INDEX 01 26:26:69
  TRACK 07 AUDIO
    TITLE "Hold on to the night"
    PERFORMER "Richard Marx"
    INDEX 01 31:08:06
  TRACK 08 AUDIO
    TITLE "Touch of heaven"
    PERFORMER "Richard Marx"
    INDEX 01 36:19:15
  TRACK 09 AUDIO
    TITLE "Keep coming back"
    PERFORMER "Richard Marx"
    INDEX 01 41:11:39
  TRACK 10 AUDIO
    TITLE "Angel's Lullaby"
    PERFORMER "Richard Marx"
    INDEX 00 47:11:10
    INDEX 01 47:12:55
  TRACK 11 AUDIO
    TITLE "Angelia"
    PERFORMER "Richard Marx"
    INDEX 00 51:10:62
    INDEX 01 51:12:32
  TRACK 12 AUDIO
    TITLE "Until i found you again"
    PERFORMER "Richard Marx"
    INDEX 01 56:30:20
  TRACK 13 AUDIO
    TITLE "Surrender to me"
    PERFORMER "Richard Marx"
    INDEX 00 60:55:50
    INDEX 01 60:56:14
  TRACK 14 AUDIO
    TITLE "To shy to say"
    PERFORMER "Richard Marx"
    INDEX 00 66:20:05
    INDEX 01 66:21:72
  TRACK 15 AUDIO
    TITLE "Now and forever"
    PERFORMER "Richard Marx"
    INDEX 01 69:42:42
-

для ознакомления:

https://www.youtube.com/watch?v=gdmHHoI9beM
--
[Profile] [PM]
Кто просматривает тему:

Display posts from previous:    

The time now is: Today 18:47

All times are GMT



You cannot post new topics in this forum
You cannot reply to topics in this forum
You cannot edit your posts in this forum
You cannot delete your posts in this forum
You cannot vote in polls in this forum
You cannot attach files in this forum
You cannot download files in this forum