(Pop-Rock) Richard Marx - Inside My Head (2CD) - 2012, FLAC (tracks+.cue), lossless

 
Автор Сообщение

sergej644 ®

Пол:

Стаж: 4 года 11 месяцев

Сообщений: 6046

Откуда: Soviet Union



Награды: Нет

Торрент-статистика

Создавать темы 24-Июл-2014 10:34

[Цитировать]

-Richard Marx - Inside My Head (2CD)
-Страна: USA
Жанр: Pop-Rock
Год: 2012
Страна-производитель диска: Italy
Издатель: Frontiers Records
Номер по каталогу: FR CD 558
Кодек: FLAC
Тип рипа: tracks+.cue
Битрейт: lossless
Продолжительность: 01:44:22
- -

CD1 - Inside My Head

01. Had Enough (03:47)
02. Wouldn't Let Me Love You (03:58)
03. Like Heaven (03:18)
04. On The Inside (03:14)
05. Through My Veins (04:42)
06. Always on Your Mind (04:58)
07. Loved (03:38)
08. Come Running (04:18)
09. All Over Me (03:22)
10. Scars (03:06)
11. Done to Me (03:47)
12. Over My Head (03:55)
13. Part Of Me (04:14)
Running Time: 50:23

лог создания рипа

Exact Audio Copy V1.0 beta 1 from 15. November 2010
EAC extraction logfile from 12. July 2012, 14:24
Richard Marx / Inside My Head (CD1)
Used drive  : ASUS    DRW-1814BLT   Adapter: 4  ID: 0
Read mode               : Secure
Utilize accurate stream : Yes
Defeat audio cache      : Yes
Make use of C2 pointers : No
Read offset correction                      : 6
Overread into Lead-In and Lead-Out          : No
Fill up missing offset samples with silence : Yes
Delete leading and trailing silent blocks   : No
Null samples used in CRC calculations       : Yes
Used interface                              : Native Win32 interface for Win NT & 2000
Gap handling                                : Appended to previous track
Used output format              : User Defined Encoder
Selected bitrate                : 768 kBit/s
Quality                         : High
Add ID3 tag                     : No
Command line compressor         : C:\Program Files (x86)\Exact Audio Copy\Flac\flac.exe
Additional command line options : -8 -V -T "ARTIST=%a" -T "TITLE=%t" -T "ALBUM=%g" -T "DATE=%y" -T "TRACKNUMBER=%n" -T "TOTALTRACKS=%x" -T "GENRE=%m" -T "ALBUMARTIST=%v" -T "ALBUM ARTIST=%v" -T "COMMENT=EAC Secure Mode, Test & Copy, AccurateRip, FLAC -8" %s
TOC of the extracted CD
     Track |   Start  |  Length  | Start sector | End sector
    ---------------------------------------------------------
        1  |  0:00.00 |  3:47.48 |         0    |    17072
        2  |  3:47.48 |  3:58.02 |     17073    |    34924
        3  |  7:45.50 |  3:18.01 |     34925    |    49775
        4  | 11:03.51 |  3:14.53 |     49776    |    64378
        5  | 14:18.29 |  4:42.50 |     64379    |    85578
        6  | 19:01.04 |  4:58.36 |     85579    |   107964
        7  | 23:59.40 |  3:38.32 |    107965    |   124346
        8  | 27:37.72 |  4:18.26 |    124347    |   143722
        9  | 31:56.23 |  3:22.57 |    143723    |   158929
       10  | 35:19.05 |  3:06.62 |    158930    |   172941
       11  | 38:25.67 |  3:47.31 |    172942    |   189997
       12  | 42:13.23 |  3:55.61 |    189998    |   207683
       13  | 46:09.09 |  4:14.15 |    207684    |   226748
Track  1
     Filename E:\Datas\Music\Rips\Richard Marx - Inside My Head (2012) [FLAC] {With Bonus Hits CD}\01 - Had Enough.wav
     Pre-gap length  0:00:02.00
     Peak level 99.4 %
     Extraction speed 5.0 X
     Track quality 100.0 %
     Test CRC 468640F0
     Copy CRC 468640F0
     Track not present in AccurateRip database
     Copy OK
Track  2
     Filename E:\Datas\Music\Rips\Richard Marx - Inside My Head (2012) [FLAC] {With Bonus Hits CD}\02 - Wouldn't Let Me Love You.wav
     Pre-gap length  0:00:01.60
     Peak level 99.4 %
     Extraction speed 5.5 X
     Track quality 100.0 %
     Test CRC F2C05D68
     Copy CRC F2C05D68
     Track not present in AccurateRip database
     Copy OK
Track  3
     Filename E:\Datas\Music\Rips\Richard Marx - Inside My Head (2012) [FLAC] {With Bonus Hits CD}\03 - Like Heaven.wav
     Pre-gap length  0:00:01.60
     Peak level 99.4 %
     Extraction speed 5.8 X
     Track quality 100.0 %
     Test CRC 1DE2272D
     Copy CRC 1DE2272D
     Track not present in AccurateRip database
     Copy OK
Track  4
     Filename E:\Datas\Music\Rips\Richard Marx - Inside My Head (2012) [FLAC] {With Bonus Hits CD}\04 - On The Inside.wav
     Pre-gap length  0:00:01.60
     Peak level 99.4 %
     Extraction speed 6.2 X
     Track quality 100.0 %
     Test CRC E0EB5B96
     Copy CRC E0EB5B96
     Track not present in AccurateRip database
     Copy OK
Track  5
     Filename E:\Datas\Music\Rips\Richard Marx - Inside My Head (2012) [FLAC] {With Bonus Hits CD}\05 - Through My Veins.wav
     Pre-gap length  0:00:01.60
     Peak level 99.4 %
     Extraction speed 7.0 X
     Track quality 100.0 %
     Test CRC 871D1A41
     Copy CRC 871D1A41
     Track not present in AccurateRip database
     Copy OK
Track  6
     Filename E:\Datas\Music\Rips\Richard Marx - Inside My Head (2012) [FLAC] {With Bonus Hits CD}\06 - Always on Your Mind.wav
     Pre-gap length  0:00:01.60
     Peak level 99.4 %
     Extraction speed 7.5 X
     Track quality 100.0 %
     Test CRC 407ACDC4
     Copy CRC 407ACDC4
     Track not present in AccurateRip database
     Copy OK
Track  7
     Filename E:\Datas\Music\Rips\Richard Marx - Inside My Head (2012) [FLAC] {With Bonus Hits CD}\07 - Loved.wav
     Pre-gap length  0:00:01.60
     Peak level 99.4 %
     Extraction speed 7.5 X
     Track quality 100.0 %
     Test CRC 7F286B3F
     Copy CRC 7F286B3F
     Track not present in AccurateRip database
     Copy OK
Track  8
     Filename E:\Datas\Music\Rips\Richard Marx - Inside My Head (2012) [FLAC] {With Bonus Hits CD}\08 - Come Running.wav
     Pre-gap length  0:00:01.60
     Peak level 99.4 %
     Extraction speed 6.0 X
     Track quality 99.9 %
     Test CRC FC6D74D8
     Copy CRC FC6D74D8
     Track not present in AccurateRip database
     Copy OK
Track  9
     Filename E:\Datas\Music\Rips\Richard Marx - Inside My Head (2012) [FLAC] {With Bonus Hits CD}\09 - All Over Me.wav
     Pre-gap length  0:00:01.60
     Peak level 99.4 %
     Extraction speed 8.0 X
     Track quality 100.0 %
     Test CRC BA4184E4
     Copy CRC BA4184E4
     Track not present in AccurateRip database
     Copy OK
Track 10
     Filename E:\Datas\Music\Rips\Richard Marx - Inside My Head (2012) [FLAC] {With Bonus Hits CD}\10 - Scars.wav
     Pre-gap length  0:00:01.60
     Peak level 99.1 %
     Extraction speed 8.2 X
     Track quality 100.0 %
     Test CRC E8A889B4
     Copy CRC E8A889B4
     Track not present in AccurateRip database
     Copy OK
Track 11
     Filename E:\Datas\Music\Rips\Richard Marx - Inside My Head (2012) [FLAC] {With Bonus Hits CD}\11 - Done to Me.wav
     Pre-gap length  0:00:01.60
     Peak level 99.4 %
     Extraction speed 8.7 X
     Track quality 100.0 %
     Test CRC 22B031CA
     Copy CRC 22B031CA
     Track not present in AccurateRip database
     Copy OK
Track 12
     Filename E:\Datas\Music\Rips\Richard Marx - Inside My Head (2012) [FLAC] {With Bonus Hits CD}\12 - Over My Head.wav
     Pre-gap length  0:00:01.60
     Peak level 99.4 %
     Extraction speed 9.1 X
     Track quality 100.0 %
     Test CRC 1C1CBA0A
     Copy CRC 1C1CBA0A
     Track not present in AccurateRip database
     Copy OK
Track 13
     Filename E:\Datas\Music\Rips\Richard Marx - Inside My Head (2012) [FLAC] {With Bonus Hits CD}\13 - Part Of Me.wav
     Pre-gap length  0:00:01.60
     Peak level 99.4 %
     Extraction speed 9.4 X
     Track quality 100.0 %
     Test CRC 55AB3736
     Copy CRC 55AB3736
     Track not present in AccurateRip database
     Copy OK
None of the tracks are present in the AccurateRip database
No errors occurred
End of status report

содержание индексной карты *cue

REM GENRE Pop
REM DATE 2012
REM DISCID AC0BCF0D
REM COMMENT "ExactAudioCopy v1.0b1"
PERFORMER "Richard Marx"
TITLE "Inside My Head (CD1)"
FILE "01 - Had Enough.wav" WAVE
  TRACK 01 AUDIO
    TITLE "Had Enough"
    PERFORMER "Richard Marx"
    INDEX 01 00:00:00
  TRACK 02 AUDIO
    TITLE "Wouldn't Let Me Love You"
    PERFORMER "Richard Marx"
    INDEX 00 03:45:63
FILE "02 - Wouldn't Let Me Love You.wav" WAVE
    INDEX 01 00:00:00
  TRACK 03 AUDIO
    TITLE "Like Heaven"
    PERFORMER "Richard Marx"
    INDEX 00 03:56:17
FILE "03 - Like Heaven.wav" WAVE
    INDEX 01 00:00:00
  TRACK 04 AUDIO
    TITLE "On The Inside"
    PERFORMER "Richard Marx"
    INDEX 00 03:16:16
FILE "04 - On The Inside.wav" WAVE
    INDEX 01 00:00:00
  TRACK 05 AUDIO
    TITLE "Through My Veins"
    PERFORMER "Richard Marx"
    INDEX 00 03:12:68
FILE "05 - Through My Veins.wav" WAVE
    INDEX 01 00:00:00
  TRACK 06 AUDIO
    TITLE "Always on Your Mind"
    PERFORMER "Richard Marx"
    INDEX 00 04:40:65
FILE "06 - Always on Your Mind.wav" WAVE
    INDEX 01 00:00:00
  TRACK 07 AUDIO
    TITLE "Loved"
    PERFORMER "Richard Marx"
    INDEX 00 04:56:51
FILE "07 - Loved.wav" WAVE
    INDEX 01 00:00:00
  TRACK 08 AUDIO
    TITLE "Come Running"
    PERFORMER "Richard Marx"
    INDEX 00 03:36:47
FILE "08 - Come Running.wav" WAVE
    INDEX 01 00:00:00
  TRACK 09 AUDIO
    TITLE "All Over Me"
    PERFORMER "Richard Marx"
    INDEX 00 04:16:41
FILE "09 - All Over Me.wav" WAVE
    INDEX 01 00:00:00
  TRACK 10 AUDIO
    TITLE "Scars"
    PERFORMER "Richard Marx"
    INDEX 00 03:20:72
FILE "10 - Scars.wav" WAVE
    INDEX 01 00:00:00
  TRACK 11 AUDIO
    TITLE "Done to Me"
    PERFORMER "Richard Marx"
    INDEX 00 03:05:02
FILE "11 - Done to Me.wav" WAVE
    INDEX 01 00:00:00
  TRACK 12 AUDIO
    TITLE "Over My Head"
    PERFORMER "Richard Marx"
    INDEX 00 03:45:46
FILE "12 - Over My Head.wav" WAVE
    INDEX 01 00:00:00
  TRACK 13 AUDIO
    TITLE "Part Of Me"
    PERFORMER "Richard Marx"
    INDEX 00 03:54:01
FILE "13 - Part Of Me.wav" WAVE
    INDEX 01 00:00:00

CD2 - Hits

01. Don't Mean Nothing (04:42)
02. Should've Known Better (04:27)
03. Endless Summer Nights (04:27)
04. Keep Coming Back (05:25)
05. Take This Heart (04:03)
06. Hold On To The Nights (05:14)
07. Angelia (04:54)
08. Hazard (04:59)
09. Too Late To Say Goodbye (04:46)
10. Satisfied (03:21)
11. Right Here Waiting (04:26)
12. When You Loved Me (03:22)
Running Time: 54:12

лог создания рипа

Exact Audio Copy V1.0 beta 1 from 15. November 2010
EAC extraction logfile from 12. July 2012, 14:57
Richard Marx / Inside My Head - Hits (CD2)
Used drive  : ASUS    DRW-1814BLT   Adapter: 4  ID: 0
Read mode               : Secure
Utilize accurate stream : Yes
Defeat audio cache      : Yes
Make use of C2 pointers : No
Read offset correction                      : 6
Overread into Lead-In and Lead-Out          : No
Fill up missing offset samples with silence : Yes
Delete leading and trailing silent blocks   : No
Null samples used in CRC calculations       : Yes
Used interface                              : Native Win32 interface for Win NT & 2000
Gap handling                                : Appended to previous track
Used output format              : User Defined Encoder
Selected bitrate                : 768 kBit/s
Quality                         : High
Add ID3 tag                     : No
Command line compressor         : C:\Program Files (x86)\Exact Audio Copy\Flac\flac.exe
Additional command line options : -8 -V -T "ARTIST=%a" -T "TITLE=%t" -T "ALBUM=%g" -T "DATE=%y" -T "TRACKNUMBER=%n" -T "TOTALTRACKS=%x" -T "GENRE=%m" -T "ALBUMARTIST=%v" -T "ALBUM ARTIST=%v" -T "COMMENT=EAC Secure Mode, Test & Copy, AccurateRip, FLAC -8" %s
TOC of the extracted CD
     Track |   Start  |  Length  | Start sector | End sector
    ---------------------------------------------------------
        1  |  0:00.00 |  4:42.48 |         0    |    21197
        2  |  4:42.48 |  4:27.47 |     21198    |    41269
        3  |  9:10.20 |  4:27.40 |     41270    |    61334
        4  | 13:37.60 |  5:25.13 |     61335    |    85722
        5  | 19:02.73 |  4:03.51 |     85723    |   103998
        6  | 23:06.49 |  5:13.74 |    103999    |   127547
        7  | 28:20.48 |  4:54.10 |    127548    |   149607
        8  | 33:14.58 |  4:59.28 |    149608    |   172060
        9  | 38:14.11 |  4:46.49 |    172061    |   193559
       10  | 43:00.60 |  3:21.06 |    193560    |   208640
       11  | 46:21.66 |  4:26.54 |    208641    |   228644
       12  | 50:48.45 |  3:22.37 |    228645    |   243831
Track  1
     Filename E:\Datas\Music\Rips\Richard Marx - Inside My Head (2012) [FLAC] {With Bonus Hits CD}\CD2of2\01 - Don't Mean Nothing.wav
     Pre-gap length  0:00:02.00
     Peak level 99.4 %
     Extraction speed 5.2 X
     Track quality 100.0 %
     Test CRC 30F397DF
     Copy CRC 30F397DF
     Cannot be verified as accurate (confidence 2)  [5C3CDE45], AccurateRip returned [1E722083]
     Copy OK
Track  2
     Filename E:\Datas\Music\Rips\Richard Marx - Inside My Head (2012) [FLAC] {With Bonus Hits CD}\CD2of2\02 - Should've Known Better.wav
     Peak level 99.4 %
     Extraction speed 4.2 X
     Track quality 99.9 %
     Test CRC FCD9965E
     Copy CRC FCD9965E
     Cannot be verified as accurate (confidence 2)  [1AA0C6C0], AccurateRip returned [9173978B]
     Copy OK
Track  3
     Filename E:\Datas\Music\Rips\Richard Marx - Inside My Head (2012) [FLAC] {With Bonus Hits CD}\CD2of2\03 - Endless Summer Nights.wav
     Peak level 99.4 %
     Extraction speed 5.4 X
     Track quality 100.0 %
     Test CRC 3785588F
     Copy CRC 3785588F
     Cannot be verified as accurate (confidence 2)  [7B15FCF4], AccurateRip returned [2826FB53]
     Copy OK
Track  4
     Filename E:\Datas\Music\Rips\Richard Marx - Inside My Head (2012) [FLAC] {With Bonus Hits CD}\CD2of2\04 - Keep Coming Back.wav
     Peak level 99.4 %
     Extraction speed 6.0 X
     Track quality 100.0 %
     Test CRC F4E9B61C
     Copy CRC F4E9B61C
     Track not present in AccurateRip database
     Copy OK
Track  5
     Filename E:\Datas\Music\Rips\Richard Marx - Inside My Head (2012) [FLAC] {With Bonus Hits CD}\CD2of2\05 - Take This Heart.wav
     Peak level 99.4 %
     Extraction speed 7.3 X
     Track quality 100.0 %
     Test CRC 79367238
     Copy CRC 79367238
     Cannot be verified as accurate (confidence 1)  [02CDB55F], AccurateRip returned [A6164157]
     Copy OK
Track  6
     Filename E:\Datas\Music\Rips\Richard Marx - Inside My Head (2012) [FLAC] {With Bonus Hits CD}\CD2of2\06 - Hold On To The Nights.wav
     Peak level 99.4 %
     Extraction speed 8.0 X
     Track quality 100.0 %
     Test CRC 666B5D22
     Copy CRC 666B5D22
     Cannot be verified as accurate (confidence 1)  [AE85B310], AccurateRip returned [686D97D0]
     Copy OK
Track  7
     Filename E:\Datas\Music\Rips\Richard Marx - Inside My Head (2012) [FLAC] {With Bonus Hits CD}\CD2of2\07 - Angelia.wav
     Peak level 99.4 %
     Extraction speed 8.3 X
     Track quality 100.0 %
     Test CRC FCD0115E
     Copy CRC FCD0115E
     Cannot be verified as accurate (confidence 1)  [8A7E9F56], AccurateRip returned [A363B116]
     Copy OK
Track  8
     Filename E:\Datas\Music\Rips\Richard Marx - Inside My Head (2012) [FLAC] {With Bonus Hits CD}\CD2of2\08 - Hazard.wav
     Peak level 99.4 %
     Extraction speed 8.8 X
     Track quality 100.0 %
     Test CRC 061D6F35
     Copy CRC 061D6F35
     Cannot be verified as accurate (confidence 1)  [E78FE98A], AccurateRip returned [CF1C5D52]
     Copy OK
Track  9
     Filename E:\Datas\Music\Rips\Richard Marx - Inside My Head (2012) [FLAC] {With Bonus Hits CD}\CD2of2\09 - Too Late To Say Goodbye.wav
     Peak level 99.4 %
     Extraction speed 9.0 X
     Track quality 100.0 %
     Test CRC 282564E9
     Copy CRC 282564E9
     Cannot be verified as accurate (confidence 1)  [3603C6C0], AccurateRip returned [203135C5]
     Copy OK
Track 10
     Filename E:\Datas\Music\Rips\Richard Marx - Inside My Head (2012) [FLAC] {With Bonus Hits CD}\CD2of2\10 - Satisfied.wav
     Peak level 99.4 %
     Extraction speed 8.9 X
     Track quality 100.0 %
     Test CRC 52D6B775
     Copy CRC 52D6B775
     Cannot be verified as accurate (confidence 1)  [A8624522], AccurateRip returned [5C3E9CB9]
     Copy OK
Track 11
     Filename E:\Datas\Music\Rips\Richard Marx - Inside My Head (2012) [FLAC] {With Bonus Hits CD}\CD2of2\11 - Right Here Waiting.wav
     Peak level 99.4 %
     Extraction speed 9.5 X
     Track quality 100.0 %
     Test CRC 289AD15C
     Copy CRC 289AD15C
     Cannot be verified as accurate (confidence 1)  [AB68FA7D], AccurateRip returned [E683E179]
     Copy OK
Track 12
     Filename E:\Datas\Music\Rips\Richard Marx - Inside My Head (2012) [FLAC] {With Bonus Hits CD}\CD2of2\12 - When You Loved Me.wav
     Peak level 99.4 %
     Extraction speed 9.4 X
     Track quality 100.0 %
     Test CRC 6BF8F4BF
     Copy CRC 6BF8F4BF
     Cannot be verified as accurate (confidence 1)  [681D7C08], AccurateRip returned [E9AAD40E]
     Copy OK
11 track(s) could not be verified as accurate
1 track(s) not present in the AccurateRip database
No tracks could be verified as accurate
You may have a different pressing from the one(s) in the database
No errors occurred
End of status report

содержание индексной карты *cue

REM GENRE Pop
REM DATE 2012
REM DISCID AF0CB30C
REM COMMENT "ExactAudioCopy v1.0b1"
PERFORMER "Richard Marx"
TITLE "Inside My Head - Hits (CD2)"
FILE "01 - Don't Mean Nothing.wav" WAVE
  TRACK 01 AUDIO
    TITLE "Don't Mean Nothing"
    PERFORMER "Richard Marx"
    INDEX 01 00:00:00
FILE "02 - Should've Known Better.wav" WAVE
  TRACK 02 AUDIO
    TITLE "Should've Known Better"
    PERFORMER "Richard Marx"
    INDEX 01 00:00:00
FILE "03 - Endless Summer Nights.wav" WAVE
  TRACK 03 AUDIO
    TITLE "Endless Summer Nights"
    PERFORMER "Richard Marx"
    INDEX 01 00:00:00
FILE "04 - Keep Coming Back.wav" WAVE
  TRACK 04 AUDIO
    TITLE "Keep Coming Back"
    PERFORMER "Richard Marx"
    INDEX 01 00:00:00
FILE "05 - Take This Heart.wav" WAVE
  TRACK 05 AUDIO
    TITLE "Take This Heart"
    PERFORMER "Richard Marx"
    INDEX 01 00:00:00
FILE "06 - Hold On To The Nights.wav" WAVE
  TRACK 06 AUDIO
    TITLE "Hold On To The Nights"
    PERFORMER "Richard Marx"
    INDEX 01 00:00:00
FILE "07 - Angelia.wav" WAVE
  TRACK 07 AUDIO
    TITLE "Angelia "
    PERFORMER "Richard Marx"
    INDEX 01 00:00:00
FILE "08 - Hazard.wav" WAVE
  TRACK 08 AUDIO
    TITLE "Hazard"
    PERFORMER "Richard Marx"
    INDEX 01 00:00:00
FILE "09 - Too Late To Say Goodbye.wav" WAVE
  TRACK 09 AUDIO
    TITLE "Too Late To Say Goodbye"
    PERFORMER "Richard Marx"
    INDEX 01 00:00:00
FILE "10 - Satisfied.wav" WAVE
  TRACK 10 AUDIO
    TITLE "Satisfied"
    PERFORMER "Richard Marx"
    INDEX 01 00:00:00
FILE "11 - Right Here Waiting.wav" WAVE
  TRACK 11 AUDIO
    TITLE "Right Here Waiting"
    PERFORMER "Richard Marx"
    INDEX 01 00:00:00
FILE "12 - When You Loved Me.wav" WAVE
  TRACK 12 AUDIO
    TITLE "When You Loved Me"
    PERFORMER "Richard Marx"
    INDEX 01 00:00:00
--
[Профиль] [ЛС]

Создавать темы 13-Авг-2015 11:01 (спустя 1 год)

Топик был перенесен из форума Зарубежная в форум World Pop
sergej644
 
Кто просматривает тему:

Форум Тема Автор Размер
Rock (Pop-Rock) Richard Marx - Inside My Head (2CD) - 2012, MP3 (tracks), 320 kbps sergej644 315 MB
Показать сообщения:    

Текущее время: Сегодня 16:51

Часовой пояс: GMT



Вы не можете начинать темы
Вы не можете отвечать на сообщения
Вы не можете редактировать свои сообщения
Вы не можете удалять свои сообщения
Вы не можете голосовать в опросах
Вы не можете прикреплять файлы к сообщениям
Вы не можете скачивать файлы