(Italo-Disco, Synthpop)Retronic Voice - Awakening (2012) [FLAC|Lossless]

 
Автор Сообщение

sergej644 ®

Пол:

Стаж: 4 года 11 месяцев

Сообщений: 6046

Откуда: Soviet Union



Награды: Нет

Торрент-статистика

Создавать темы 25-Дек-2014 00:15

[Цитировать]

-Retronic Voice - Awakening (2012)- Год: 2012
Жанр: Italo-Disco, Synthpop
Продолжительность: 01:10:55
Лейбл: Space Sound Records
Каталожный №: SSR - 00023
Сканы: Комплект
Кодек: FLAC (tracks+.cue)
Битрейт: Lossless
Трек лист:
01. Awakening (Intro) [1:58]
02. Menace To Society (Extended Mix) [8:20]
03. Feel The Night [4:31]
04. Real People [4:20]
05. I'm All Around [5:41]
06. Fighter [4:38]
07. Bessina (Feat. Alicja) [5:28]
08. Deciding The End [4:21]
09. Dancing In My Dream [4:39]
10. Shot Down [5:03]
11. Counting Seconds [4:40]
12. White Lies [4:58]
13. The Awakening [5:51]
14. Feel The Night (Extended Call Mix) [6:25]-

Содержимое индексной карты (.cue):

REM GENRE Electronic
REM DATE 2012
REM DISCID B7109E0E
REM COMMENT "ExactAudioCopy v1.0b3"
PERFORMER "Retronic Voice"
TITLE "Awakening"
FILE "01 Awakening - Intro.wav" WAVE
  TRACK 01 AUDIO
    TITLE "Awakening - Intro"
    PERFORMER "Retronic Voice"
    FLAGS DCP
    INDEX 01 00:00:00
FILE "02 Menace To Society (Extended Mix).wav" WAVE
  TRACK 02 AUDIO
    TITLE "Menace To Society (Extended Mix)"
    PERFORMER "Retronic Voice"
    FLAGS DCP
    INDEX 01 00:00:00
FILE "03 Feel The Night.wav" WAVE
  TRACK 03 AUDIO
    TITLE "Feel The Night"
    PERFORMER "Retronic Voice"
    FLAGS DCP
    INDEX 01 00:00:00
FILE "04 Real People.wav" WAVE
  TRACK 04 AUDIO
    TITLE "Real People"
    PERFORMER "Retronic Voice"
    FLAGS DCP
    INDEX 01 00:00:00
FILE "05 I'm All Around.wav" WAVE
  TRACK 05 AUDIO
    TITLE "I'm All Around"
    PERFORMER "Retronic Voice"
    FLAGS DCP
    INDEX 01 00:00:00
FILE "06 Fighter.wav" WAVE
  TRACK 06 AUDIO
    TITLE "Fighter"
    PERFORMER "Retronic Voice"
    FLAGS DCP
    INDEX 01 00:00:00
FILE "07 Bessina (feat. Alicja).wav" WAVE
  TRACK 07 AUDIO
    TITLE "Bessina (feat. Alicja)"
    PERFORMER "Retronic Voice"
    FLAGS DCP
    INDEX 01 00:00:00
FILE "08 Deciding The End.wav" WAVE
  TRACK 08 AUDIO
    TITLE "Deciding The End"
    PERFORMER "Retronic Voice"
    FLAGS DCP
    INDEX 01 00:00:00
FILE "09 Dancing In My Dream.wav" WAVE
  TRACK 09 AUDIO
    TITLE "Dancing In My Dream"
    PERFORMER "Retronic Voice"
    FLAGS DCP
    INDEX 01 00:00:00
FILE "10 Shot Down.wav" WAVE
  TRACK 10 AUDIO
    TITLE "Shot Down"
    PERFORMER "Retronic Voice"
    FLAGS DCP
    INDEX 01 00:00:00
FILE "11 Counting Seconds.wav" WAVE
  TRACK 11 AUDIO
    TITLE "Counting Seconds"
    PERFORMER "Retronic Voice"
    FLAGS DCP
    INDEX 01 00:00:00
FILE "12 White Lies.wav" WAVE
  TRACK 12 AUDIO
    TITLE "White Lies"
    PERFORMER "Retronic Voice"
    FLAGS DCP
    INDEX 01 00:00:00
FILE "13 The Awakening.wav" WAVE
  TRACK 13 AUDIO
    TITLE "The Awakening"
    PERFORMER "Retronic Voice"
    FLAGS DCP
    INDEX 01 00:00:00
FILE "14  Feel The Night (Extended Call Mix).wav" WAVE
  TRACK 14 AUDIO
    TITLE " Feel The Night (Extended Call Mix)"
    PERFORMER "Retronic Voice"
    FLAGS DCP
    INDEX 01 00:00:00

Отчёт ЕАС:

Exact Audio Copy V1.0 beta 3 from 29. August 2011
EAC extraction logfile from 10. June 2012, 19:33
Retronic Voice / Awakening
Used drive  : SONY    DVD RW DRU-820A   Adapter: 3  ID: 0
Read mode               : Secure
Utilize accurate stream : Yes
Defeat audio cache      : Yes
Make use of C2 pointers : No
Read offset correction                      : 102
Overread into Lead-In and Lead-Out          : No
Fill up missing offset samples with silence : Yes
Delete leading and trailing silent blocks   : No
Null samples used in CRC calculations       : Yes
Used interface                              : Native Win32 interface for Win NT & 2000
Gap handling                                : Appended to previous track
Used output format : Internal WAV Routines
Sample format      : 44.100 Hz; 16 Bit; Stereo
TOC of the extracted CD
     Track |   Start  |  Length  | Start sector | End sector
    ---------------------------------------------------------
        1  |  0:00.00 |  1:58.18 |         0    |     8867
        2  |  1:58.18 |  8:20.37 |      8868    |    46404
        3  | 10:18.55 |  4:30.64 |     46405    |    66718
        4  | 14:49.44 |  4:20.18 |     66719    |    86236
        5  | 19:09.62 |  5:40.46 |     86237    |   111782
        6  | 24:50.33 |  4:38.05 |    111783    |   132637
        7  | 29:28.38 |  5:27.38 |    132638    |   157200
        8  | 34:56.01 |  4:21.37 |    157201    |   176812
        9  | 39:17.38 |  4:39.34 |    176813    |   197771
       10  | 43:56.72 |  5:03.36 |    197772    |   220532
       11  | 49:00.33 |  4:40.23 |    220533    |   241555
       12  | 53:40.56 |  4:58.24 |    241556    |   263929
       13  | 58:39.05 |  5:50.48 |    263930    |   290227
       14  | 64:29.53 |  6:24.73 |    290228    |   319100
Track  1
     Filename E:\WhatCD\Новая папка\01 Awakening - Intro.wav
     Pre-gap length  0:00:02.00
     Peak level 96.8 %
     Extraction speed 4.0 X
     Track quality 100.0 %
     Test CRC 089979D5
     Copy CRC 089979D5
     Track not present in AccurateRip database
     Copy OK
Track  2
     Filename E:\WhatCD\Новая папка\02 Menace To Society (Extended Mix).wav
     Peak level 96.8 %
     Extraction speed 3.2 X
     Track quality 99.9 %
     Test CRC 3E2769A2
     Copy CRC 3E2769A2
     Track not present in AccurateRip database
     Copy OK
Track  3
     Filename E:\WhatCD\Новая папка\03 Feel The Night.wav
     Peak level 96.8 %
     Extraction speed 5.8 X
     Track quality 100.0 %
     Test CRC E055E0BB
     Copy CRC E055E0BB
     Track not present in AccurateRip database
     Copy OK
Track  4
     Filename E:\WhatCD\Новая папка\04 Real People.wav
     Peak level 96.8 %
     Extraction speed 4.8 X
     Track quality 99.9 %
     Test CRC B1623254
     Copy CRC B1623254
     Track not present in AccurateRip database
     Copy OK
Track  5
     Filename E:\WhatCD\Новая папка\05 I'm All Around.wav
     Peak level 96.8 %
     Extraction speed 5.3 X
     Track quality 99.9 %
     Test CRC 00C7D61C
     Copy CRC 00C7D61C
     Track not present in AccurateRip database
     Copy OK
Track  6
     Filename E:\WhatCD\Новая папка\06 Fighter.wav
     Peak level 96.8 %
     Extraction speed 7.0 X
     Track quality 100.0 %
     Test CRC 174D208B
     Copy CRC 174D208B
     Track not present in AccurateRip database
     Copy OK
Track  7
     Filename E:\WhatCD\Новая папка\07 Bessina (feat. Alicja).wav
     Peak level 96.9 %
     Extraction speed 3.8 X
     Track quality 99.9 %
     Test CRC 37F1BBFF
     Copy CRC 37F1BBFF
     Track not present in AccurateRip database
     Copy OK
Track  8
     Filename E:\WhatCD\Новая папка\08 Deciding The End.wav
     Peak level 96.8 %
     Extraction speed 7.6 X
     Track quality 100.0 %
     Test CRC C5FB11BD
     Copy CRC C5FB11BD
     Track not present in AccurateRip database
     Copy OK
Track  9
     Filename E:\WhatCD\Новая папка\09 Dancing In My Dream.wav
     Peak level 96.9 %
     Extraction speed 7.9 X
     Track quality 100.0 %
     Test CRC 287DCBFB
     Copy CRC 287DCBFB
     Track not present in AccurateRip database
     Copy OK
Track 10
     Filename E:\WhatCD\Новая папка\10 Shot Down.wav
     Peak level 96.8 %
     Extraction speed 8.2 X
     Track quality 100.0 %
     Test CRC EA939C35
     Copy CRC EA939C35
     Track not present in AccurateRip database
     Copy OK
Track 11
     Filename E:\WhatCD\Новая папка\11 Counting Seconds.wav
     Peak level 96.8 %
     Extraction speed 8.4 X
     Track quality 100.0 %
     Test CRC 4CB77513
     Copy CRC 4CB77513
     Track not present in AccurateRip database
     Copy OK
Track 12
     Filename E:\WhatCD\Новая папка\12 White Lies.wav
     Peak level 96.8 %
     Extraction speed 6.9 X
     Track quality 99.9 %
     Test CRC 32381751
     Copy CRC 32381751
     Track not present in AccurateRip database
     Copy OK
Track 13
     Filename E:\WhatCD\Новая папка\13 The Awakening.wav
     Peak level 96.8 %
     Extraction speed 9.0 X
     Track quality 100.0 %
     Test CRC 642917BD
     Copy CRC 642917BD
     Track not present in AccurateRip database
     Copy OK
Track 14
     Filename E:\WhatCD\Новая папка\14  Feel The Night (Extended Call Mix).wav
     Peak level 96.8 %
     Extraction speed 8.9 X
     Track quality 100.0 %
     Test CRC 0600C1C5
     Copy CRC 0600C1C5
     Track not present in AccurateRip database
     Copy OK
None of the tracks are present in the AccurateRip database
No errors occurred
End of status report

Отчёт auCDtect Task Manager:

-----------------------
DON'T MODIFY THIS FILE
-----------------------
PERFORMER: auCDtect Task Manager, ver. 1.5.1RC3 build 1.5.1.4
Copyright (c) 2008-2010 y-soft. All rights reserved
http://y-soft.org
ANALYZER: auCDtect: CD records authenticity detector, version 0.8.2
Copyright (c) 2004 Oleg Berngardt. All rights reserved.
Copyright (c) 2004 Alexander Djourik. All rights reserved.
FILE: 14  Feel The Night (Extended Call Mix).flac
  Size: 43759298 Hash: 395E5D715864FB59A4689B38745DBE14 Accuracy: -m0
  Conclusion: CDDA 100%
  Signature: E7A9FA4961E677283D5447B7C921517C0DAF92D4
FILE: 13 The Awakening.flac
  Size: 43153966 Hash: 959693B1B0162A1D460CDDE83EE3998A Accuracy: -m0
  Conclusion: CDDA 100%
  Signature: 8388408AA6C2DFA0CD30EBF2BF7A748D292FA2A9
FILE: 12 White Lies.flac
  Size: 35164698 Hash: F96894C733F2BE4B5D7CF2F509183EDD Accuracy: -m0
  Conclusion: CDDA 100%
  Signature: C96795CEE86BE0EAFAED1CAEC22A4B7B5A0AFE05
FILE: 11 Counting Seconds.flac
  Size: 33655990 Hash: 1C10F082F639E4EE7F1DF19383764E54 Accuracy: -m0
  Conclusion: CDDA 100%
  Signature: F5457AAD18001609C3FF9FA4A0DDA19FB0959F31
FILE: 10 Shot Down.flac
  Size: 35820356 Hash: BD7E1E1A0185532115F10F6238B7DFA2 Accuracy: -m0
  Conclusion: CDDA 100%
  Signature: 0A7C8C1DCF5A381AD5C9CEB88DDC36054038F128
FILE: 09 Dancing In My Dream.flac
  Size: 32172504 Hash: 8BD3D078DA9A33D870E8BD3929EAFF47 Accuracy: -m0
  Conclusion: CDDA 100%
  Signature: 55DBCAA61602ABE1423E5C826705620ED62C67D2
FILE: 08 Deciding The End.flac
  Size: 30056796 Hash: 14128224FCEBD3EB55FEA91648286F65 Accuracy: -m0
  Conclusion: CDDA 99%
  Signature: 4D0E65F2A5A1EDE6F49CB1D87BC0CFB812BFEC36
FILE: 07 Bessina (feat. Alicja).flac
  Size: 37687489 Hash: 9FE94341D02D951193CB0959B0308F09 Accuracy: -m0
  Conclusion: CDDA 100%
  Signature: D57BEA3162290553EB5FA5CBD07E56E36CDA293C
FILE: 06 Fighter.flac
  Size: 32104849 Hash: FFFF938F438565C8D85E50F76496A2E4 Accuracy: -m0
  Conclusion: CDDA 100%
  Signature: 3CB22D6A065A728E56C5FBED293B24916F0F0916
FILE: 05 I'm All Around.flac
  Size: 37438196 Hash: 8DDA45EE5718F9E40B59D161036A5B38 Accuracy: -m0
  Conclusion: CDDA 100%
  Signature: 4B2F5651DB1403A8C08CE66C9F050B1C6533DEFE
FILE: 04 Real People.flac
  Size: 30578145 Hash: 24C06FFED211E249F4624F2F86CE5BFF Accuracy: -m0
  Conclusion: CDDA 100%
  Signature: 7553CB814A7DFDA43BB7313894235A04E3573E10
FILE: 03 Feel The Night.flac
  Size: 31627004 Hash: CD503CC09B1402D6E0A7F1FFA80DE481 Accuracy: -m0
  Conclusion: CDDA 99%
  Signature: D22563F04641BC32C086204E8831BCD8B561DD91
FILE: 02 Menace To Society (Extended Mix).flac
  Size: 62320605 Hash: 0B6BDB6D4E14FC3D286FC2B53F916EA9 Accuracy: -m0
  Conclusion: CDDA 100%
  Signature: 825DC617D23D2DDF2FD24116927F0DF5E3ACB9CA
FILE: 01 Awakening - Intro.flac
  Size: 11914335 Hash: AC05B5C6D533F0D3DDE7262A5AC9ED6C Accuracy: -m0
  Conclusion: CDDA 99%
  Signature: AAB4F80508FF4C673E6978C6159275D71ABD9AF5
-Время раздачи: Круглосуточно (до первых сидов, далее по возможности)
[Профиль] [ЛС]

Создавать темы 13-Авг-2015 10:41 (спустя 7 месяцев 19 дней)

Топик был перенесен из форума Зарубежная в форум Technopop, Eurodance, Disco
sergej644
 
Показать сообщения:    

Текущее время: Сегодня 15:35

Часовой пояс: GMT



Вы не можете начинать темы
Вы не можете отвечать на сообщения
Вы не можете редактировать свои сообщения
Вы не можете удалять свои сообщения
Вы не можете голосовать в опросах
Вы не можете прикреплять файлы к сообщениям
Вы не можете скачивать файлы