(Rock,Hard Rock,Soft Rock) REO Speedwagon - The Hits - 1988 [FLAC, tracks+.cue, lossless]

 
Автор Сообщение

sergej644 ®

Пол:

Стаж: 4 года 11 месяцев

Сообщений: 6043

Откуда: Soviet Union



Награды: Нет

Торрент-статистика

Создавать темы 19-Май-2015 08:28

[Цитировать]

-REO Speedwagon / The Hits-- Год издания: 1988
Страна: USA
Жанр: Rock,Hard Rock,Soft Rock
Продолжительность: 01:00:43-Лейбл издания: Epic
Тип альбома: Compilation
Страна-выпуска диска: USA
Номер по каталогу: EK 44202
Формат: FLAC
Битрейт аудио: lossless
Тип рипа: tracks+.cue
Наличие сканов в содержимом раздачи: да
--

Трэклист

01. Don't Want To Lose You (03:10)
02. Here With Me (05:06)
03. Roll With The Changes (05:38)
04. Keep On Loving You (03:23)
05. That Ain't Love (04:03)
06. Take It On The Run (04:02)
07. In My Dreams (04:25)
08. Don't Let Him Go (03:49)
09. Can't Fight This Feeling (04:52)
10. Keep Pushin' (03:58)
11. Time For Me To Fly (03:39)
12. One Lonely Night (03:25)
13. Back On The Road Again (05:30)
14. Ridin' The Storm Out (05:51)

Лог создания рипа

Exact Audio Copy V1.0 beta 3 from 29. August 2011
EAC extraction logfile from 5. December 2014, 19:01
REO Speedwagon / The Hits
Used drive  : ASUS    DRW-24B1ST   Adapter: 0  ID: 0
Read mode               : Secure
Utilize accurate stream : Yes
Defeat audio cache      : Yes
Make use of C2 pointers : No
Read offset correction                      : 6
Overread into Lead-In and Lead-Out          : No
Fill up missing offset samples with silence : Yes
Delete leading and trailing silent blocks   : No
Null samples used in CRC calculations       : Yes
Used interface                              : Native Win32 interface for Win NT & 2000
Gap handling                                : Appended to previous track
Used output format              : User Defined Encoder
Selected bitrate                : 1024 kBit/s
Quality                         : High
Add ID3 tag                     : No
Command line compressor         : C:\Program Files (x86)\Exact Audio Copy\flac.exe
Additional command line options : -8 -V -T "Artist=%artist%" -T "Title=%title%" -T "Album=%albumtitle%" -T "Date=%year%" -T "Tracknumber=%tracknr%" -T "Genre=%genre%" -T "Comment=%comment%" %hascover%--picture="%coverfile%"%hascover% %source%
TOC of the extracted CD
     Track |   Start  |  Length  | Start sector | End sector
    ---------------------------------------------------------
        1  |  0:00.00 |  3:09.12 |         0    |    14186
        2  |  3:09.12 |  5:05.20 |     14187    |    37081
        3  |  8:14.32 |  5:37.50 |     37082    |    62406
        4  | 13:52.07 |  3:22.50 |     62407    |    77606
        5  | 17:14.57 |  4:02.50 |     77607    |    95806
        6  | 21:17.32 |  4:01.30 |     95807    |   113911
        7  | 25:18.62 |  4:24.48 |    113912    |   133759
        8  | 29:43.35 |  3:48.02 |    133760    |   150861
        9  | 33:31.37 |  4:51.35 |    150862    |   172721
       10  | 38:22.72 |  3:57.28 |    172722    |   190524
       11  | 42:20.25 |  3:38.37 |    190525    |   206911
       12  | 45:58.62 |  3:24.30 |    206912    |   222241
       13  | 49:23.17 |  5:29.20 |    222242    |   246936
       14  | 54:52.37 |  5:50.33 |    246937    |   273219
Track  1
     Filename C:\REO Speedwagon - The Hits (1988) [FLAC]\01. Don't Want To Lose You.wav
     Pre-gap length  0:00:02.00
     Peak level 100.0 %
     Extraction speed 3.7 X
     Track quality 100.0 %
     Test CRC 2C2F1E4F
     Copy CRC 2C2F1E4F
     Accurately ripped (confidence 5)  [1A8CAABA]  (AR v2)
     Copy OK
Track  2
     Filename C:\REO Speedwagon - The Hits (1988) [FLAC]\02. Here With Me.wav
     Pre-gap length  0:00:00.65
     Peak level 80.7 %
     Extraction speed 4.4 X
     Track quality 100.0 %
     Test CRC E39C7AB9
     Copy CRC E39C7AB9
     Accurately ripped (confidence 5)  [202FE363]  (AR v2)
     Copy OK
Track  3
     Filename C:\REO Speedwagon - The Hits (1988) [FLAC]\03. Roll With The Changes.wav
     Pre-gap length  0:00:01.05
     Peak level 79.4 %
     Extraction speed 4.1 X
     Track quality 99.9 %
     Test CRC 2B0B7C62
     Copy CRC 2B0B7C62
     Accurately ripped (confidence 5)  [F552B311]  (AR v2)
     Copy OK
Track  4
     Filename C:\REO Speedwagon - The Hits (1988) [FLAC]\04. Keep On Loving You.wav
     Pre-gap length  0:00:01.72
     Peak level 84.8 %
     Extraction speed 4.9 X
     Track quality 100.0 %
     Test CRC 533C86CF
     Copy CRC 533C86CF
     Accurately ripped (confidence 5)  [1CCD9CCC]  (AR v2)
     Copy OK
Track  5
     Filename C:\REO Speedwagon - The Hits (1988) [FLAC]\05. That Ain't Love.wav
     Pre-gap length  0:00:02.15
     Peak level 89.0 %
     Extraction speed 4.2 X
     Track quality 99.9 %
     Test CRC 15248553
     Copy CRC 15248553
     Accurately ripped (confidence 5)  [E7489F21]  (AR v2)
     Copy OK
Track  6
     Filename C:\REO Speedwagon - The Hits (1988) [FLAC]\06. Take It On The Run.wav
     Pre-gap length  0:00:01.52
     Peak level 80.1 %
     Extraction speed 5.5 X
     Track quality 100.0 %
     Test CRC EFA71C44
     Copy CRC EFA71C44
     Accurately ripped (confidence 4)  [9E4CD944]  (AR v2)
     Copy OK
Track  7
     Filename C:\REO Speedwagon - The Hits (1988) [FLAC]\07. In My Dreams.wav
     Pre-gap length  0:00:01.05
     Peak level 88.7 %
     Extraction speed 5.8 X
     Track quality 100.0 %
     Test CRC EE527348
     Copy CRC EE527348
     Accurately ripped (confidence 4)  [BA936472]  (AR v2)
     Copy OK
Track  8
     Filename C:\REO Speedwagon - The Hits (1988) [FLAC]\08. Don't Let Him Go.wav
     Pre-gap length  0:00:02.05
     Peak level 85.6 %
     Extraction speed 5.9 X
     Track quality 100.0 %
     Test CRC DF89A166
     Copy CRC DF89A166
     Accurately ripped (confidence 4)  [F7E0761C]  (AR v2)
     Copy OK
Track  9
     Filename C:\REO Speedwagon - The Hits (1988) [FLAC]\09. Can't Fight This Feeling.wav
     Pre-gap length  0:00:02.12
     Peak level 94.5 %
     Extraction speed 5.3 X
     Track quality 99.9 %
     Test CRC 23758661
     Copy CRC 23758661
     Accurately ripped (confidence 5)  [2B01A443]  (AR v2)
     Copy OK
Track 10
     Filename C:\REO Speedwagon - The Hits (1988) [FLAC]\10. Keep Pushin'.wav
     Pre-gap length  0:00:01.07
     Peak level 98.8 %
     Extraction speed 5.2 X
     Track quality 99.9 %
     Test CRC BE4B83BA
     Copy CRC BE4B83BA
     Accurately ripped (confidence 4)  [A3045F67]  (AR v2)
     Copy OK
Track 11
     Filename C:\REO Speedwagon - The Hits (1988) [FLAC]\11. Time For Me To Fly.wav
     Pre-gap length  0:00:00.30
     Peak level 88.1 %
     Extraction speed 6.5 X
     Track quality 100.0 %
     Test CRC 0C40E0A0
     Copy CRC 0C40E0A0
     Accurately ripped (confidence 4)  [6B5853EA]  (AR v2)
     Copy OK
Track 12
     Filename C:\REO Speedwagon - The Hits (1988) [FLAC]\12. One Lonely Night.wav
     Pre-gap length  0:00:01.26
     Peak level 100.0 %
     Extraction speed 6.7 X
     Track quality 100.0 %
     Test CRC 67FF5ECB
     Copy CRC 67FF5ECB
     Accurately ripped (confidence 5)  [DFE1F41B]  (AR v2)
     Copy OK
Track 13
     Filename C:\REO Speedwagon - The Hits (1988) [FLAC]\13. Back On The Road Again.wav
     Pre-gap length  0:00:03.12
     Peak level 98.6 %
     Extraction speed 7.4 X
     Track quality 100.0 %
     Test CRC E7BBBA6D
     Copy CRC E7BBBA6D
     Accurately ripped (confidence 5)  [E10B7A0B]  (AR v2)
     Copy OK
Track 14
     Filename C:\REO Speedwagon - The Hits (1988) [FLAC]\14. Ridin' The Storm Out.wav
     Pre-gap length  0:00:00.37
     Peak level 86.9 %
     Extraction speed 7.7 X
     Track quality 100.0 %
     Test CRC F80955CE
     Copy CRC F80955CE
     Accurately ripped (confidence 5)  [718191AB]  (AR v2)
     Copy OK
All tracks accurately ripped
No errors occurred
End of status report

Индексная карта (non-compilant .cue)

REM GENRE Rock
REM DATE 1988
REM DISCID BC0E3A0E
REM COMMENT "ExactAudioCopy v1.0b3"
CATALOG 0000000000000
PERFORMER "REO Speedwagon"
TITLE "The Hits"
FILE "01. Don't Want To Lose You.wav" WAVE
  TRACK 01 AUDIO
    TITLE "Don't Want To Lose You"
    PERFORMER "REO Speedwagon"
    ISRC 000000000000
    INDEX 01 00:00:00
  TRACK 02 AUDIO
    TITLE "Here With Me"
    PERFORMER "REO Speedwagon"
    ISRC 000000000000
    INDEX 00 03:08:22
FILE "02. Here With Me.wav" WAVE
    INDEX 01 00:00:00
  TRACK 03 AUDIO
    TITLE "Roll With The Changes"
    PERFORMER "REO Speedwagon"
    ISRC 000000000000
    INDEX 00 05:04:15
FILE "03. Roll With The Changes.wav" WAVE
    INDEX 01 00:00:00
  TRACK 04 AUDIO
    TITLE "Keep On Loving You"
    PERFORMER "REO Speedwagon"
    ISRC 000000000000
    INDEX 00 05:35:53
FILE "04. Keep On Loving You.wav" WAVE
    INDEX 01 00:00:00
  TRACK 05 AUDIO
    TITLE "That Ain't Love"
    PERFORMER "REO Speedwagon"
    ISRC 000000000000
    INDEX 00 03:20:35
FILE "05. That Ain't Love.wav" WAVE
    INDEX 01 00:00:00
  TRACK 06 AUDIO
    TITLE "Take It On The Run"
    PERFORMER "REO Speedwagon"
    ISRC 000000000000
    INDEX 00 04:00:73
FILE "06. Take It On The Run.wav" WAVE
    INDEX 01 00:00:00
  TRACK 07 AUDIO
    TITLE "In My Dreams"
    PERFORMER "REO Speedwagon"
    ISRC 000000000000
    INDEX 00 04:00:25
FILE "07. In My Dreams.wav" WAVE
    INDEX 01 00:00:00
  TRACK 08 AUDIO
    TITLE "Don't Let Him Go"
    PERFORMER "REO Speedwagon"
    ISRC 000000000000
    INDEX 00 04:22:43
FILE "08. Don't Let Him Go.wav" WAVE
    INDEX 01 00:00:00
  TRACK 09 AUDIO
    TITLE "Can't Fight This Feeling"
    PERFORMER "REO Speedwagon"
    ISRC 000000000000
    INDEX 00 03:45:65
FILE "09. Can't Fight This Feeling.wav" WAVE
    INDEX 01 00:00:00
  TRACK 10 AUDIO
    TITLE "Keep Pushin'"
    PERFORMER "REO Speedwagon"
    ISRC 000000000000
    INDEX 00 04:50:28
FILE "10. Keep Pushin'.wav" WAVE
    INDEX 01 00:00:00
  TRACK 11 AUDIO
    TITLE "Time For Me To Fly"
    PERFORMER "REO Speedwagon"
    ISRC 000000000000
    INDEX 00 03:56:73
FILE "11. Time For Me To Fly.wav" WAVE
    INDEX 01 00:00:00
  TRACK 12 AUDIO
    TITLE "One Lonely Night"
    PERFORMER "REO Speedwagon"
    ISRC 000000000000
    INDEX 00 03:37:11
FILE "12. One Lonely Night.wav" WAVE
    INDEX 01 00:00:00
  TRACK 13 AUDIO
    TITLE "Back On The Road Again"
    PERFORMER "REO Speedwagon"
    ISRC 000000000000
    INDEX 00 03:21:18
FILE "13. Back On The Road Again.wav" WAVE
    INDEX 01 00:00:00
  TRACK 14 AUDIO
    TITLE "Ridin' The Storm Out"
    PERFORMER "REO Speedwagon"
    ISRC 000000000000
    INDEX 00 05:28:58
FILE "14. Ridin' The Storm Out.wav" WAVE
    INDEX 01 00:00:00

Скриншот спектра частот

--Не забываем говорить
[Профиль] [ЛС]
Показать сообщения:    

Текущее время: Сегодня 16:41

Часовой пояс: GMT



Вы не можете начинать темы
Вы не можете отвечать на сообщения
Вы не можете редактировать свои сообщения
Вы не можете удалять свои сообщения
Вы не можете голосовать в опросах
Вы не можете прикреплять файлы к сообщениям
Вы не можете скачивать файлы