Red Hot Chili Peppers. Live from the Basement 2012 [2014, Funk rock/Alternative rock/Funk metal/Rap rock, HDTV 1080i]

 
Автор Сообщение

reversefile ®

Пол:

Стаж: 4 года 5 месяцев

Сообщений: 842

Откуда: ReverseFile.org



Награды: Нет

Торрент-статистика

Создавать темы 11-Авг-2014 19:01

[Цитировать]

Red Hot Chili Peppers. Live from the Basement 2012
Жанр: Funk rock/Alternative rock/Funk metal/Rap rock
Продолжительность: 00:47:08
Год выпуска: 2014
Описание: Выступление калифорнийского funk rock бэнда на сцене Maida Vale Studios в Лондоне в рамках серии концертного шоу From the Basement 2012 oct19
Доп. информация: Собственная запись со спутникового канала ProSieben Fun 2014 jun20
Треклист: Monarchy of Roses
Factory of Faith
Ethiopia
Look Around
The Adventures of Rain Dance Maggie
Did I Let You Know
Goodbye Hooray
Police Station
Meet Me at the Corner
Качество: HDTV 1080i
Контейнер: TS
Видео кодек: H.264
Аудио кодек: AC3
Видео: Mpeg4 AVC, 1920x1080, 8775 kbps, 25 fps
Аудио: AC3, 384 kbps, 48 kHz, stereo

Отчёт MediaInfo / BDInfo

GeneralID : 1 (0x1)Complete name : F:\Red Hot Chili Peppers. Live from the Basement 2012.tsFormat : MPEG-TSFile size : 3.17 GiBDuration : 47mn 8sOverall bit rate mode : VariableOverall bit rate : 9 638 Kbps
VideoID : 1279 (0x4FF)Menu ID : 1 (0x1)Format : AVCFormat/Info : Advanced Video CodecFormat profile : High@L4.0Format settings, CABAC : YesFormat settings, ReFrames : 3 framesFormat settings, GOP : M=4, N=28Codec ID : 27Duration : 47mn 8sBit rate : 8 774 KbpsWidth : 1 920 pixelsHeight : 1 080 pixelsDisplay aspect ratio : 16:9Frame rate : 25.000 fpsStandard : ComponentColor space : YUVChroma subsampling : 4:2:0Bit depth : 8 bitsScan type : InterlacedScan order : Top Field FirstBits/(Pixel*Frame) : 0.169Stream size : 2.89 GiB (91%)Color primaries : BT.709Transfer characteristics : BT.709Matrix coefficients : BT.709
AudioID : 1283 (0x503)Menu ID : 1 (0x1)Format : AC-3Format/Info : Audio Coding 3Mode extension : CM (complete main)Format settings, Endianness : BigCodec ID : 6Duration : 47mn 8sBit rate mode : ConstantBit rate : 384 KbpsChannel(s) : 2 channelsChannel positions : Front: L RSampling rate : 48.0 KHzBit depth : 16 bitsCompression mode : LossyStream size : 129 MiB (4%)Language : German
TextID : 32 (0x20)-100Menu ID : 1 (0x1)Format : TeletextLanguage : German
MenuID : 100 (0x64)Menu ID : 1 (0x1)Duration : 47mn 8sList : 1279 (0x4FF) (AVC) / 1283 (0x503) (AC-3, German) / 32 (0x20) ()Language : / German

Скриншоты

[Профиль] [ЛС]
Кто просматривает тему:

Форум Тема Автор Размер
Rock Red Hot Chili Peppers - The Getaway (2016) MP3 достали все 131 MB
Показать сообщения:    

Текущее время: Сегодня 12:13

Часовой пояс: GMT



Вы не можете начинать темы
Вы не можете отвечать на сообщения
Вы не можете редактировать свои сообщения
Вы не можете удалять свои сообщения
Вы не можете голосовать в опросах
Вы не можете прикреплять файлы к сообщениям
Вы не можете скачивать файлы