Razorlight • Avo Session Basel [2011, Indie rock, Garage rock, Britpop, HDTV 1080i]

 
Автор Сообщение

reversefile ®

Пол:

Стаж: 4 года 5 месяцев

Сообщений: 842

Откуда: ReverseFile.org



Награды: Нет

Торрент-статистика

Создавать темы 11-Авг-2014 19:00

[Цитировать]






Жанр: Indie rock, Garage rock, Britpop
Продолжительность: 00:47:31
Год выпуска: 2011
Качество: HDTV 1080i
Контейнер: TS
Видео кодек: H.264
Аудио кодек: AC3
Видео: MPEG4 Video (H264) 1920x1080 25fps 8500Kbps
Аудио: Dolby AC3 48000Hz stereo 384kbps
Требуется помощь в составлении треклистаRazorlight">

ТреклистТребуется помощь в составлении треклистаRazorlight


Razorlight — англо-шведская инди-рок-группа, основанная в 2002 году. В основном они известны в своих родных странах, занимая первые места в чартах в 2006 с синглом Америка и альбомом Razorlight. В состав группы входят: Джонни Барел (Johnny Borrell) (вокал), Бъёрн Стен Огрен (Bjorn Sten Agren) (гитара), Эдди МакКиан (Eddie McKeon) (гитара, бэк-вокал), Карл Далемо (Carl Dalemo) (бас-гитара) и Дэвид 'Skully' Салливан-Кэплэн (David Sullivan-Kaplan) (ударные).

Отчёт MediaInfo / BDInfo

GeneralID : 1 (0x1)Complete name : L:\Razorlight - Avo Session Basel (2011).tsFormat : MPEG-TSFile size : 3.10 GiBDuration : 47mn 30sOverall bit rate mode : VariableOverall bit rate : 9 350 Kbps
VideoID : 1279 (0x4FF)Menu ID : 1 (0x1)Format : AVCFormat/Info : Advanced Video CodecFormat profile : High@L4.0Format settings, CABAC : YesFormat settings, ReFrames : 3 framesCodec ID : 27Duration : 47mn 30sBit rate : 8 500 KbpsWidth : 1 920 pixelsHeight : 1 080 pixelsDisplay aspect ratio : 16:9Frame rate : 25.000 fpsStandard : ComponentColor space : YUVChroma subsampling : 4:2:0Bit depth : 8 bitsScan type : InterlacedBits/(Pixel*Frame) : 0.164Stream size : 2.82 GiB (91%)Color primaries : BT.709Transfer characteristics : BT.709Matrix coefficients : BT.709
AudioID : 1283 (0x503)Menu ID : 1 (0x1)Format : AC-3Format/Info : Audio Coding 3Mode extension : CM (complete main)Format settings, Endianness : BigCodec ID : 6Duration : 47mn 30sBit rate mode : ConstantBit rate : 384 KbpsChannel(s) : 2 channelsChannel positions : Front: L RSampling rate : 48.0 KHzBit depth : 16 bitsCompression mode : LossyStream size : 130 MiB (4%)Language : German
[Профиль] [ЛС]
Кто просматривает тему:

Показать сообщения:    

Текущее время: Сегодня 22:08

Часовой пояс: GMT



Вы не можете начинать темы
Вы не можете отвечать на сообщения
Вы не можете редактировать свои сообщения
Вы не можете удалять свои сообщения
Вы не можете голосовать в опросах
Вы не можете прикреплять файлы к сообщениям
Вы не можете скачивать файлы