Rammstein - In Amerika (2015) DVD9

 
Автор Сообщение

BOSS ®

Пол:

Стаж: 2 года 2 месяца

Сообщений: 3751

Откуда: ODESSA



Награды: 20 (Подробнее)

Mega Seeder 2 (Количество: 1) Top Seeder 2 (Количество: 1) Top Keeper 2 (Количество: 1)
Торрент-статистика

Создавать темы 26-Сен-2015 05:13

[Цитировать]

Страна: Germany
Жанр: NDH, Industrial-Metal
Продолжительность: 01:41:56 + 02:02:24 + 00:21:21
Год выпуска: 2015
Лейбл: Vertigo / Capitol

DVD1: Live From Madison Square Garden

[01]. Rammlied
[02]. B*********
[03]. Waidmanns Heil
[04]. Keine Lust
[05]. Weisses Fleisch
[06]. Feuer Frei!
[07]. Weiner Blut
[08]. Fruhlіng in Paris
[09]. Ich Tu Dir Weh
[10]. Du Reichst So Gut
[11]. Benzin
[12]. Links 2 3 4
[13]. Du Hast
[14]. Pussy
[15]. Sonne
[16]. Haifisch
[17]. Ich Will
[18]. Engel

DVD2:

[01]. Dоcumentary: Rammstein In Amerika
[02]. Makіng Of: Liebe Ist Für Alle Da
DVD1:
Видео: MPEG2 Video / 720x576 / 16:9 / PAL / 25.000 fps / VBR 7184-7200 kbps
Аудио#1: DTS / 755 kbps / 6 ch / 48.0 kHz / 24-bits
Аудио#2: PCM / 1 536 kbps / 2 ch / 48.0 kHz / 16-bits
DVD2:
Видео: MPEG2 Video / 720x576 / 16:9 / PAL / 25.000 fps / VBR 4926-7017 kbps
Аудио#1: AC-3 / German / 256 kbps / 2 ch / 48.0 kHz / 16-bits
Аудио#2: AC-3 / German / 448 kbps / 6 ch / 48.0 kHz / 16-bits
Аудио#3: AC-3 / English / 256 kbps / 2 ch / 48.0 kHz / 16-bits
Аудио#4: AC-3 / English / 448 kbps / 6 ch / 48.0 kHz / 16-bits

MI

Общее
Полное имя : Rammstein - In Amerika (2015) [2xDVD9]/DVD1/VIDEO_TS/VTS_01_1.VOB
Формат : MPEG-PS
Размер файла : 1024 Мбайт
Продолжительность : 14 м.
Общий поток : 9666 Кбит/сек
Видео
Идентификатор : 224 (0xE0)
Формат : MPEG Video
Версия формата : Version 2
Профиль формата : Main@Main
Параметр BVOP формата : Да
Параметр матрицы формата : Выборочная
Параметр GOP формата : M=3, N=12
Продолжительность : 14 м.
Максимальный битрейт : 7200 Кбит/сек
Ширина : 720 пикселей
Высота : 576 пикселей
Соотношение сторон : 16:9
Частота кадров : 25,000 кадров/сек
Стандарт вещания : PAL
Цветовое пространство : YUV
Субдискретизация насыщенности : 4:2:0
Битовая глубина : 8 бит
Тип развёртки : Прогрессивная
Метод сжатия : С потерями
Временной код первого кадра : 00:00:00:00
Оригинал временного кода : Group of pictures header
GOP, открыто/закрыто : Закрыто
Основные цвета : BT.601 PAL
Характеристики трансфера : BT.470 System B, BT.470 System G
Коэффициенты матрицы : BT.601
Аудио #1
Идентификатор : 209 (0xD1)
Формат : MPEG Audio
Метод сжатия : С потерями
Аудио #2
Идентификатор : 189 (0xBD)-137 (0x89)
Формат : DTS
Формат/Информация : Digital Theater Systems
Режим : 16
Параметр Endianness формата : Big
Режим смешивания : DVD-Video
Продолжительность : 14 м.
Вид битрейта : Постоянный
Битрейт : 755 Кбит/сек
Каналы : 6 каналов
Расположение каналов : Front: L C R, Side: L R, LFE
Частота : 48,0 КГц
Битовая глубина : 24 бит
Метод сжатия : С потерями
Размер потока : 79,9 Мбайт (8%)
Аудио #3
Идентификатор : 189 (0xBD)-160 (0xA0)
Формат : PCM
Параметр Endianness формата : Big
Параметр Sign формата : Signed
Режим смешивания : DVD-Video
Продолжительность : 14 м.
Вид битрейта : Постоянный
Битрейт : 1536 Кбит/сек
Каналы : 2 канала
Частота : 48,0 КГц
Битовая глубина : 16 бит
Размер потока : 163 Мбайт (16%)

Скриншоты

[Профиль] [ЛС]
Показать сообщения:    

Текущее время: Сегодня 20:43

Часовой пояс: GMT



Вы не можете начинать темы
Вы не можете отвечать на сообщения
Вы не можете редактировать свои сообщения
Вы не можете удалять свои сообщения
Вы не можете голосовать в опросах
Вы не можете прикреплять файлы к сообщениям
Вы не можете скачивать файлы