(Hard Rock) Rainbow - Ritchie Blackmore's Rainbow (825 089-2 PolyGram, W.-Germany) - 1975, FLAC (image+.cue) lossless

 
Автор Сообщение

sergej644 ®

Пол:

Стаж: 4 года 11 месяцев

Сообщений: 6042

Откуда: Soviet Union



Награды: Нет

Торрент-статистика

Создавать темы 18-Мар-2015 17:07

[Цитировать]

--Rainbow - Ritchie Blackmore's Rainbow Жанр: Hard Rock
Страна-производитель диска: W.-Germany
Год издания: 1975
Издатель (лейбл): Polydor / PolyGram
Номер по каталогу: 825 089-2
Страна исполнителя (группы): UK
Аудиокодек: FLAC (*.flac)
Тип рипа: image+.cue
Битрейт аудио: lossless
Продолжительность: 00:37:14
Наличие сканов в содержимом раздачи: да

Треклист:

01. Man On The Silver Mountain [0:04:41.97]
02. Self Portrait [0:03:17.00]
03. Black Sheep Of The Family [0:03:22.62]
04. Catch The Rainbow [0:06:31.84]
05. Snake Charmer [0:04:33.09]
06. The Temple Of The King [0:04:45.30]
07. If You Don't Like Rock 'N' Roll [0:02:37.82]
08. Sixteenth Century Greensleeves [0:03:31.86]
09. Still I'm Sad [0:03:52.24]
-

Лог создания рипа

Exact Audio Copy V1.0 beta 4 from 7. December 2014
Отчёт EAC об извлечении, выполненном 18. марта 2015, 11:07
Rainbow / Ritchie Blackmore's Rainbow
Дисковод: SONY    CD-RW  CRX230ED   Adapter: 1  ID: 0
Режим чтения                 : Достоверность
Использование точного потока : Да
Отключение кэша аудио        : Да
Использование указателей C2  : Нет
Коррекция смещения при чтении                     : 6
Способность читать области Lead-in и Lead-out     : Нет
Заполнение пропущенных сэмплов тишиной            : Да
Удаление блоков с тишиной в начале и конце        : Нет
При вычислениях CRC использовались нулевые сэмплы : Да
Интерфейс                                         : Встроенный Win32-интерфейс для Win NT/2000
Выходной формат : Внутренние WAV-операции
Формат сэмплов  : 44.100 Гц; 16 бит; стерео
TOC извлечённого CD
     Трек |   Старт  | Длительность | Начальный сектор | Конечный сектор
    ---------------------------------------------------------------------
       1  |  0:00.32 |    4:41.73   |          32      |      21179
       2  |  4:42.30 |    3:17.00   |       21180      |      35954
       3  |  7:59.30 |    3:22.47   |       35955      |      51151
       4  | 11:22.02 |    6:31.63   |       51152      |      80539
       5  | 17:53.65 |    4:33.07   |       80540      |     101021
       6  | 22:26.72 |    4:45.23   |      101022      |     122419
       7  | 27:12.20 |    2:37.62   |      122420      |     134256
       8  | 29:50.07 |    3:31.65   |      134257      |     150146
       9  | 33:21.72 |    3:52.18   |      150147      |     167564
Характеристики диапазона извлечения и сообщения об ошибках
Выбранный диапазон
     Имя файла F:\MusicCD\Torrent\Rainbow - Ritchie Blackmore's Rainbow\Rainbow - Ritchie Blackmore's Rainbow.wav
     Пиковый уровень 100.0 %
     Скорость извлечения 6.8 X
     Качество диапазона 100.0 %
     CRC теста 9E89AB5D
     CRC копии 9E89AB5D
     Копирование... OK
Ошибок не произошло
AccurateRip: сводка
Трек  1  : извлечено точно (доверие 16)  [32844032]  (AR v2)
Трек  2  : извлечено точно (доверие 17)  [3AE98815]  (AR v2)
Трек  3  : извлечено точно (доверие 17)  [59C726B5]  (AR v2)
Трек  4  : извлечено точно (доверие 16)  [3CA3DB9A]  (AR v2)
Трек  5  : извлечено точно (доверие 17)  [3442F7CF]  (AR v2)
Трек  6  : извлечено точно (доверие 17)  [56172F19]  (AR v2)
Трек  7  : извлечено точно (доверие 17)  [27AD0226]  (AR v2)
Трек  8  : извлечено точно (доверие 17)  [ADC2F571]  (AR v2)
Трек  9  : извлечено точно (доверие 17)  [FACBDA5D]  (AR v2)
Все треки извлечены точно
Конец отчёта
---- CUETools DB Plugin V2.1.4
[CTDB TOCID: 6ZjzH7hpD8KOlBSO1k36ExZPcq0-] found
Submit result: 6ZjzH7hpD8KOlBSO1k36ExZPcq0- has been confirmed
Track | CTDB Status
  1   | (12/13) Accurately ripped
  2   | (12/13) Accurately ripped
  3   | (12/13) Accurately ripped
  4   | (12/13) Accurately ripped
  5   | ( 2/13) Accurately ripped, or (9/13) differs in 3 samples @04:16:19
  6   | (11/13) Accurately ripped
  7   | (12/13) Accurately ripped
  8   | (12/13) Accurately ripped
  9   | (12/13) Accurately ripped
If you are sure that your rip contains errors, you can use CUETools to repair it.

Содержание индексной карты (.CUE)

REM GENRE "Hard Rock"
REM DATE 1975
REM DISCID 7208BA09
REM COMMENT "ExactAudioCopy v1.0b4"
PERFORMER "Rainbow"
TITLE "Ritchie Blackmore's Rainbow"
FILE "Rainbow - Ritchie Blackmore's Rainbow.flac" WAVE
  TRACK 01 AUDIO
    TITLE "Man On The Silver Mountain"
    PERFORMER "Rainbow"
    INDEX 00 00:00:00
    INDEX 01 00:00:32
  TRACK 02 AUDIO
    TITLE "Self Portrait"
    PERFORMER "Rainbow"
    INDEX 00 04:38:20
    INDEX 01 04:42:30
  TRACK 03 AUDIO
    TITLE "Black Sheep Of The Family"
    PERFORMER "Rainbow"
    INDEX 00 07:55:05
    INDEX 01 07:59:30
  TRACK 04 AUDIO
    TITLE "Catch The Rainbow"
    PERFORMER "Rainbow"
    INDEX 00 11:18:47
    INDEX 01 11:22:02
  TRACK 05 AUDIO
    TITLE "Snake Charmer"
    PERFORMER "Rainbow"
    INDEX 00 17:51:32
    INDEX 01 17:53:65
  TRACK 06 AUDIO
    TITLE "The Temple Of The King"
    PERFORMER "Rainbow"
    INDEX 00 22:24:20
    INDEX 01 22:26:72
  TRACK 07 AUDIO
    TITLE "If You Don't Like Rock 'N' Roll"
    PERFORMER "Rainbow"
    INDEX 00 27:10:60
    INDEX 01 27:12:20
  TRACK 08 AUDIO
    TITLE "Sixteenth Century Greensleeves"
    PERFORMER "Rainbow"
    INDEX 00 29:48:02
    INDEX 01 29:50:07
  TRACK 09 AUDIO
    TITLE "Still I'm Sad"
    PERFORMER "Rainbow"
    INDEX 00 33:19:12
    INDEX 01 33:21:72

Лог проверки качества

-----------------------
DON'T MODIFY THIS FILE
-----------------------
PERFORMER: auCDtect Task Manager, ver. 1.6.0 RC1 build 1.6.0.1
Copyright (c) 2008-2010 y-soft. All rights reserved
http://y-soft.org
ANALYZER: auCDtect: CD records authenticity detector, version 0.8.2
Copyright (c) 2004 Oleg Berngardt. All rights reserved.
Copyright (c) 2004 Alexander Djourik. All rights reserved.
FILE: Rainbow - Ritchie Blackmore's Rainbow.flac
Size: 240131450 Hash: 7ADDC6FCF592BBB5DC16437CBA083600 Accuracy: -m0
Conclusion: CDDA 100%
Signature: CA29CA93647387EA5656AC3B58C3D87B4CA29870

Matrix

О диске

Рип с фирменного диска.
Сканы на 600 dpi в комплекте.
Исключительно в целях ознакомления!
--


Последний раз редактировалось: sergej644 (2015-03-20 09:14), всего редактировалось 1 раз
[Профиль] [ЛС]

Garik014

Пол:

Стаж: 1 год 9 месяцев

Сообщений: 460

Откуда: Черкассы



Награды: 1 (Подробнее)

Mega Seeder 1 (Количество: 1)
Торрент-статистика

Создавать темы 18-Мар-2015 22:02 (спустя 4 часа)

[Цитировать]

Увы, не открывается!
[Профиль] [ЛС]

sergej644 ®

Пол:

Стаж: 4 года 11 месяцев

Сообщений: 6042

Откуда: Soviet Union



Награды: Нет

Торрент-статистика

Создавать темы 18-Мар-2015 22:21 (спустя 18 минут)

[Цитировать]

64612Увы, не открывается!
Не понял?Как не открывается.Берешь файл и открывай аудио плеером.AIMP например, или фубаром
[Профиль] [ЛС]

достали все

Пол:

Стаж: 1 год 8 месяцев

Сообщений: 6565



Награды: 12 (Подробнее)

Mega Releaser 1 (Количество: 1) Mega Seeder 4 (Количество: 1) Mega Seeder 2 (Количество: 1)
Торрент-статистика

Создавать темы 19-Мар-2015 15:19 (спустя 16 часов)

[Цитировать]

sergej644, спасибо,все зер гут.
[Профиль] [ЛС]

Garik014

Пол:

Стаж: 1 год 9 месяцев

Сообщений: 460

Откуда: Черкассы



Награды: 1 (Подробнее)

Mega Seeder 1 (Количество: 1)
Торрент-статистика

Создавать темы 19-Мар-2015 20:11 (спустя 4 часа)

[Цитировать]

Извени, малеха попутал, название одно , а содержимое разное! Кстати, Сергей, большой привет тебе от всей нашей байкерской!!!
[Профиль] [ЛС]
Показать сообщения:    

Текущее время: Сегодня 22:09

Часовой пояс: GMT



Вы не можете начинать темы
Вы не можете отвечать на сообщения
Вы не можете редактировать свои сообщения
Вы не можете удалять свои сообщения
Вы не можете голосовать в опросах
Вы не можете прикреплять файлы к сообщениям
Вы не можете скачивать файлы