(Rock, Hard Rock) Rainbow - Live In Japan (2CD) - 1984 (Remastered 2015) [FLAC, image +.cue, lossless]

 
Автор Сообщение

sergej644 ®

Пол:

Стаж: 4 года 11 месяцев

Сообщений: 6040

Откуда: Soviet Union



Награды: Нет

Торрент-статистика

Создавать темы 25-Янв-2016 09:01

[Цитировать]

-Rainbow - Live In Japan (2CD)-- Год | Год издания: 1984 | 2015
Страна: UK
Жанр: Rock, Hard Rock
Продолжительность: 01:44:59-Лейбл издания: Ward Records
Тип альбома: Live
Страна-выпуска диска: Japan
Номер по каталогу: GOCX-90022/23-Формат: FLAC
Битрейт аудио: Lossless
Тип рипа: image +.cue
Наличие сканов в содержимом раздачи: да
-

Трэклист

Disc 1 | 01:05:17


01.Intro(01:49)
02.Spotlight Kid(04:48)
03.Miss Mistreated(04:32)
04.I Surrender(06:30)
05.Can't Happen Here(03:58)
06.Catch The Rainbow(06:44)
07.Power(04:01)
08.Keyboard Solo(04:25)
09.Street Of Dreams(04:43)
10.Fool For The Night(03:59)
11.Difficult To Cure (Beethoven's Ninth)(11:18)
12.Guitar Solo(03:39)
13.Drum Solo(04:55)

Disc 2 | 00:39:43


01.Blues(03:17)
02.Stranded (Inc. Hey Joe)(08:02)
03.Death Alley Driver(05:10)
04.Fire Dance(04:49)
05.Maybe Next Time(01:44)
06.All Night Long (Inc. Woman from Tokyo)(09:08)
07.Lazy(01:32)
08.Since You've Been Gone(01:21)
09.Smoke On The Water(04:44)
-

Лог создания рипа

CD 1

Exact Audio Copy V1.1 from 23. June 2015
EAC extraction logfile from 21. January 2016, 17:28
Rainbow / Live In Japan (Disc.1)
Used drive  : TSSTcorpCDDVDW SH-224DB   Adapter: 1  ID: 0
Read mode               : Secure
Utilize accurate stream : Yes
Defeat audio cache      : Yes
Make use of C2 pointers : No
Read offset correction                      : 6
Overread into Lead-In and Lead-Out          : No
Fill up missing offset samples with silence : Yes
Delete leading and trailing silent blocks   : No
Null samples used in CRC calculations       : Yes
Used interface                              : Native Win32 interface for Win NT & 2000
Used output format              : User Defined Encoder
Selected bitrate                : 1024 kBit/s
Quality                         : High
Add ID3 tag                     : No
Command line compressor         : C:\Program Files (x86)\Exact Audio Copy\win64\flac.exe
Additional command line options :  -V -8 -T "Date=%year%" -T "Genre=%genre%" %source%
TOC of the extracted CD
     Track |   Start  |  Length  | Start sector | End sector
    ---------------------------------------------------------
        1  |  0:00.00 |  1:48.66 |         0    |     8165
        2  |  1:48.66 |  4:47.08 |      8166    |    29698
        3  |  6:35.74 |  4:31.42 |     29699    |    50065
        4  | 11:07.41 |  6:29.62 |     50066    |    79302
        5  | 17:37.28 |  3:57.19 |     79303    |    97096
        6  | 21:34.47 |  6:43.70 |     97097    |   127391
        7  | 28:18.42 |  4:00.43 |    127392    |   145434
        8  | 32:19.10 |  4:24.34 |    145435    |   165268
        9  | 36:43.44 |  4:42.45 |    165269    |   186463
       10  | 41:26.14 |  3:58.31 |    186464    |   204344
       11  | 45:24.45 | 11:17.57 |    204345    |   255176
       12  | 56:42.27 |  3:38.59 |    255177    |   271585
       13  | 60:21.11 |  4:54.68 |    271586    |   293703
Range status and errors
Selected range
     Filename C:\Sket4er\Rainbow - Live In Japan (1984) 2015\CD - 1\Rainbow - Live In Japan (Disc.1).wav
     Peak level 99.8 %
     Extraction speed 2.4 X
     Range quality 100.0 %
     Test CRC AA47A029
     Copy CRC AA47A029
     Copy OK
No errors occurred
AccurateRip summary
Track  1  cannot be verified as accurate (confidence 1)  [341A65C8], AccurateRip returned [FD906EDA]  (AR v2)
Track  2  cannot be verified as accurate (confidence 1)  [5EA9E45A], AccurateRip returned [536E4593]  (AR v2)
Track  3  cannot be verified as accurate (confidence 1)  [452F6F80], AccurateRip returned [7ABDF9B6]  (AR v2)
Track  4  cannot be verified as accurate (confidence 1)  [EB5E1912], AccurateRip returned [5A8A1C19]  (AR v2)
Track  5  cannot be verified as accurate (confidence 1)  [619F7AC0], AccurateRip returned [BE7968BB]  (AR v2)
Track  6  cannot be verified as accurate (confidence 1)  [119152AF], AccurateRip returned [E732DA8B]  (AR v2)
Track  7  cannot be verified as accurate (confidence 1)  [76FA983B], AccurateRip returned [FA8DCD54]  (AR v2)
Track  8  cannot be verified as accurate (confidence 1)  [44B65D4B], AccurateRip returned [1ACDAA20]  (AR v2)
Track  9  cannot be verified as accurate (confidence 1)  [08A99F63], AccurateRip returned [7B7405FD]  (AR v2)
Track 10  cannot be verified as accurate (confidence 1)  [87B79F4D], AccurateRip returned [575DA847]  (AR v2)
Track 11  cannot be verified as accurate (confidence 1)  [2340E81A], AccurateRip returned [B9D922E6]  (AR v2)
Track 12  cannot be verified as accurate (confidence 1)  [8F46617B], AccurateRip returned [38E1E6AA]  (AR v2)
Track 13  cannot be verified as accurate (confidence 1)  [97F57BCB], AccurateRip returned [A6F093A9]  (AR v2)
No tracks could be verified as accurate
You may have a different pressing from the one(s) in the database
End of status report
---- CUETools DB Plugin V2.1.6
[CTDB TOCID: Fkfxiv6yXjea.32vRmyC_2m3dWA-] found
Submit result: Fkfxiv6yXjea.32vRmyC_2m3dWA- has been confirmed
Track | CTDB Status
  1   | (13/13) Accurately ripped
  2   | (13/13) Accurately ripped
  3   | (13/13) Accurately ripped
  4   | (13/13) Accurately ripped
  5   | (13/13) Accurately ripped
  6   | (13/13) Accurately ripped
  7   | (13/13) Accurately ripped
  8   | (13/13) Accurately ripped
  9   | (13/13) Accurately ripped
10   | (13/13) Accurately ripped
11   | (13/13) Accurately ripped
12   | (13/13) Accurately ripped
13   | (13/13) Accurately ripped

CD 2

Exact Audio Copy V1.1 from 23. June 2015
EAC extraction logfile from 21. January 2016, 18:12
Rainbow / Live In Japan (Disc.2)
Used drive  : TSSTcorpCDDVDW SH-224DB   Adapter: 1  ID: 0
Read mode               : Secure
Utilize accurate stream : Yes
Defeat audio cache      : Yes
Make use of C2 pointers : No
Read offset correction                      : 6
Overread into Lead-In and Lead-Out          : No
Fill up missing offset samples with silence : Yes
Delete leading and trailing silent blocks   : No
Null samples used in CRC calculations       : Yes
Used interface                              : Native Win32 interface for Win NT & 2000
Used output format              : User Defined Encoder
Selected bitrate                : 1024 kBit/s
Quality                         : High
Add ID3 tag                     : No
Command line compressor         : C:\Program Files (x86)\Exact Audio Copy\win64\flac.exe
Additional command line options :  -V -8 -T "Date=%year%" -T "Genre=%genre%" %source%
TOC of the extracted CD
     Track |   Start  |  Length  | Start sector | End sector
    ---------------------------------------------------------
        1  |  0:00.00 |  3:16.55 |         0    |    14754
        2  |  3:16.55 |  8:01.65 |     14755    |    50894
        3  | 11:18.45 |  5:09.46 |     50895    |    74115
        4  | 16:28.16 |  4:48.29 |     74116    |    95744
        5  | 21:16.45 |  1:43.47 |     95745    |   103516
        6  | 23:00.17 |  9:07.16 |    103517    |   144557
        7  | 32:07.33 |  1:31.41 |    144558    |   151423
        8  | 33:38.74 |  1:20.29 |    151424    |   157452
        9  | 34:59.28 |  4:43.32 |    157453    |   178709
Range status and errors
Selected range
     Filename C:\Sket4er\Rainbow - Live In Japan (1984) 2015\CD - 2\Rainbow - Live In Japan (Disc.2).wav
     Peak level 99.8 %
     Extraction speed 2.9 X
     Range quality 99.9 %
     Test CRC 01B2BCCD
     Copy CRC 01B2BCCD
     Copy OK
No errors occurred
AccurateRip summary
Track  1  cannot be verified as accurate (confidence 1)  [44B39FF8], AccurateRip returned [A82245EC]  (AR v2)
Track  2  cannot be verified as accurate (confidence 1)  [77B54076], AccurateRip returned [08373C84]  (AR v2)
Track  3  cannot be verified as accurate (confidence 1)  [399386C3], AccurateRip returned [BA4CA80F]  (AR v2)
Track  4  cannot be verified as accurate (confidence 1)  [44955FE8], AccurateRip returned [29230848]  (AR v2)
Track  5  cannot be verified as accurate (confidence 1)  [B517D171], AccurateRip returned [B799E050]  (AR v2)
Track  6  cannot be verified as accurate (confidence 1)  [E42335D7], AccurateRip returned [BF8D7B93]  (AR v2)
Track  7  cannot be verified as accurate (confidence 1)  [7688BDBD], AccurateRip returned [7881B4B2]  (AR v2)
Track  8  cannot be verified as accurate (confidence 1)  [D4B7E29C], AccurateRip returned [73EFA535]  (AR v2)
Track  9  cannot be verified as accurate (confidence 1)  [EC144595], AccurateRip returned [D414965C]  (AR v2)
No tracks could be verified as accurate
You may have a different pressing from the one(s) in the database
End of status report
---- CUETools DB Plugin V2.1.6
[CTDB TOCID: c2dsZpJtpdMZwfPFt8j1dJi8hlc-] found
Submit result: c2dsZpJtpdMZwfPFt8j1dJi8hlc- has been confirmed
Track | CTDB Status
  1   | (13/13) Accurately ripped
  2   | (13/13) Accurately ripped
  3   | (13/13) Accurately ripped
  4   | (13/13) Accurately ripped
  5   | (13/13) Accurately ripped
  6   | (13/13) Accurately ripped
  7   | (13/13) Accurately ripped
  8   | (13/13) Accurately ripped
  9   | (13/13) Accurately ripped

Индексная карта (non-compilant .cue)

CD 1

REM GENRE "Hard Rock"
REM DATE 2015
REM DISCID AD0F4C0D
REM COMMENT "ExactAudioCopy v1.1"
PERFORMER "Rainbow"
TITLE "Live In Japan (Disc.1)"
FILE "Rainbow - Live In Japan (Disc.1).flac" WAVE
  TRACK 01 AUDIO
    TITLE "Intro"
    PERFORMER "Rainbow"
    INDEX 01 00:00:00
  TRACK 02 AUDIO
    TITLE "Spotlight Kid"
    PERFORMER "Rainbow"
    INDEX 01 01:48:66
  TRACK 03 AUDIO
    TITLE "Miss Mistreated"
    PERFORMER "Rainbow"
    INDEX 01 06:35:74
  TRACK 04 AUDIO
    TITLE "I Surrender"
    PERFORMER "Rainbow"
    INDEX 01 11:07:41
  TRACK 05 AUDIO
    TITLE "Can't Happen Here"
    PERFORMER "Rainbow"
    INDEX 01 17:37:28
  TRACK 06 AUDIO
    TITLE "Catch The Rainbow"
    PERFORMER "Rainbow"
    INDEX 01 21:34:47
  TRACK 07 AUDIO
    TITLE "Power"
    PERFORMER "Rainbow"
    INDEX 01 28:18:42
  TRACK 08 AUDIO
    TITLE "Keyboard Solo"
    PERFORMER "Rainbow"
    INDEX 01 32:19:10
  TRACK 09 AUDIO
    TITLE "Street Of Dreams"
    PERFORMER "Rainbow"
    INDEX 01 36:43:44
  TRACK 10 AUDIO
    TITLE "Fool For The Night"
    PERFORMER "Rainbow"
    INDEX 01 41:26:14
  TRACK 11 AUDIO
    TITLE "Difficult To Cure (Beethoven's Ninth)"
    PERFORMER "Rainbow"
    INDEX 01 45:24:45
  TRACK 12 AUDIO
    TITLE "Guitar Solo"
    PERFORMER "Rainbow"
    INDEX 01 56:42:27
  TRACK 13 AUDIO
    TITLE "Drum Solo"
    PERFORMER "Rainbow"
    INDEX 01 60:21:11

CD 2

REM GENRE "Hard Rock"
REM DATE 2015
REM DISCID 71094E09
REM COMMENT "ExactAudioCopy v1.1"
PERFORMER "Rainbow"
TITLE "Live In Japan (Disc.2)"
FILE "Rainbow - Live In Japan (Disc.2).flac" WAVE
  TRACK 01 AUDIO
    TITLE "Blues"
    PERFORMER "Rainbow"
    INDEX 01 00:00:00
  TRACK 02 AUDIO
    TITLE "Stranded (Inc. Hey Joe)"
    PERFORMER "Rainbow"
    INDEX 01 03:16:55
  TRACK 03 AUDIO
    TITLE "Death Alley Driver"
    PERFORMER "Rainbow"
    INDEX 01 11:18:45
  TRACK 04 AUDIO
    TITLE "Fire Dance"
    PERFORMER "Rainbow"
    INDEX 01 16:28:16
  TRACK 05 AUDIO
    TITLE "Maybe Next Time"
    PERFORMER "Rainbow"
    INDEX 01 21:16:45
  TRACK 06 AUDIO
    TITLE "All Night Long (Inc. Woman from Tokyo)"
    PERFORMER "Rainbow"
    INDEX 01 23:00:17
  TRACK 07 AUDIO
    TITLE "Lazy"
    PERFORMER "Rainbow"
    INDEX 01 32:07:33
  TRACK 08 AUDIO
    TITLE "Since You've Been Gone"
    PERFORMER "Rainbow"
    INDEX 01 33:38:74
  TRACK 09 AUDIO
    TITLE "Smoke On The Water"
    PERFORMER "Rainbow"
    INDEX 01 34:59:28

Состав группы:


Ritchie Blackmore - Guitar
Roger Glover - Bass
Joe Lynn Turner - Vocals
David Rosenthal - Keyboards
Chuck Burgi - Drums

Об альбоме (сборнике):

--
[Профиль] [ЛС]
Показать сообщения:    

Текущее время: Сегодня 22:41

Часовой пояс: GMT



Вы не можете начинать темы
Вы не можете отвечать на сообщения
Вы не можете редактировать свои сообщения
Вы не можете удалять свои сообщения
Вы не можете голосовать в опросах
Вы не можете прикреплять файлы к сообщениям
Вы не можете скачивать файлы