(Rock, Hard Rock) Rainbow - A Light In The Black 1975-1984 (5CD+DVD, Polydor, Universal, EU, UK, 5348722) - 2015 [FLAC, image+.cue, lossless]

 
Автор Сообщение

sergej644 ®

Пол:

Стаж: 4 года 11 месяцев

Сообщений: 6038

Откуда: Soviet Union



Награды: Нет

Торрент-статистика

Создавать темы 20-Мар-2015 00:49

[Цитировать]

-Rainbow / A Light In The Black 1975-1984 (2015, 5CD)-- Год издания: 2015
Страна: UK
Жанр: Rock, Hard Rock
Продолжительность: 05:35:09-Лейбл издания: Polydor
Страна-выпуска диска: EU
Номер по каталогу: 5348722
Формат: FLAC
Битрейт аудио: lossless
Тип рипа: image+.cue
Наличие сканов в содержимом раздачи: да

Трэклист

CD 1 | 01:02:48

01. Black Sheep Of The Family (03:22)
02. Sixteenth Century Greensleeves (03:31)
03. Snake Charmer (04:33)
04. Temple Of The King (04:42)
05. Tarot Woman (Rough Mix) (06:08)
06. Stargazer (Rough Mix) (09:11)
07. Run With The Wolf (Rough Mix) (03:52)
08. Mistreated (Live In Osaka, Japan 1976) (11:14)
09. Purple Haze, White Christmas, Lazy, Man On The Silver Mountain, Blues, Man On The Silver Mountain (reprise) (Live In Osaka, Japan 1976) (16:19)

лог создания рипа

Exact Audio Copy V1.0 beta 4 from 7. December 2014
EAC extraction logfile from 17. March 2015, 9:25
Rainbow / A Light In The Black CD1 (1975-1976, 5348723)
Used drive  : ATAPI   iHAS124   B   Adapter: 1  ID: 0
Read mode               : Secure
Utilize accurate stream : Yes
Defeat audio cache      : Yes
Make use of C2 pointers : No
Read offset correction                      : 6
Overread into Lead-In and Lead-Out          : No
Fill up missing offset samples with silence : Yes
Delete leading and trailing silent blocks   : No
Null samples used in CRC calculations       : Yes
Used interface                              : Installed external ASPI interface
Used output format              : User Defined Encoder
Selected bitrate                : 128 kBit/s
Quality                         : High
Add ID3 tag                     : Yes
Command line compressor         : C:\Program Files (x86)\Exact Audio Copy\Flac\flac.exe
Additional command line options : -V -8 -T "Date=%year%" -T "Genre=%genre%" %source%
TOC of the extracted CD
     Track |   Start  |  Length  | Start sector | End sector
    ---------------------------------------------------------
        1  |  0:00.00 |  3:21.31 |         0    |    15105
        2  |  3:21.31 |  3:30.59 |     15106    |    30914
        3  |  6:52.15 |  4:32.37 |     30915    |    51351
        4  | 11:24.52 |  4:41.47 |     51352    |    72473
        5  | 16:06.24 |  6:07.56 |     72474    |   100054
        6  | 22:14.05 |  9:10.13 |    100055    |   141317
        7  | 31:24.18 |  3:51.45 |    141318    |   158687
        8  | 35:15.63 | 11:13.18 |    158688    |   209180
        9  | 46:29.06 | 16:18.29 |    209181    |   282559
Range status and errors
Selected range
     Filename G:\CD\Rainbow - A Light In The Black CD1.wav
     Peak level 97.0 %
     Extraction speed 5.8 X
     Range quality 100.0 %
     Test CRC 6431C5AF
     Copy CRC 6431C5AF
     Copy OK
No errors occurred
AccurateRip summary
Track  1  accurately ripped (confidence 1)  [532F0A71]  (AR v2)
Track  2  accurately ripped (confidence 1)  [4FA157A8]  (AR v2)
Track  3  accurately ripped (confidence 1)  [CE4CAE62]  (AR v2)
Track  4  accurately ripped (confidence 1)  [41462C7B]  (AR v2)
Track  5  accurately ripped (confidence 1)  [17A0596C]  (AR v2)
Track  6  accurately ripped (confidence 1)  [73863994]  (AR v2)
Track  7  accurately ripped (confidence 1)  [0735A728]  (AR v2)
Track  8  accurately ripped (confidence 1)  [6B4C03BF]  (AR v2)
Track  9  accurately ripped (confidence 1)  [36D99549]  (AR v2)
All tracks accurately ripped
End of status report
---- CUETools DB Plugin V2.1.4
[CTDB TOCID: 725b0VgX5dGTOXTBTM9xQ5TWqEU-] found
Submit result: already submitted
Track | CTDB Status
  1   | (10/10) Accurately ripped
  2   | (10/10) Accurately ripped
  3   | (10/10) Accurately ripped
  4   | (10/10) Accurately ripped
  5   | (10/10) Accurately ripped
  6   | (10/10) Accurately ripped
  7   | (10/10) Accurately ripped
  8   | (10/10) Accurately ripped
  9   | (10/10) Accurately ripped

содержание индексной карты *cue

REM GENRE "Hard Rock"
REM DATE 2014
REM DISCID 7D0EB709
REM COMMENT "ExactAudioCopy v1.0b4"
CATALOG 0600753487235
PERFORMER "Rainbow"
TITLE "A Light In The Black 1975-1984 CD1 (1975-1976, 5348723)"
FILE "Rainbow - A Light In The Black CD1.flac" WAVE
  TRACK 01 AUDIO
    TITLE "Black Sheep Of The Family"
    PERFORMER "Rainbow"
    ISRC USPR37587052
    INDEX 01 00:00:00
  TRACK 02 AUDIO
    TITLE "Sixteenth Century Greensleeves"
    PERFORMER "Rainbow"
    ISRC USPR37587056
    INDEX 00 03:19:48
    INDEX 01 03:21:31
  TRACK 03 AUDIO
    TITLE "Snake Charmer"
    PERFORMER "Rainbow"
    ISRC USPR37587053
    INDEX 00 06:50:32
    INDEX 01 06:52:15
  TRACK 04 AUDIO
    TITLE "Temple Of The King"
    PERFORMER "Rainbow"
    ISRC USPR37587054
    INDEX 00 11:22:69
    INDEX 01 11:24:52
  TRACK 05 AUDIO
    TITLE "Tarot Woman (Rough Mix)"
    PERFORMER "Rainbow"
    ISRC GBUM71100349
    INDEX 00 16:04:41
    INDEX 01 16:06:24
  TRACK 06 AUDIO
    TITLE "Stargazer (Rough Mix)"
    PERFORMER "Rainbow"
    ISRC GBUM71100353
    INDEX 00 22:12:22
    INDEX 01 22:14:05
  TRACK 07 AUDIO
    TITLE "Run With The Wolf (Rough Mix)"
    PERFORMER "Rainbow"
    ISRC GBUM71100350
    INDEX 00 31:22:35
    INDEX 01 31:24:18
  TRACK 08 AUDIO
    TITLE "Mistreated (Live In Osaka, Japan 1976)"
    PERFORMER "Rainbow"
    ISRC GB2DY1400097
    INDEX 00 35:13:05
    INDEX 01 35:15:63
  TRACK 09 AUDIO
    TITLE "Purple Haze, White Christmas, Lazy, Man On The Silver Mountain, Blues, Man On The Silver Mountain (reprise) (Live In Osaka, Japan 1976)"
    PERFORMER "Rainbow"
    ISRC GB2DY1400081
    INDEX 00 46:26:23
    INDEX 01 46:29:06

CD 2 | 01:17:52

01. Sensitive To Light (Rough Mix) (03:06)
02. The Shed (Subtle) (04:48)
03. Rainbow Eyes (Rough Mix) (07:07)
04. Jesu, Joy Of Man's Desiring (Rehearsal, Pirate Sound, L.A. August 1977) (01:43)
05. Long Live Rock N Roll (Rehearsal, Pirate Sound, L.A. August 1977) (07:00)
06. Do You Close Your Eyes (Rehearsal, Pirate Sound, L.A. August 1977) (06:22)
07. Still I'm Sad (Rehearsal, Pirate Sound, L.A. August 1977) (10:10)
08. Gates Of Babylon (06:48)
09. Catch The Rainbow (Live Koseinenkin, Osaka, Japan, 17 January 1978) (22:04)
10. Long Live Rock 'n' Roll (Don Kirshner's Rock Concert, NY, May 1978) (03:34)
11. L.A. Connection (Don Kirshner's Rock Concert, NY, May 1978) (05:14)

лог создания рипа

Exact Audio Copy V1.0 beta 4 from 7. December 2014
EAC extraction logfile from 17. March 2015, 10:01
Rainbow / A Light In The Black CD2 (1977-1978, 5348723)
Used drive  : ATAPI   iHAS124   B   Adapter: 1  ID: 0
Read mode               : Secure
Utilize accurate stream : Yes
Defeat audio cache      : Yes
Make use of C2 pointers : No
Read offset correction                      : 6
Overread into Lead-In and Lead-Out          : No
Fill up missing offset samples with silence : Yes
Delete leading and trailing silent blocks   : No
Null samples used in CRC calculations       : Yes
Used interface                              : Installed external ASPI interface
Used output format              : User Defined Encoder
Selected bitrate                : 128 kBit/s
Quality                         : High
Add ID3 tag                     : Yes
Command line compressor         : C:\Program Files (x86)\Exact Audio Copy\Flac\flac.exe
Additional command line options : -V -8 -T "Date=%year%" -T "Genre=%genre%" %source%
TOC of the extracted CD
     Track |   Start  |  Length  | Start sector | End sector
    ---------------------------------------------------------
        1  |  0:00.00 |  3:05.53 |         0    |    13927
        2  |  3:05.53 |  4:47.62 |     13928    |    35514
        3  |  7:53.40 |  7:06.45 |     35515    |    67509
        4  | 15:00.10 |  1:42.31 |     67510    |    75190
        5  | 16:42.41 |  6:59.23 |     75191    |   106638
        6  | 23:41.64 |  6:21.61 |    106639    |   135274
        7  | 30:03.50 | 10:09.43 |    135275    |   180992
        8  | 40:13.18 |  6:47.64 |    180993    |   211581
        9  | 47:01.07 | 22:03.50 |    211582    |   310856
       10  | 69:04.57 |  3:33.68 |    310857    |   326899
       11  | 72:38.50 |  5:13.13 |    326900    |   350387
Range status and errors
Selected range
     Filename G:\CD\Rainbow - A Light In The Black CD2.wav
     Peak level 97.0 %
     Extraction speed 6.6 X
     Range quality 100.0 %
     Test CRC CF9C20DC
     Copy CRC CF9C20DC
     Copy OK
No errors occurred
AccurateRip summary
Track  1  accurately ripped (confidence 1)  [B6C5DBFF]  (AR v2)
Track  2  accurately ripped (confidence 1)  [EFD6C299]  (AR v2)
Track  3  accurately ripped (confidence 1)  [E5222ACF]  (AR v2)
Track  4  accurately ripped (confidence 1)  [E5D91609]  (AR v2)
Track  5  accurately ripped (confidence 1)  [98E4A892]  (AR v2)
Track  6  accurately ripped (confidence 1)  [45337C5B]  (AR v2)
Track  7  accurately ripped (confidence 1)  [3161F54C]  (AR v2)
Track  8  accurately ripped (confidence 1)  [6E2E101B]  (AR v2)
Track  9  accurately ripped (confidence 1)  [1D377329]  (AR v2)
Track 10  accurately ripped (confidence 1)  [419A874E]  (AR v2)
Track 11  accurately ripped (confidence 1)  [CE4F95E9]  (AR v2)
All tracks accurately ripped
End of status report
---- CUETools DB Plugin V2.1.4
[CTDB TOCID: 36Xj8GaPu_7X0mkuKJsAdqTjZTw-] found
Submit result: already submitted
Track | CTDB Status
  1   | (10/10) Accurately ripped
  2   | (10/10) Accurately ripped
  3   | (10/10) Accurately ripped
  4   | (10/10) Accurately ripped
  5   | (10/10) Accurately ripped
  6   | (10/10) Accurately ripped
  7   | (10/10) Accurately ripped
  8   | (10/10) Accurately ripped
  9   | (10/10) Accurately ripped
10   | (10/10) Accurately ripped
11   | (10/10) Accurately ripped

содержание индексной карты *cue

REM GENRE "Hard Rock"
REM DATE 2014
REM DISCID 81123F0B
REM COMMENT "ExactAudioCopy v1.0b4"
CATALOG 0600753487242
PERFORMER "Rainbow"
TITLE "A Light In The Black 1975-1984 CD2 (1977-1978, 5348723)"
FILE "Rainbow - A Light In The Black CD2.flac" WAVE
  TRACK 01 AUDIO
    TITLE "Sensitive To Light (Rough Mix)"
    PERFORMER "Rainbow"
    ISRC USUM71209120
    INDEX 01 00:00:00
  TRACK 02 AUDIO
    TITLE "The Shed (Subtle)"
    PERFORMER "Rainbow"
    ISRC USPR37887029
    INDEX 00 03:03:70
    INDEX 01 03:05:53
  TRACK 03 AUDIO
    TITLE "Rainbow Eyes (Rough Mix)"
    PERFORMER "Rainbow"
    ISRC USUM71209121
    INDEX 00 07:50:57
    INDEX 01 07:53:40
  TRACK 04 AUDIO
    TITLE "Jesu, Joy Of Man's Desiring (Rehearsal, Pirate Sound, L.A. August 1977)"
    PERFORMER "Rainbow"
    ISRC GB2DY1400041
    INDEX 00 14:59:27
    INDEX 01 15:00:10
  TRACK 05 AUDIO
    TITLE "Long Live Rock N Roll (Rehearsal, Pirate Sound, L.A. August 1977)"
    PERFORMER "Rainbow"
    ISRC GBUM71205566
    INDEX 00 16:40:58
    INDEX 01 16:42:41
  TRACK 06 AUDIO
    TITLE "Do You Close Your Eyes (Rehearsal, Pirate Sound, L.A. August 1977)"
    PERFORMER "Rainbow"
    ISRC GB2DY1400042
    INDEX 00 23:39:06
    INDEX 01 23:41:64
  TRACK 07 AUDIO
    TITLE "Still I'm Sad (Rehearsal, Pirate Sound, L.A. August 1977)"
    PERFORMER "Rainbow"
    ISRC GB2DY1400043
    INDEX 00 30:00:67
    INDEX 01 30:03:50
  TRACK 08 AUDIO
    TITLE "Gates Of Babylon"
    PERFORMER "Rainbow"
    ISRC USPR37880080
    INDEX 00 40:10:35
    INDEX 01 40:13:18
  TRACK 09 AUDIO
    TITLE "Catch The Rainbow (Live Koseinenkin, Osaka, Japan, 17 January 1978)"
    PERFORMER "Rainbow"
    ISRC USUM71413299
    INDEX 00 46:59:24
    INDEX 01 47:01:07
  TRACK 10 AUDIO
    TITLE "Long Live Rock 'n' Roll (Don Kirshner's Rock Concert, NY, May 1978)"
    PERFORMER "Rainbow"
    ISRC GB2DY1400083
    INDEX 00 69:02:74
    INDEX 01 69:04:57
  TRACK 11 AUDIO
    TITLE "L.A. Connection (Don Kirshner's Rock Concert, NY, May 1978)"
    PERFORMER "Rainbow"
    ISRC GB2DY1400082
    INDEX 00 72:36:67
    INDEX 01 72:38:50

CD 3 | 01:10:28

01. Eyes Of The World (Instrumental Outtake) (06:54)
02. Ain't A Lot Of Love In The Heart Of Me (Alternative Outtake) (05:02)
03. Lost In Hollywood (04:53)
04. Danger Zone (04:30)
05. Since You Been Gone (03:20)
06. Bad Girl (04:52)
07. Over The Rainbow, Eyes Of The World (Live Calderone Hall, NY, 30 Nov' 1979) (09:24)
08. Love's No Friend (Live Calderone Hall, NY, 30 Nov' 1979) (08:13)
09. Beethoven: Ode To Joy (Live Calderone Hall, NY, 30 Nov' 1979) (05:45)
10. All Night Long (Single Remix Version) (03:53)
11. Weiss Heim (05:14)
12. Stargazer (Live At Castle Donington,1980) (08:33)

лог создания рипа

Exact Audio Copy V1.0 beta 4 from 7. December 2014
EAC extraction logfile from 16. March 2015, 23:07
Rainbow / A Light In The Black CD3 (1979-1980, 5348725)
Used drive  : ATAPI   iHAS124   B   Adapter: 1  ID: 0
Read mode               : Secure
Utilize accurate stream : Yes
Defeat audio cache      : Yes
Make use of C2 pointers : No
Read offset correction                      : 6
Overread into Lead-In and Lead-Out          : No
Fill up missing offset samples with silence : Yes
Delete leading and trailing silent blocks   : No
Null samples used in CRC calculations       : Yes
Used interface                              : Installed external ASPI interface
Used output format              : User Defined Encoder
Selected bitrate                : 128 kBit/s
Quality                         : High
Add ID3 tag                     : Yes
Command line compressor         : C:\Program Files (x86)\Exact Audio Copy\Flac\flac.exe
Additional command line options : -V -8 -T "Date=%year%" -T "Genre=%genre%" %source%
TOC of the extracted CD
     Track |   Start  |  Length  | Start sector | End sector
    ---------------------------------------------------------
        1  |  0:00.00 |  6:53.34 |         0    |    31008
        2  |  6:53.34 |  5:01.42 |     31009    |    53625
        3  | 11:55.01 |  4:52.69 |     53626    |    75594
        4  | 16:47.70 |  4:29.50 |     75595    |    95819
        5  | 21:17.45 |  3:19.32 |     95820    |   110776
        6  | 24:37.02 |  4:51.61 |    110777    |   132662
        7  | 29:28.63 |  9:23.24 |    132663    |   174911
        8  | 38:52.12 |  8:12.40 |    174912    |   211851
        9  | 47:04.52 |  5:44.64 |    211852    |   237715
       10  | 52:49.41 |  3:52.31 |    237716    |   255146
       11  | 56:41.72 |  5:13.18 |    255147    |   278639
       12  | 61:55.15 |  8:32.60 |    278640    |   317099
Range status and errors
Selected range
     Filename G:\CD\Rainbow - A Light In The Black CD3.wav
     Peak level 97.0 %
     Extraction speed 5.9 X
     Range quality 99.9 %
     Test CRC 41483B27
     Copy CRC 41483B27
     Copy OK
No errors occurred
AccurateRip summary
Track  1  accurately ripped (confidence 1)  [9D5A1B88]  (AR v2)
Track  2  accurately ripped (confidence 1)  [4C82CC07]  (AR v2)
Track  3  accurately ripped (confidence 1)  [F50D1992]  (AR v2)
Track  4  accurately ripped (confidence 1)  [933E9287]  (AR v2)
Track  5  accurately ripped (confidence 1)  [28D87DB5]  (AR v2)
Track  6  accurately ripped (confidence 1)  [E73455EE]  (AR v2)
Track  7  accurately ripped (confidence 1)  [CDC04E22]  (AR v2)
Track  8  accurately ripped (confidence 1)  [639FACE1]  (AR v2)
Track  9  accurately ripped (confidence 1)  [3A7B4B8D]  (AR v2)
Track 10  accurately ripped (confidence 1)  [2F89718B]  (AR v2)
Track 11  accurately ripped (confidence 1)  [6A530FA8]  (AR v2)
Track 12  accurately ripped (confidence 1)  [787AB1E1]  (AR v2)
All tracks accurately ripped
End of status report
---- CUETools DB Plugin V2.1.4
[CTDB TOCID: _FE72CpE1_JL93cF2DbQqOjA0HI-] found
Submit result: _FE72CpE1_JL93cF2DbQqOjA0HI- has been confirmed
Track | CTDB Status
  1   | (9/9) Accurately ripped
  2   | (9/9) Accurately ripped
  3   | (9/9) Accurately ripped
  4   | (9/9) Accurately ripped
  5   | (9/9) Accurately ripped
  6   | (9/9) Accurately ripped
  7   | (9/9) Accurately ripped
  8   | (9/9) Accurately ripped
  9   | (9/9) Accurately ripped
10   | (9/9) Accurately ripped
11   | (9/9) Accurately ripped
12   | (9/9) Accurately ripped

содержание индексной карты *cue

REM GENRE "Hard Rock"
REM DATE 2014
REM DISCID A210840C
REM COMMENT "ExactAudioCopy v1.0b4"
CATALOG 0600753487259
PERFORMER "Rainbow"
TITLE "A Light In The Black 1975-1984 CD3 (1979-1980, 5348725)"
FILE "Rainbow - A Light In The Black CD3.flac" WAVE
  TRACK 01 AUDIO
    TITLE "Eyes Of The World (Instrumental Outtake)"
    PERFORMER "Rainbow"
    ISRC USUM71025359
    INDEX 01 00:00:00
  TRACK 02 AUDIO
    TITLE "Ain't A Lot Of Love In The Heart Of Me (Alternative Outtake)"
    PERFORMER "Rainbow"
    ISRC USUM71025367
    INDEX 00 06:51:34
    INDEX 01 06:53:34
  TRACK 03 AUDIO
    TITLE "Lost In Hollywood"
    PERFORMER "Rainbow"
    ISRC USPR37987030
    INDEX 00 11:53:01
    INDEX 01 11:55:01
  TRACK 04 AUDIO
    TITLE "Danger Zone"
    PERFORMER "Rainbow"
    ISRC USPR37970002
    INDEX 00 16:45:70
    INDEX 01 16:47:70
  TRACK 05 AUDIO
    TITLE "Since You Been Gone"
    PERFORMER "Rainbow"
    ISRC USPR37930021
    INDEX 00 21:15:45
    INDEX 01 21:17:45
  TRACK 06 AUDIO
    TITLE "Bad Girl"
    PERFORMER "Rainbow"
    ISRC USA277900010
    INDEX 00 24:35:02
    INDEX 01 24:37:02
  TRACK 07 AUDIO
    TITLE "Over The Rainbow, Eyes Of The World (Live Calderone Hall, NY, 30 Nov' 1979)"
    PERFORMER "Rainbow"
    ISRC GB2DY1400086
    INDEX 00 29:26:63
    INDEX 01 29:28:63
  TRACK 08 AUDIO
    TITLE "Love's No Friend (Live Calderone Hall, NY, 30 Nov' 1979)"
    PERFORMER "Rainbow"
    ISRC GB2DY1400084
    INDEX 01 38:52:12
  TRACK 09 AUDIO
    TITLE "Beethoven: Ode To Joy (Live Calderone Hall, NY, 30 Nov' 1979)"
    PERFORMER "Rainbow"
    ISRC GB2DY1400085
    INDEX 00 47:01:52
    INDEX 01 47:04:52
  TRACK 10 AUDIO
    TITLE "All Night Long (Single Remix Version)"
    PERFORMER "Rainbow"
    ISRC USUM71411313
    INDEX 00 52:46:41
    INDEX 01 52:49:41
  TRACK 11 AUDIO
    TITLE "Weiss Heim"
    PERFORMER "Rainbow"
    ISRC USPR38687036
    INDEX 00 56:39:72
    INDEX 01 56:41:72
  TRACK 12 AUDIO
    TITLE "Stargazer (Live At Castle Donington,1980)"
    PERFORMER "Rainbow"
    ISRC USUM71411343
    INDEX 00 61:53:15
    INDEX 01 61:55:15

CD 4 | 00:59:03

01. Midtown Tunnel Vision (04:36)
02. I Surrender (04:04)
03. Magic (04:09)
04. Vielleicht Das Nachster Mal (03:20)
05. Jealous Lover (03:14)
06. Spotlight Kid (Live At Hammersmith Odeon, London 27 July 1981) (05:11)
07. Rule Britannia, Fire (Live At Hammersmith Odeon, London 27 July 1981) (02:53)
08. Death Alley Driver (04:44)
09. Bring On The Night (Dream Chaser) (04:08)
10. Stone Cold (05:20)
11. Power (Live Convention Centre, San Antonio, Texas, 18 August 1982) (04:41)
12. Miss Mistreated (Live Convention Centre, San Antonio, Texas, 18 August 1982) (04:28)
13. Tearin' Out My Heart (Live Convention Centre, San Antonio, Texas, 18 August 1982) (08:21)

лог создания рипа

Exact Audio Copy V1.0 beta 4 from 7. December 2014
EAC extraction logfile from 17. March 2015, 7:43
Rainbow / A Light In The Black CD4 (1981-1982, 5348726)
Used drive  : ATAPI   iHAS124   B   Adapter: 1  ID: 0
Read mode               : Secure
Utilize accurate stream : Yes
Defeat audio cache      : Yes
Make use of C2 pointers : No
Read offset correction                      : 6
Overread into Lead-In and Lead-Out          : No
Fill up missing offset samples with silence : Yes
Delete leading and trailing silent blocks   : No
Null samples used in CRC calculations       : Yes
Used interface                              : Installed external ASPI interface
Used output format              : User Defined Encoder
Selected bitrate                : 128 kBit/s
Quality                         : High
Add ID3 tag                     : Yes
Command line compressor         : C:\Program Files (x86)\Exact Audio Copy\Flac\flac.exe
Additional command line options : -V -8 -T "Date=%year%" -T "Genre=%genre%" %source%
TOC of the extracted CD
     Track |   Start  |  Length  | Start sector | End sector
    ---------------------------------------------------------
        1  |  0:00.00 |  4:35.15 |         0    |    20639
        2  |  4:35.15 |  4:03.42 |     20640    |    38906
        3  |  8:38.57 |  4:08.58 |     38907    |    57564
        4  | 12:47.40 |  3:19.51 |     57565    |    72540
        5  | 16:07.16 |  3:13.55 |     72541    |    87070
        6  | 19:20.71 |  5:10.09 |     87071    |   110329
        7  | 24:31.05 |  2:52.38 |    110330    |   123267
        8  | 27:23.43 |  4:43.52 |    123268    |   144544
        9  | 32:07.20 |  4:07.65 |    144545    |   163134
       10  | 36:15.10 |  5:19.14 |    163135    |   187073
       11  | 41:34.24 |  4:40.54 |    187074    |   208127
       12  | 46:15.03 |  4:27.31 |    208128    |   228183
       13  | 50:42.34 |  8:20.23 |    228184    |   265706
Range status and errors
Selected range
     Filename G:\CD\Rainbow - A Light In The Black CD4.wav
     Peak level 97.0 %
     Extraction speed 5.7 X
     Range quality 99.9 %
     Test CRC F5FBB002
     Copy CRC F5FBB002
     Copy OK
No errors occurred
AccurateRip summary
Track  1  accurately ripped (confidence 1)  [13A75671]  (AR v2)
Track  2  accurately ripped (confidence 1)  [7781E3D9]  (AR v2)
Track  3  accurately ripped (confidence 1)  [0164752C]  (AR v2)
Track  4  accurately ripped (confidence 1)  [937907CD]  (AR v2)
Track  5  accurately ripped (confidence 1)  [66B80843]  (AR v2)
Track  6  accurately ripped (confidence 1)  [CC7D9158]  (AR v2)
Track  7  accurately ripped (confidence 1)  [9B040BE4]  (AR v2)
Track  8  accurately ripped (confidence 1)  [BD60C066]  (AR v2)
Track  9  accurately ripped (confidence 1)  [51B1F14D]  (AR v2)
Track 10  accurately ripped (confidence 1)  [1D47A524]  (AR v2)
Track 11  accurately ripped (confidence 1)  [00E1365E]  (AR v2)
Track 12  accurately ripped (confidence 1)  [F649BB2E]  (AR v2)
Track 13  accurately ripped (confidence 1)  [72909836]  (AR v2)
All tracks accurately ripped
End of status report
---- CUETools DB Plugin V2.1.4
[CTDB TOCID: zrrW4hTgJD1G0J9swYq96U7ICWk-] found
Submit result: already submitted
Track | CTDB Status
  1   | (10/10) Accurately ripped
  2   | (10/10) Accurately ripped
  3   | (10/10) Accurately ripped
  4   | (10/10) Accurately ripped
  5   | (10/10) Accurately ripped
  6   | (10/10) Accurately ripped
  7   | (10/10) Accurately ripped
  8   | (10/10) Accurately ripped
  9   | (10/10) Accurately ripped
10   | (10/10) Accurately ripped
11   | (10/10) Accurately ripped
12   | (10/10) Accurately ripped
13   | (10/10) Accurately ripped

содержание индексной карты *cue

REM GENRE "Hard Rock"
REM DATE 2014
REM DISCID CD0DD60D
REM COMMENT "ExactAudioCopy v1.0b4"
CATALOG 0600753487266
PERFORMER "Rainbow"
TITLE "A Light In The Black 1975-1984 CD4 (1981-1982, 5348726)"
FILE "Rainbow - A Light In The Black CD4.flac" WAVE
  TRACK 01 AUDIO
    TITLE "Midtown Tunnel Vision"
    PERFORMER "Rainbow"
    ISRC USF068100080
    INDEX 01 00:00:00
  TRACK 02 AUDIO
    TITLE "I Surrender"
    PERFORMER "Rainbow"
    ISRC USF068100010
    INDEX 00 04:33:32
    INDEX 01 04:35:15
  TRACK 03 AUDIO
    TITLE "Magic"
    PERFORMER "Rainbow"
    ISRC USF068100040
    INDEX 00 08:36:74
    INDEX 01 08:38:57
  TRACK 04 AUDIO
    TITLE "Vielleicht Das Nachster Mal"
    PERFORMER "Rainbow"
    ISRC USF068100050
    INDEX 00 12:45:57
    INDEX 01 12:47:40
  TRACK 05 AUDIO
    TITLE "Jealous Lover"
    PERFORMER "Rainbow"
    ISRC USA078100010
    INDEX 00 16:05:33
    INDEX 01 16:07:16
  TRACK 06 AUDIO
    TITLE "Spotlight Kid (Live At Hammersmith Odeon, London 27 July 1981)"
    PERFORMER "Rainbow"
    ISRC GB2DY1400088
    INDEX 00 19:18:13
    INDEX 01 19:20:71
  TRACK 07 AUDIO
    TITLE "Rule Britannia, Fire (Live At Hammersmith Odeon, London 27 July 1981)"
    PERFORMER "Rainbow"
    ISRC GB2DY1400087
    INDEX 00 24:28:22
    INDEX 01 24:31:05
  TRACK 08 AUDIO
    TITLE "Death Alley Driver"
    PERFORMER "Rainbow"
    ISRC USF068200010
    INDEX 00 27:20:60
    INDEX 01 27:23:43
  TRACK 09 AUDIO
    TITLE "Bring On The Night (Dream Chaser)"
    PERFORMER "Rainbow"
    ISRC USF068200030
    INDEX 00 32:05:37
    INDEX 01 32:07:20
  TRACK 10 AUDIO
    TITLE "Stone Cold"
    PERFORMER "Rainbow"
    ISRC USPR38280085
    INDEX 00 36:13:27
    INDEX 01 36:15:10
  TRACK 11 AUDIO
    TITLE "Power (Live Convention Centre, San Antonio, Texas, 18 August 1982)"
    PERFORMER "Rainbow"
    ISRC USUM71409210
    INDEX 00 41:31:41
    INDEX 01 41:34:24
  TRACK 12 AUDIO
    TITLE "Miss Mistreated (Live Convention Centre, San Antonio, Texas, 18 August 1982)"
    PERFORMER "Rainbow"
    ISRC USUM71409209
    INDEX 00 46:13:20
    INDEX 01 46:15:03
  TRACK 13 AUDIO
    TITLE "Tearin' Out My Heart (Live Convention Centre, San Antonio, Texas, 18 August 1982)"
    PERFORMER "Rainbow"
    ISRC USUM71409250
    INDEX 00 50:40:51
    INDEX 01 50:42:34

CD 5 | 01:04:59

01. Can’t Let You Go (04:23)
02. Desperate Heart (04:38)
03. Anybody There (Outtake / Polar Mix) (02:54)
04. Drinking With The Devil (Outtake With Alternative Different Guitar Solo) (03:45)
05. Make Your Move (05:28)
06. Snowman (04:34)
07. Street Of Dreams (04:29)
08. Stranded (Live at St. David’s Hall, Cardiff 1983) (05:52)
09. Power (Live at St. David’s Hall, Cardiff 1983) (04:31)
10. Fire Dance (Live at St. David’s Hall, Cardiff 1983) (04:30)
11. Fool For the Night (Live Budokan, Tokyo, Japan, 14 March 1984) (04:00)
12. Difficult To Cure (Live Budokan, Tokyo, Japan, 14 March 1984) (11:19)
13. Smoke On The Water (Live Budokan, Tokyo, Japan, 14 March 1984) (04:43)

лог создания рипа

Exact Audio Copy V1.0 beta 4 from 7. December 2014
EAC extraction logfile from 17. March 2015, 10:50
Rainbow / A Light In The Black CD5 (1983-1984, 5348727)
Used drive  : ATAPI   iHAS124   B   Adapter: 1  ID: 0
Read mode               : Secure
Utilize accurate stream : Yes
Defeat audio cache      : Yes
Make use of C2 pointers : No
Read offset correction                      : 6
Overread into Lead-In and Lead-Out          : No
Fill up missing offset samples with silence : Yes
Delete leading and trailing silent blocks   : No
Null samples used in CRC calculations       : Yes
Used interface                              : Installed external ASPI interface
Used output format              : User Defined Encoder
Selected bitrate                : 128 kBit/s
Quality                         : High
Add ID3 tag                     : Yes
Command line compressor         : C:\Program Files (x86)\Exact Audio Copy\Flac\flac.exe
Additional command line options : -V -8 -T "Date=%year%" -T "Genre=%genre%" %source%
TOC of the extracted CD
     Track |   Start  |  Length  | Start sector | End sector
    ---------------------------------------------------------
        1  |  0:00.00 |  4:22.36 |         0    |    19685
        2  |  4:22.36 |  4:37.05 |     19686    |    40465
        3  |  8:59.41 |  2:53.03 |     40466    |    53443
        4  | 11:52.44 |  3:44.61 |     53444    |    70304
        5  | 15:37.30 |  5:27.72 |     70305    |    94901
        6  | 21:05.27 |  4:33.17 |     94902    |   115393
        7  | 25:38.44 |  4:28.46 |    115394    |   135539
        8  | 30:07.15 |  5:51.27 |    135540    |   161891
        9  | 35:58.42 |  4:30.06 |    161892    |   182147
       10  | 40:28.48 |  4:29.15 |    182148    |   202337
       11  | 44:57.63 |  3:59.32 |    202338    |   220294
       12  | 48:57.20 | 11:18.50 |    220295    |   271194
       13  | 60:15.70 |  4:42.16 |    271195    |   292360
Range status and errors
Selected range
     Filename G:\CD\Rainbow - A Light In The Black CD5.wav
     Peak level 97.0 %
     Extraction speed 5.9 X
     Range quality 100.0 %
     Test CRC 80DCF8A3
     Copy CRC 80DCF8A3
     Copy OK
No errors occurred
AccurateRip summary
Track  1  accurately ripped (confidence 1)  [B4640AE0]  (AR v2)
Track  2  accurately ripped (confidence 1)  [5114D238]  (AR v2)
Track  3  accurately ripped (confidence 1)  [31C0CC2A]  (AR v2)
Track  4  accurately ripped (confidence 1)  [575BDA3D]  (AR v2)
Track  5  accurately ripped (confidence 1)  [7ECEC4DC]  (AR v2)
Track  6  accurately ripped (confidence 1)  [6171D10F]  (AR v2)
Track  7  accurately ripped (confidence 1)  [5A1A2B3F]  (AR v2)
Track  8  accurately ripped (confidence 1)  [A73C4EE8]  (AR v2)
Track  9  accurately ripped (confidence 1)  [6DD605C2]  (AR v2)
Track 10  accurately ripped (confidence 1)  [F418DA87]  (AR v2)
Track 11  accurately ripped (confidence 1)  [FE31A603]  (AR v2)
Track 12  accurately ripped (confidence 1)  [189FED62]  (AR v2)
Track 13  accurately ripped (confidence 1)  [2AF65B96]  (AR v2)
All tracks accurately ripped
End of status report
---- CUETools DB Plugin V2.1.4
[CTDB TOCID: ARgtGhJ33mjZbWCKknCAd8e7IS8-] found
Submit result: ARgtGhJ33mjZbWCKknCAd8e7IS8- has been confirmed
Track | CTDB Status
  1   | (8/8) Accurately ripped
  2   | (8/8) Accurately ripped
  3   | (8/8) Accurately ripped
  4   | (8/8) Accurately ripped
  5   | (8/8) Accurately ripped
  6   | (8/8) Accurately ripped
  7   | (8/8) Accurately ripped
  8   | (8/8) Accurately ripped
  9   | (8/8) Accurately ripped
10   | (8/8) Accurately ripped
11   | (8/8) Accurately ripped
12   | (8/8) Accurately ripped
13   | (8/8) Accurately ripped

содержание индексной карты *cue

REM GENRE "Hard Rock"
REM DATE 2014
REM DISCID B90F3A0D
REM COMMENT "ExactAudioCopy v1.0b4"
CATALOG 0600753487273
PERFORMER "Rainbow"
TITLE "A Light In The Black 1975-1984 CD5 (1983-1984, 5348727)"
FILE "Rainbow - A Light In The Black CD5.flac" WAVE
  TRACK 01 AUDIO
    TITLE "Can’t Let You Go"
    PERFORMER "Rainbow"
    ISRC USPR38380087
    INDEX 01 00:00:00
  TRACK 02 AUDIO
    TITLE "Desperate Heart"
    PERFORMER "Rainbow"
    ISRC USUM70600257
    INDEX 00 04:20:36
    INDEX 01 04:22:36
  TRACK 03 AUDIO
    TITLE "Anybody There (Outtake / Polar Mix)"
    PERFORMER "Rainbow"
    ISRC USUM71411380
    INDEX 00 08:57:41
    INDEX 01 08:59:41
  TRACK 04 AUDIO
    TITLE "Drinking With The Devil (Outtake With Alternative Different Guitar Solo)"
    PERFORMER "Rainbow"
    ISRC USUM71411381
    INDEX 00 11:50:44
    INDEX 01 11:52:44
  TRACK 05 AUDIO
    TITLE "Make Your Move"
    PERFORMER "Rainbow"
    ISRC USPR38387029
    INDEX 00 15:35:30
    INDEX 01 15:37:30
  TRACK 06 AUDIO
    TITLE "Snowman"
    PERFORMER "Rainbow"
    ISRC USPR38387028
    INDEX 00 21:03:27
    INDEX 01 21:05:27
  TRACK 07 AUDIO
    TITLE "Street Of Dreams"
    PERFORMER "Rainbow"
    ISRC USPR38370015
    INDEX 00 25:36:44
    INDEX 01 25:38:44
  TRACK 08 AUDIO
    TITLE "Stranded (Live at St. David’s Hall, Cardiff 1983)"
    PERFORMER "Rainbow"
    ISRC USUM71412990
    INDEX 00 30:04:16
    INDEX 01 30:07:15
  TRACK 09 AUDIO
    TITLE "Power (Live at St. David’s Hall, Cardiff 1983)"
    PERFORMER "Rainbow"
    ISRC USUM71409255
    INDEX 01 35:58:42
  TRACK 10 AUDIO
    TITLE "Fire Dance (Live at St. David’s Hall, Cardiff 1983)"
    PERFORMER "Rainbow"
    ISRC USUM71409251
    INDEX 01 40:28:48
  TRACK 11 AUDIO
    TITLE "Fool For the Night (Live Budokan, Tokyo, Japan, 14 March 1984)"
    PERFORMER "Rainbow"
    ISRC USUM71409254
    INDEX 00 44:54:63
    INDEX 01 44:57:63
  TRACK 12 AUDIO
    TITLE "Difficult To Cure (Live Budokan, Tokyo, Japan, 14 March 1984)"
    PERFORMER "Rainbow"
    ISRC USPR38687031
    INDEX 01 48:57:20
  TRACK 13 AUDIO
    TITLE "Smoke On The Water (Live Budokan, Tokyo, Japan, 14 March 1984)"
    PERFORMER "Rainbow"
    ISRC USUM71409262
    INDEX 00 60:13:70
    INDEX 01 60:15:70

Скриншот спектра частот

информация о релизе

26 января в продажу поступил новый бокс-сет Rainbow "A Light in the Black 1975-1984". В бокс-сет войдут 6 дисков и 60-страничный буклет с фотографиями Росса Халфина /
В бокс-сете будет представлен ранее неизданный материал:
1) запись репетиции Rainbow 1977 года из личного архива Боба Дэйсли:
- вещь И.С. баха "Jesu, Joy of Man's Desiring" в исполнении Ричи;
- "Long Live Rock N Roll";
- "Do You Close Your Eyes";
- "Still I'm Sad".
2) концертная версия "Catch The Rainbow" 1976 года с концерта с неуказанной датой.
3) Инструментальный аут-тейк "Eyes Of The World".
4) "Eyes Of The World", "Love's No Friend" и "Ode To Joy" из концерта в Нью-Йорке 1979-го года - совершенно новый материал.
5) "Spotlight Kid" и "Fire" из концерта в Лондоне 1981 года, ранее было доступно только на бутлеге.
6) Аут-тейк и полярный микс "Anybody There"!
7) "Drinking With The Devil" - аут-тейк с альтернативным соло Блэкмора!
8) "Stranded", "Power" и "Fire Dance" из концерта в Кардиффе 1983 года.
9) Все песни, не вошедшие на видео концерта в Доннингтоне 1980-го года(таким образом, на DVD будет представлен обычный получасовой фильм, а на CD остальные песни).
--


Последний раз редактировалось: sergej644 (2016-02-25 16:46), всего редактировалось 1 раз
[Профиль] [ЛС]

Garik014

Пол:

Стаж: 1 год 9 месяцев

Сообщений: 460

Откуда: Черкассы



Награды: 1 (Подробнее)

Mega Seeder 1 (Количество: 1)
Торрент-статистика

Создавать темы 20-Мар-2015 06:32 (спустя 5 часов)

[Цитировать]

сережа, вопрос, я могу делится музыкой ? Т.Е вкусняшки братьям расдать!
[Профиль] [ЛС]
Показать сообщения:    

Текущее время: Сегодня 12:33

Часовой пояс: GMT



Вы не можете начинать темы
Вы не можете отвечать на сообщения
Вы не можете редактировать свои сообщения
Вы не можете удалять свои сообщения
Вы не можете голосовать в опросах
Вы не можете прикреплять файлы к сообщениям
Вы не можете скачивать файлы