(Heavy, Power Metal) Rage - The Soundchaser Archives 30th Anniversary (2CD) - 2014 [FLAC, image+.cue, lossless]

 
Автор Сообщение

sergej644 ®

Пол:

Стаж: 4 года 11 месяцев

Сообщений: 6045

Откуда: Soviet Union



Награды: Нет

Торрент-статистика

Создавать темы 17-Мар-2015 09:55

[Цитировать]

-Rage / The Soundchaser Archives 30th Anniversary (2CD)-- Год издания: 2014
Страна: Germany
Жанр: Heavy, Power Metal
Продолжительность: 02:15:38-Лейбл издания: Nuclear Blast Records
Тип альбома: Compilation
Страна-выпуска диска: EU
Номер по каталогу: 27361 32250
Формат: FLAC
Битрейт аудио: lossless
Тип рипа: image+.cue
Наличие сканов в содержимом раздачи: да

Трэклист

CD 1 | 01:07:58

01. Anybody Home? (New Demo 2014) (04:55)
02. Mistery Trip (Bonus Track 2002) (04:17)
03. In Union (Unreleased Demo 2006) (03:32)
04. Long Hard Road (Demo 2007) (04:42)
05. Full Moon (International Version) (04:54)
06. Nevermore (Demo 1993) (04:14)
07. French Bourree (Bonus Track 2003) (04:12)
08. Another Perfect Day (Demo 2006) (03:49)
09. Enough Is Enough (Demo 1991) (07:02)
10. Here Comes The Night (Unreleased Demo 2002) (03:15)
11. Spiritual Awakening (Demo 1999) (03:44)
12. Lost in The Void (Demo 2007) (04:14)
13. The Missing Link (Demo 1993) (04:35)
14. Another Kind Of Madness (Demo 1991) (05:39)
15. Down To The Bone (Avenger 1985) (05:02)

CD 2 | 01:07:40

01. The Speed Of Sound (New Recorded Leftover Song 2014) (03:15)
02. Darkness Turns To Light (Bonus Track 2002) (05:04)
03. Death Is Alive (Demo 2006) (06:06)
04. Gentle Murders (Demo 2007) (03:50)
05. From The Cradle To The Grave (Demo 1997 ) (04:39)
06. Refuge (Demo 1993) (03:30)
07. Fugue No. 5 (Bonus Track 2003) (03:18)
08. Last Goodbye (Demo 1991) (04:27)
09. Dirty Wings(Demo 2006) (05:08)
10. The Pit And The Pendulum (Demo 1993) (03:57)
11. Waterfalls (Unreleased Demo 1991) (06:25)
12. Heads Off (Unreleased Demo 2006) (03:25)
13. Assorted By Satan (Avenger Demo 1984) (04:24)
14. Shame On You (Demo 1992) (05:02)
15. Soundchaser (Demo 2002) (05:15)

Лог создания рипа

CD 1

Exact Audio Copy V1.0 beta 3 from 29. August 2011
EAC extraction logfile from 23. May 2014, 11:37
Rage / The Soundchaser Archives 30th Anniversary CD 1
Used drive  : HP      DVD Writer 1170d   Adapter: 0  ID: 0
Read mode               : Secure
Utilize accurate stream : Yes
Defeat audio cache      : Yes
Make use of C2 pointers : No
Read offset correction                      : 6
Overread into Lead-In and Lead-Out          : No
Fill up missing offset samples with silence : Yes
Delete leading and trailing silent blocks   : No
Null samples used in CRC calculations       : Yes
Used interface                              : Native Win32 interface for Win NT & 2000
Used output format              : User Defined Encoder
Selected bitrate                : 768 kBit/s
Quality                         : High
Add ID3 tag                     : No
Command line compressor         : C:\Program Files (x86)\Exact Audio Copy\FLAC\FLAC.EXE
Additional command line options : -V -8 -T "Date=%year%" -T "Genre=%genre%" -T"COMMENT=Ripped by Ungern666" -8 -V %source%
TOC of the extracted CD
     Track |   Start  |  Length  | Start sector | End sector
    ---------------------------------------------------------
        1  |  0:00.00 |  4:54.60 |         0    |    22109
        2  |  4:54.60 |  4:16.01 |     22110    |    41310
        3  |  9:10.61 |  3:31.14 |     41311    |    57149
        4  | 12:42.00 |  4:41.33 |     57150    |    78257
        5  | 17:23.33 |  4:53.24 |     78258    |   100256
        6  | 22:16.57 |  4:14.00 |    100257    |   119306
        7  | 26:30.57 |  4:11.58 |    119307    |   138189
        8  | 30:42.40 |  3:48.35 |    138190    |   155324
        9  | 34:31.00 |  7:01.50 |    155325    |   186949
       10  | 41:32.50 |  3:14.36 |    186950    |   201535
       11  | 44:47.11 |  3:43.20 |    201536    |   218280
       12  | 48:30.31 |  4:13.03 |    218281    |   237258
       13  | 52:43.34 |  4:34.23 |    237259    |   257831
       14  | 57:17.57 |  5:38.52 |    257832    |   283233
       15  | 62:56.34 |  5:01.33 |    283234    |   305841
Range status and errors
Selected range
     Filename C:\EAC\Ungern666\Rage - The Soundchaser Archives 30th Anniversary CD 1.wav
     Peak level 100.0 %
     Extraction speed 7.7 X
     Range quality 100.0 %
     Test CRC 979C4A1D
     Copy CRC 979C4A1D
     Copy OK
No errors occurred
AccurateRip summary
Track  1  not present in database
Track  2  not present in database
Track  3  not present in database
Track  4  not present in database
Track  5  not present in database
Track  6  not present in database
Track  7  not present in database
Track  8  not present in database
Track  9  not present in database
Track 10  not present in database
Track 11  not present in database
Track 12  not present in database
Track 13  not present in database
Track 14  not present in database
Track 15  not present in database
None of the tracks are present in the AccurateRip database
End of status report

CD 2

Exact Audio Copy V1.0 beta 3 from 29. August 2011
EAC extraction logfile from 23. May 2014, 12:08
Rage / The Soundchaser Archives 30th Anniversary CD 2
Used drive  : HP      DVD Writer 1170d   Adapter: 0  ID: 0
Read mode               : Secure
Utilize accurate stream : Yes
Defeat audio cache      : Yes
Make use of C2 pointers : No
Read offset correction                      : 6
Overread into Lead-In and Lead-Out          : No
Fill up missing offset samples with silence : Yes
Delete leading and trailing silent blocks   : No
Null samples used in CRC calculations       : Yes
Used interface                              : Native Win32 interface for Win NT & 2000
Used output format              : User Defined Encoder
Selected bitrate                : 768 kBit/s
Quality                         : High
Add ID3 tag                     : No
Command line compressor         : C:\Program Files (x86)\Exact Audio Copy\FLAC\FLAC.EXE
Additional command line options : -V -8 -T "Date=%year%" -T "Genre=%genre%" -T"COMMENT=Ripped by Ungern666" -8 -V %source%
TOC of the extracted CD
     Track |   Start  |  Length  | Start sector | End sector
    ---------------------------------------------------------
        1  |  0:00.00 |  3:14.35 |         0    |    14584
        2  |  3:14.35 |  5:03.44 |     14585    |    37353
        3  |  8:18.04 |  6:05.61 |     37354    |    64789
        4  | 14:23.65 |  3:49.40 |     64790    |    82004
        5  | 18:13.30 |  4:38.47 |     82005    |   102901
        6  | 22:52.02 |  3:29.72 |    102902    |   118648
        7  | 26:21.74 |  3:17.49 |    118649    |   133472
        8  | 29:39.48 |  4:26.65 |    133473    |   153487
        9  | 34:06.38 |  5:07.73 |    153488    |   176585
       10  | 39:14.36 |  3:56.44 |    176586    |   194329
       11  | 43:11.05 |  6:24.62 |    194330    |   223191
       12  | 49:35.67 |  3:24.17 |    223192    |   238508
       13  | 53:00.09 |  4:23.01 |    238509    |   258234
       14  | 57:23.10 |  5:01.60 |    258235    |   280869
       15  | 62:24.70 |  5:14.63 |    280870    |   304482
Range status and errors
Selected range
     Filename C:\EAC\Ungern666\Rage - The Soundchaser Archives 30th Anniversary CD 2.wav
     Peak level 100.0 %
     Extraction speed 7.7 X
     Range quality 100.0 %
     Test CRC 09EBDD1B
     Copy CRC 09EBDD1B
     Copy OK
No errors occurred
AccurateRip summary
Track  1  not present in database
Track  2  not present in database
Track  3  not present in database
Track  4  not present in database
Track  5  not present in database
Track  6  not present in database
Track  7  not present in database
Track  8  not present in database
Track  9  not present in database
Track 10  not present in database
Track 11  not present in database
Track 12  not present in database
Track 13  not present in database
Track 14  not present in database
Track 15  not present in database
None of the tracks are present in the AccurateRip database
End of status report

Индексная карта (non-compilant .cue)

CD 1

REM DATE 2014
REM DISCID EC0FED0F
REM COMMENT "ExactAudioCopy v1.0b3"
PERFORMER "Rage"
TITLE "The Soundchaser Archives 30th Anniversary CD 1"
FILE "Rage - The Soundchaser Archives 30th Anniversary CD 1.flac" WAVE
  TRACK 01 AUDIO
    TITLE "Anybody Home? (New Demo 2014)"
    PERFORMER "Rage"
    INDEX 01 00:00:00
  TRACK 02 AUDIO
    TITLE "Mistery Trip (Bonus Track 2002)"
    PERFORMER "Rage"
    INDEX 01 04:54:60
  TRACK 03 AUDIO
    TITLE "In Union (Unreleased Demo 2006)"
    PERFORMER "Rage"
    INDEX 01 09:10:61
  TRACK 04 AUDIO
    TITLE "Long Hard Road (Demo 2007)"
    PERFORMER "Rage"
    INDEX 01 12:42:00
  TRACK 05 AUDIO
    TITLE "Full Moon (International Version)"
    PERFORMER "Rage"
    INDEX 01 17:23:33
  TRACK 06 AUDIO
    TITLE "Nevermore (Demo 1993)"
    PERFORMER "Rage"
    INDEX 01 22:16:57
  TRACK 07 AUDIO
    TITLE "French Bourree (Bonus Track 2003)"
    PERFORMER "Rage"
    INDEX 01 26:30:57
  TRACK 08 AUDIO
    TITLE "Another Perfect Day (Demo 2006)"
    PERFORMER "Rage"
    INDEX 01 30:42:40
  TRACK 09 AUDIO
    TITLE "Enough Is Enough (Demo 1991)"
    PERFORMER "Rage"
    INDEX 01 34:31:00
  TRACK 10 AUDIO
    TITLE "Here Comes The Night (Unreleased Demo 2002)"
    PERFORMER "Rage"
    INDEX 01 41:32:50
  TRACK 11 AUDIO
    TITLE "Spiritual Awakening (Demo 1999)"
    PERFORMER "Rage"
    INDEX 01 44:47:11
  TRACK 12 AUDIO
    TITLE "Lost in The Void (Demo 2007)"
    PERFORMER "Rage"
    INDEX 01 48:30:31
  TRACK 13 AUDIO
    TITLE "The Missing Link (Demo 1993)"
    PERFORMER "Rage"
    INDEX 01 52:43:34
  TRACK 14 AUDIO
    TITLE "Another Kind Of Madness (Demo 1991)"
    PERFORMER "Rage"
    INDEX 01 57:17:57
  TRACK 15 AUDIO
    TITLE "Down To The Bone (Avenger 1985)"
    PERFORMER "Rage"
    INDEX 01 62:56:34

CD 2

REM DATE 2014
REM DISCID E60FDB0F
REM COMMENT "ExactAudioCopy v1.0b3"
PERFORMER "Rage"
TITLE "The Soundchaser Archives 30th Anniversary CD 2"
FILE "Rage - The Soundchaser Archives 30th Anniversary CD 2.flac" WAVE
  TRACK 01 AUDIO
    TITLE "The Speed Of Sound (New Recorded Leftover Song 2014)"
    PERFORMER "Rage"
    INDEX 01 00:00:00
  TRACK 02 AUDIO
    TITLE "Darkness Turns To Light (Bonus Track 2002)"
    PERFORMER "Rage"
    INDEX 01 03:14:35
  TRACK 03 AUDIO
    TITLE "Death Is Alive (Demo 2006)"
    PERFORMER "Rage"
    INDEX 01 08:18:04
  TRACK 04 AUDIO
    TITLE "Gentle Murders (Demo 2007)"
    PERFORMER "Rage"
    INDEX 01 14:23:65
  TRACK 05 AUDIO
    TITLE "From The Cradle To The Grave (Demo 1997 )"
    PERFORMER "Rage"
    INDEX 01 18:13:30
  TRACK 06 AUDIO
    TITLE "Refuge (Demo 1993)"
    PERFORMER "Rage"
    INDEX 01 22:52:02
  TRACK 07 AUDIO
    TITLE "Fugue No. 5 (Bonus Track 2003) "
    PERFORMER "Rage"
    INDEX 01 26:21:74
  TRACK 08 AUDIO
    TITLE "Last Goodbye (Demo 1991)"
    PERFORMER "Rage"
    INDEX 01 29:39:48
  TRACK 09 AUDIO
    TITLE "Dirty Wings(Demo 2006)"
    PERFORMER "Rage"
    INDEX 01 34:06:38
  TRACK 10 AUDIO
    TITLE "The Pit And The Pendulum (Demo 1993)"
    PERFORMER "Rage"
    INDEX 01 39:14:36
  TRACK 11 AUDIO
    TITLE "Waterfalls (Unreleased Demo 1991)"
    PERFORMER "Rage"
    INDEX 01 43:11:05
  TRACK 12 AUDIO
    TITLE "Heads Off (Unreleased Demo 2006)"
    PERFORMER "Rage"
    INDEX 01 49:35:67
  TRACK 13 AUDIO
    TITLE "Assorted By Satan (Avenger Demo 1984)"
    PERFORMER "Rage"
    INDEX 01 53:00:09
  TRACK 14 AUDIO
    TITLE "Shame On You (Demo 1992)"
    PERFORMER "Rage"
    INDEX 01 57:23:10
  TRACK 15 AUDIO
    TITLE "Soundchaser (Demo 2002)"
    PERFORMER "Rage"
    INDEX 01 62:24:70

Лог Audiochecker

CD 1

AUDIOCHECKER v2.0 beta (build 457) - by Dester - opdester@freemail.hu
~~~~~~~~~~~~~~~~~~~~~~~~~~~~~~~~~~
Started at: вторник, 17. 03. 2015. - 10:54.25
1 file found
1 -===- D:\Torrent files\Rage-The Soundchaser Archives 30th Anniversary-2014\Rage-The Soundchaser Archives 30th Anniversary CD 1-2014\Rage - The Soundchaser Archives 30th Anniversary CD 1.flac
  Extracted successfully
  Conclusion: this track is CDDA with probability 100%
  Tempfile successfully deleted.
Finished at: вторник, 17. 03. 2015. - 10:57.44 (operation time: 0:03.18)

CD 2

AUDIOCHECKER v2.0 beta (build 457) - by Dester - opdester@freemail.hu
~~~~~~~~~~~~~~~~~~~~~~~~~~~~~~~~~~
Started at: вторник, 17. 03. 2015. - 10:58.21
1 file found
1 -===- D:\Torrent files\Rage-The Soundchaser Archives 30th Anniversary-2014\Rage-The Soundchaser Archives 30th Anniversary CD 2-2014\Rage - The Soundchaser Archives 30th Anniversary CD 2.flac
  Extracted successfully
  Conclusion: this track is CDDA with probability 100%
  Tempfile successfully deleted.
Finished at: вторник, 17. 03. 2015. - 11:01.38 (operation time: 0:03.16)

Скриншот спектра частот

--
[Профиль] [ЛС]
Показать сообщения:    

Текущее время: Сегодня 16:25

Часовой пояс: GMT



Вы не можете начинать темы
Вы не можете отвечать на сообщения
Вы не можете редактировать свои сообщения
Вы не можете удалять свои сообщения
Вы не можете голосовать в опросах
Вы не можете прикреплять файлы к сообщениям
Вы не можете скачивать файлы