(Melodic Hard & Heavy ) Rage Of Angels - Dreamworld - 2013 [FLAC, image +.cue, lossless]

 
Автор Сообщение

sergej644 ®

Пол:

Стаж: 4 года 11 месяцев

Сообщений: 6037

Откуда: Soviet Union



Награды: Нет

Торрент-статистика

Создавать темы 07-Фев-2016 10:58

[Цитировать]

-Rage Of Angels - Dreamworld--
Год издания: 2013
Страна: USA
Жанр: Melodic Hard & Heavy
Продолжительность: 01:03:08-Лейбл издания: Escape Music
Страна-выпуска диска: EU
Номер по каталогу: ESM248-Формат: FLAC
Битрейт аудио: Lossless
Тип рипа: image +.cue
Наличие сканов в содержимом раздачи: да
-

Трэклист


01. Dreamworld (07:02)
02. See You Walking By (06:02)
03. Through It All (05:58)
04. Over And Over (06:41)
05. Prelude For The Gods (01:23)
06. Falling (05:31)
07. With The Beating Of Your Heart (07:13)
08. Spinning Wheel (07:56)
09. Requiem For The Forgotten Soldier (06:38)
10. We Live We Breath We Die (08:49)
-

Лог создания рипа

Exact Audio Copy V1.0 beta 3 from 29. August 2011
EAC extraction logfile from 13. April 2013, 20:49
Rage Of Angels / Dreamworld (ESM248)
Used drive  : PLEXTOR BD-R   PX-B940SA   Adapter: 0  ID: 4
Read mode               : Secure
Utilize accurate stream : Yes
Defeat audio cache      : Yes
Make use of C2 pointers : No
Read offset correction                      : 667
Overread into Lead-In and Lead-Out          : No
Fill up missing offset samples with silence : Yes
Delete leading and trailing silent blocks   : No
Null samples used in CRC calculations       : Yes
Used interface                              : Installed external ASPI interface
Used output format              : User Defined Encoder
Selected bitrate                : 1024 kBit/s
Quality                         : High
Add ID3 tag                     : Yes
Command line compressor         : E:\Program Files (x86)\Exact Audio Copy\Flac\flac.exe
Additional command line options : -V -8 -T "Date=%year%" -T "Genre=%genre%" %source%
TOC of the extracted CD
     Track |   Start  |  Length  | Start sector | End sector
    ---------------------------------------------------------
        1  |  0:00.00 |  7:01.60 |         0    |    31634
        2  |  7:01.60 |  6:01.23 |     31635    |    58732
        3  | 13:03.08 |  5:57.45 |     58733    |    85552
        4  | 19:00.53 |  6:40.57 |     85553    |   115609
        5  | 25:41.35 |  1:22.09 |    115610    |   121768
        6  | 27:03.44 |  5:30.14 |    121769    |   146532
        7  | 32:33.58 |  7:12.20 |    146533    |   178952
        8  | 39:46.03 |  7:55.46 |    178953    |   214623
        9  | 47:41.49 |  6:37.25 |    214624    |   244423
       10  | 54:18.74 |  8:48.22 |    244424    |   284045
Range status and errors
Selected range
     Filename D:\MUSIC\Rage Of Angels - Dreamworld (ESM248).wav
     Peak level 100.0 %
     Extraction speed 5.1 X
     Range quality 100.0 %
     Test CRC 0D26EEF5
     Copy CRC 0D26EEF5
     Copy OK
No errors occurred
AccurateRip summary
Track  1  not present in database
Track  2  not present in database
Track  3  not present in database
Track  4  not present in database
Track  5  not present in database
Track  6  not present in database
Track  7  not present in database
Track  8  not present in database
Track  9  not present in database
Track 10  not present in database
None of the tracks are present in the AccurateRip database
End of status report

Индексная карта (non-compilant .cue)

REM DISCID 890ECB0A
REM COMMENT "ExactAudioCopy v1.0b3"
PERFORMER "Rage Of Angels"
TITLE "Dreamworld (ESM248)"
FILE "Rage Of Angels - Dreamworld (ESM248).flac" WAVE
  TRACK 01 AUDIO
    TITLE "01 Dreamworld"
    PERFORMER "Rage Of Angels"
    ISRC GBT5D1100001
    INDEX 01 00:00:00
  TRACK 02 AUDIO
    TITLE "02 See You Walking By"
    PERFORMER "Rage Of Angels"
    ISRC GBT5D1100002
    INDEX 01 07:01:60
  TRACK 03 AUDIO
    TITLE "03 Through It All"
    PERFORMER "Rage Of Angels"
    ISRC GBT5D1100003
    INDEX 01 13:03:08
  TRACK 04 AUDIO
    TITLE "04 Over And Over"
    PERFORMER "Rage Of Angels"
    ISRC GBT5D1100004
    INDEX 01 19:00:53
  TRACK 05 AUDIO
    TITLE "05 Prelude For The Gods"
    PERFORMER "Rage Of Angels"
    ISRC GBT5D1100005
    INDEX 01 25:41:35
  TRACK 06 AUDIO
    TITLE "06 Falling"
    PERFORMER "Rage Of Angels"
    ISRC GBT5D1100006
    INDEX 01 27:03:44
  TRACK 07 AUDIO
    TITLE "07 With The Beating Of Your Heart"
    PERFORMER "Rage Of Angels"
    ISRC GBT5D1100007
    INDEX 01 32:33:58
  TRACK 08 AUDIO
    TITLE "08 Spinning Wheel"
    PERFORMER "Rage Of Angels"
    ISRC GBT5D1100008
    INDEX 01 39:46:03
  TRACK 09 AUDIO
    TITLE "09 Requiem For The Forgotten Soldier"
    PERFORMER "Rage Of Angels"
    ISRC GBT5D1100009
    INDEX 01 47:41:49
  TRACK 10 AUDIO
    TITLE "10 We Live We Breath We Die"
    PERFORMER "Rage Of Angels"
    ISRC GBT5D1100010
    INDEX 01 54:18:74
--
[Профиль] [ЛС]
Показать сообщения:    

Текущее время: Сегодня 18:00

Часовой пояс: GMT



Вы не можете начинать темы
Вы не можете отвечать на сообщения
Вы не можете редактировать свои сообщения
Вы не можете удалять свои сообщения
Вы не можете голосовать в опросах
Вы не можете прикреплять файлы к сообщениям
Вы не можете скачивать файлы