Radiorama - Swedish Remixes (2006) [APE|Lossless]<Italo-Disco>

 
Автор Сообщение

sergej644 ®

Пол:

Стаж: 4 года 11 месяцев

Сообщений: 6040

Откуда: Soviet Union



Награды: Нет

Торрент-статистика

Создавать темы 24-Дек-2014 22:27

[Цитировать]

-Radiorama - Swedish Remixes (2006)- Год: 2006
Лейбл: ESonCD
Каталог #: 20065-2
Жанр: Italo-Disco
Продолжительность: 00:59:50
Кодек: APE
Битрейт: Lossless
Тип битрейта: image +.cue
Треклист:
01. Desire (Original 12'' Version) 4:59
02. Vampires (Original 12'' Version) 6:14
03. Yeti (Extended Vocal Original) 6:06
04. Aliens (Original 12'' Version) 5:42
05. Fire (Extended Swedish Remix) 6:34
06. Yeti (Extended Vocal Remix) 6:49
07. Desire (Swedish Remix) 7:19
08. Aliens (Swedish Remix) 5:42
09. Vampires (Swedish Remix) 6:22
10. Fire (Instrumental Swedish Remix) 4:01

Отчёт ЕАС&#58;

Exact Audio Copy V0.99 prebeta 5 from 4. May 2009
Отчёт EAC об извлечении, выполненном 12. сентября 2009, 21:40
Radiorama / Swedish Remixes
Дисковод: Optiarc DVD RW AD-5200A Adapter: 0 ID: 0
Режим чтения : Достоверность
Использование точного потока : Да
Отключение кэша аудио : Да
Использование указателей C2 : Нет
Коррекция смещения при чтении : 48
Способность читать области Lead-in и Lead-out : Нет
Заполнение пропущенных сэмплов тишиной : Да
Удаление блоков с тишиной в начале и конце : Нет
При вычислениях CRC использовались нулевые сэмплы : Да
Интерфейс : Установленный внешний ASPI-интерфейс
Выходной формат : Внутренние WAV-операции
Формат сэмплов : 44.100 Гц; 16 бит; стерео
TOC извлечённого CD
Трек | Старт | Длительность | Начальный сектор | Конечный сектор
---------------------------------------------------------------------
1 | 0:00.00 | 4:59.21 | 0 | 22445
2 | 4:59.21 | 6:14.27 | 22446 | 50522
3 | 11:13.48 | 6:06.29 | 50523 | 78001
4 | 17:20.02 | 5:42.28 | 78002 | 103679
5 | 23:02.30 | 6:34.10 | 103680 | 133239
6 | 29:36.40 | 6:48.71 | 133240 | 163910
7 | 36:25.36 | 7:19.31 | 163911 | 196866
8 | 43:44.67 | 5:42.34 | 196867 | 222550
9 | 49:27.26 | 6:22.03 | 222551 | 251203
10 | 55:49.29 | 4:01.09 | 251204 | 269287
Характеристики диапазона извлечения и сообщения об ошибках
Выбранный диапазон
Имя файла E:\Radiorama - Swedish Remixes\Radiorama - Swedish Remixes.wav
Пиковый уровень 98.0 %
Качество диапазона 100.0 %
CRC теста 1C4B6760
CRC копии 1C4B6760
Копирование... OK
Ошибок не произошло
AccurateRip: сводка
Трек 1 нет в базе данных
Трек 2 нет в базе данных
Трек 3 нет в базе данных
Трек 4 нет в базе данных
Трек 5 нет в базе данных
Трек 6 нет в базе данных
Трек 7 нет в базе данных
Трек 8 нет в базе данных
Трек 9 нет в базе данных
Трек 10 нет в базе данных
Ни одного трека нет в базе AccurateRip
Конец отчёта

Отчёт auCDtect Task manager&#58;

-----------------------
DON'T MODIFY THIS FILE
-----------------------
PERFORMER: auCDtect Task Manager, ver. 1.5.1RC4 build 1.5.1.5
Copyright (c) 2008-2010 y-soft. All rights reserved
http://y-soft.org
ANALYZER: auCDtect: CD records authenticity detector, version 0.8.2
Copyright (c) 2004 Oleg Berngardt. All rights reserved.
Copyright (c) 2004 Alexander Djourik. All rights reserved.
FILE: Radiorama - Swedish Remixes.ape
  Size: 432159940 Hash: 2901B1636227E772847592F6C3BE8962 Accuracy: -m0
  Conclusion: CDDA 100%
  Signature: F6F59A6DD1D0C4E4379790B56AB42DD9EFD0C757

Содержание индексной карты (.CUE&#41;&#58;

REM GENRE Italo-Disco
REM DATE 2006
REM DISCID 8E0E060A
REM COMMENT "ExactAudioCopy v0.99pb5"
PERFORMER "Radiorama"
TITLE "Swedish Remixes"
FILE "Radiorama - Swedish Remixes.ape" WAVE
  TRACK 01 AUDIO
    TITLE "Desire (Original 12' Version)"
    PERFORMER "Radiorama"
    FLAGS DCP
    INDEX 01 00:00:00
  TRACK 02 AUDIO
    TITLE "Vampires (Original 12' Version)"
    PERFORMER "Radiorama"
    FLAGS DCP
    INDEX 00 04:57:21
    INDEX 01 04:59:21
  TRACK 03 AUDIO
    TITLE "Yeti (Extended Vocal Original)"
    PERFORMER "Radiorama"
    FLAGS DCP
    INDEX 00 11:11:48
    INDEX 01 11:13:48
  TRACK 04 AUDIO
    TITLE "Aliens (Original 12' Version)"
    PERFORMER "Radiorama"
    FLAGS DCP
    INDEX 00 17:18:02
    INDEX 01 17:20:02
  TRACK 05 AUDIO
    TITLE "Fire (Extended Swedish Remix)"
    PERFORMER "Radiorama"
    FLAGS DCP
    INDEX 00 23:00:30
    INDEX 01 23:02:30
  TRACK 06 AUDIO
    TITLE "Yeti (Extended Vocal Remix)"
    PERFORMER "Radiorama"
    FLAGS DCP
    INDEX 00 29:34:40
    INDEX 01 29:36:40
  TRACK 07 AUDIO
    TITLE "Desire (Swedish Remix)"
    PERFORMER "Radiorama"
    FLAGS DCP
    INDEX 00 36:23:36
    INDEX 01 36:25:36
  TRACK 08 AUDIO
    TITLE "Aliens (Swedish Remix)"
    PERFORMER "Radiorama"
    FLAGS DCP
    INDEX 00 43:42:67
    INDEX 01 43:44:67
  TRACK 09 AUDIO
    TITLE "Vampires (Swedish Remix)"
    PERFORMER "Radiorama"
    FLAGS DCP
    INDEX 00 49:25:26
    INDEX 01 49:27:26
  TRACK 10 AUDIO
    TITLE "Fire (Instrumental Swedish Remix)"
    PERFORMER "Radiorama"
    FLAGS DCP
    INDEX 00 55:47:29
    INDEX 01 55:49:29
[Профиль] [ЛС]

Создавать темы 13-Авг-2015 10:44 (спустя 7 месяцев 20 дней)

Топик был перенесен из форума Зарубежная в форум Technopop, Eurodance, Disco
sergej644
 
Показать сообщения:    

Текущее время: Сегодня 02:44

Часовой пояс: GMT



Вы не можете начинать темы
Вы не можете отвечать на сообщения
Вы не можете редактировать свои сообщения
Вы не можете удалять свои сообщения
Вы не можете голосовать в опросах
Вы не можете прикреплять файлы к сообщениям
Вы не можете скачивать файлы